<?xml version="1.0" standalone="no"?>
<!DOCTYPE svg PUBLIC "-//W3C//DTD SVG 1.1//EN" "http://www.w3.org/Graphics/SVG/1.1/DTD/svg11.dtd" >
<svg xmlns="http://www.w3.org/2000/svg" xmlns:xlink="http://www.w3.org/1999/xlink" version="1.1">
<metadata></metadata>
<defs>
<font id="barlowregular" horiz-adv-x="1243" >
<font-face units-per-em="2048" ascent="1638" descent="-410" />
<missing-glyph horiz-adv-x="409" />
<glyph horiz-adv-x="0" />
<glyph unicode="&#xd;" horiz-adv-x="409" />
<glyph unicode=" "  horiz-adv-x="409" />
<glyph unicode="&#x09;" horiz-adv-x="409" />
<glyph unicode="&#xa0;" horiz-adv-x="409" />
<glyph unicode="!" horiz-adv-x="661" d="M199 129q0 49 38.5 85t88.5 36q49 0 88 -36t39 -85q0 -51 -37 -86t-90 -35q-56 0 -91.5 35t-35.5 86zM258 1407q0 27 27 27h92q27 0 26 -27l-12 -913q0 -27 -26 -27h-70q-27 0 -27 27z" />
<glyph unicode="&#x22;" horiz-adv-x="538" d="M61 1395q0 27 25 26h94q25 0 25 -26l-15 -369q0 -27 -26 -27h-62q-26 0 -26 27zM338 1395q0 27 24 26h93q25 0 24 -26l-14 -369q0 -27 -27 -27h-59q-27 0 -27 27z" />
<glyph unicode="#" horiz-adv-x="1349" d="M147 436l3 74q0 27 26 27h141q12 0 13 10l49 321q0 10 -8 11h-121q-27 0 -27 26v76q0 27 27 27h141q12 0 12 10l54 342q4 25 28 24l93 -4q12 0 19 -8t5 -20l-51 -334q0 -10 8 -10h320q12 0 12 10l53 342q4 25 29 24l92 -4q12 0 19.5 -8t5.5 -20l-52 -334q0 -10 9 -10h129 q27 0 26 -27l-2 -76q1 -26 -26 -26h-148q-12 0 -12 -11l-49 -321q0 -10 8 -10h129q27 0 26 -27l-2 -74q0 -27 -26 -26h-146q-12 0 -12 -11l-53 -342q-2 -25 -29 -24l-92 4q-12 0 -19.5 8t-5.5 21l52 333q0 10 -9 11h-321q-12 0 -12 -11l-54 -342q-2 -25 -28 -24l-92 4 q-12 0 -19.5 8t-5.5 21l51 333q0 10 -8 11h-123q-27 0 -27 26zM477 547q0 -10 8 -10h322q12 0 12 10l49 321q0 10 -8 11h-321q-12 0 -13 -11z" />
<glyph unicode="$" horiz-adv-x="1116" d="M121 346v78q0 27 26 27h86q27 0 27 -27v-49q0 -119 83 -191.5t230 -72.5q139 0 213 66.5t74 178.5q0 66 -38 114t-99 87t-182 102l-103 54q-111 57 -173 104t-97 110.5t-35 157.5q0 158 89 251.5t259 111.5q10 0 11 10l-3 129q0 27 27 27h49q27 0 27 -27l-2 -127 q0 -10 10 -10q188 -12 291.5 -111.5t103.5 -259.5v-57q0 -27 -26 -27h-90q-27 0 -27 27v31q0 121 -79 195.5t-226 74.5q-129 0 -198.5 -59.5t-69.5 -169.5q0 -70 33.5 -115t89 -77t165.5 -81q23 -10 42.5 -18t35.5 -17q188 -88 274.5 -184t86.5 -237q0 -164 -102.5 -265.5 t-293.5 -115.5q-10 0 -10 -11l2 -114q0 -27 -27 -27h-51q-27 0 -26 27l2 116q0 10 -11 11q-172 18 -270 114.5t-98 245.5z" />
<glyph unicode="%" horiz-adv-x="1736" d="M193 1161q0 80 39.5 146.5t107.5 105.5t147 39q80 0 147.5 -39t106.5 -105.5t39 -146.5t-39 -146.5t-106.5 -105.5t-147.5 -39q-79 0 -147 39t-107.5 105.5t-39.5 146.5zM283 1161q0 -86 59 -145.5t145 -59.5q84 0 143.5 60.5t59.5 144.5q0 86 -59.5 145.5t-143.5 59.5 q-86 0 -145 -59.5t-59 -145.5zM427 9q-5 9 3 24l770 1382q10 18 31 19h53q16 0 21.5 -9.5t-2.5 -23.5l-768 -1383q-8 -18 -31 -18h-55q-17 0 -22 9zM963 274q0 78 39.5 144.5t107.5 105.5t147 39q78 0 145.5 -39t106.5 -105.5t39 -144.5q0 -80 -39 -147.5t-105.5 -106 t-146.5 -38.5q-79 0 -147 38.5t-107.5 106.5t-39.5 147zM1051 274q0 -88 60 -147t146 -59q84 0 143.5 60t59.5 146q0 84 -59.5 143.5t-143.5 59.5q-86 0 -146 -59.5t-60 -143.5z" />
<glyph unicode="&#x26;" horiz-adv-x="1355" d="M117 315q0 141 79.5 242.5t223.5 196.5q8 8 2 14q-119 145 -158 217t-39 143q0 145 94.5 233.5t249.5 88.5q158 0 257.5 -86t99.5 -227q0 -125 -77 -215.5t-216 -182.5q-6 -6 -2 -14l239 -281l68 -82q8 -8 14 0q66 78 131 170q14 20 37 9l66 -39q14 -8 14 -21 q0 -6 -6 -16q-104 -147 -158 -209l-2 -4q0 -8 13 -21l88 -104l82 -94q6 -9 6 -17q0 -16 -23 -16h-102q-20 0 -33 14l-117 136q-6 8 -14 2q-96 -88 -196.5 -128t-219.5 -40q-180 0 -290.5 85t-110.5 246zM262 317q0 -98 70.5 -153t189.5 -55q90 0 168 34.5t158 108.5 q8 6 2 14l-90 105q-41 49 -68 78q-133 154 -174 202q-6 8 -14 2q-117 -84 -179.5 -160.5t-62.5 -175.5zM371 1128q0 -49 30.5 -104t133.5 -180q6 -8 14 -2q113 78 172 144.5t59 150.5q0 80 -57 129t-150 49q-92 0 -147 -50.5t-55 -136.5z" />
<glyph unicode="'" horiz-adv-x="270" d="M61 1403q0 27 25 27h98q25 0 25 -27l-14 -367q0 -27 -27 -26h-66q-26 -1 -26 26z" />
<glyph unicode="(" horiz-adv-x="534" d="M-10 666q0 258 61.5 491.5t163.5 388.5q8 16 31 17h86q16 0 21 -8.5t-3 -22.5q-86 -160 -140 -388.5t-54 -475.5q0 -244 54 -468.5t140 -381.5q4 -12 4 -15q0 -16 -22 -16h-90q-23 0 -33 16q-98 154 -158.5 381.5t-60.5 481.5z" />
<glyph unicode=")" horiz-adv-x="534" d="M180 1546q0 16 23 17h86q23 0 30 -17q102 -156 164 -389t62 -491q0 -254 -60.5 -481.5t-158.5 -381.5q-10 -16 -33 -16h-90q-16 0 -21.5 8t2.5 23q86 158 140.5 382t54.5 468q0 248 -54.5 476t-140.5 388q-4 12 -4 14z" />
<glyph unicode="*" horiz-adv-x="813" d="M68 1018q0 12 14 20l219 123q10 6 0 13l-219 122q-20 12 -10 35l20 39q6 10 16.5 13t20.5 -3l219 -127q4 -2 8 0t4 9l-2 241q0 27 27 27h43q27 0 27 -27l-2 -241q0 -6 4 -8.5t8 -0.5l219 127q8 4 14 4q14 0 23 -14l20 -39q4 -12 4 -14q0 -12 -14 -21l-221 -122 q-8 -6 0 -13l221 -123q23 -12 10 -34l-20 -39q-6 -10 -16.5 -13.5t-20.5 2.5l-219 127q-4 4 -8 1t-4 -9l2 -242q0 -27 -27 -26h-43q-27 -1 -27 26l2 242q0 6 -4 9t-8 -1l-219 -127q-8 -4 -14 -4q-14 0 -23 15l-20 39q-4 12 -4 14z" />
<glyph unicode="+" horiz-adv-x="1024" d="M80 604v74q0 27 26 27h332q10 0 11 10v340q0 27 26 26h74q27 0 26 -26v-340q0 -10 11 -10h332q26 0 26 -27v-74q0 -27 -26 -26h-332q-10 0 -11 -11v-323q0 -27 -26 -27h-74q-27 0 -26 27v323q0 10 -11 11h-332q-27 0 -26 26z" />
<glyph unicode="," horiz-adv-x="540" d="M139 -133l88 426q6 25 29 24h78q29 0 22 -28l-110 -428q-6 -23 -31 -23h-51q-14 0 -20.5 7.5t-4.5 21.5z" />
<glyph unicode="-" horiz-adv-x="806" d="M80 600v74q0 27 26 26h594q27 0 27 -26v-74q0 -27 -27 -27h-594q-26 0 -26 27z" />
<glyph unicode="." horiz-adv-x="561" d="M150 127q0 49 37.5 85t88.5 36q49 0 88 -36t39 -85q0 -51 -36.5 -86t-90.5 -35q-55 0 -90.5 35t-35.5 86z" />
<glyph unicode="/" horiz-adv-x="731" d="M70 31l450 1380q6 23 29 23h90q14 0 20.5 -8.5t2.5 -22.5l-451 -1380q-6 -23 -29 -23h-90q-14 0 -20 8t-2 23z" />
<glyph unicode="0" horiz-adv-x="1157" d="M145 393v647q0 188 117 300t313 112q199 0 318 -112.5t119 -299.5v-647q0 -188 -119 -300.5t-318 -112.5q-196 0 -313 112.5t-117 300.5zM291 385q0 -127 77.5 -203t206.5 -76q132 0 211.5 76t79.5 203v662q0 125 -78.5 200.5t-212.5 75.5q-129 0 -206.5 -76t-77.5 -200 v-662z" />
<glyph unicode="1" horiz-adv-x="704" d="M111 1212v64q0 20 18 31l223 118q15 9 35 9h100q27 0 27 -27v-1380q0 -27 -27 -27h-92q-27 0 -26 27v1247q0 6 -3.5 8t-9.5 0l-215 -90q-4 -2 -12 -2q-18 0 -18 22z" />
<glyph unicode="2" horiz-adv-x="1097" d="M117 1024v76q4 158 117.5 254t287.5 96q123 0 217.5 -47t145.5 -130t51 -188q0 -174 -193 -419q-92 -121 -340 -424l-84 -103q-4 -4 -2 -8t9 -4h626q27 0 27 -27v-73q0 -27 -27 -27h-805q-26 0 -26 27v75q0 18 12 33q154 182 463 570q193 244 192 378q0 109 -73.5 174.5 t-192.5 65.5q-117 0 -188.5 -66.5t-69.5 -175.5v-57q0 -27 -26 -27h-95q-27 0 -26 27z" />
<glyph unicode="3" horiz-adv-x="1056" d="M102 410q0 27 27 26h94q27 0 27 -26q4 -70 12 -105q23 -88 88.5 -141t161.5 -53q88 0 148.5 42t87.5 119q29 76 28 170q0 121 -37 201q-57 147 -229 148q-33 0 -66 -13q-12 -4 -14 -4q-12 0 -20 12l-45 54q-8 12 -9 18q0 6 9 19l356 417q10 12 -6 13h-574q-27 0 -26 26 v74q0 27 26 27h746q27 0 26 -27v-82q0 -16 -12 -33l-330 -395q-4 -4 -2 -8t11 -4q223 -14 301 -207q41 -101 41 -240q0 -104 -31 -196q-41 -125 -138.5 -191.5t-240.5 -66.5q-145 0 -247.5 75.5t-139.5 200.5q-18 63 -23 150z" />
<glyph unicode="4" horiz-adv-x="1128" d="M100 422v65q0 12 9 33l413 893q10 20 33 21h94q16 0 21.5 -8.5t-0.5 -22.5l-402 -864q-2 -4 0 -8.5t6 -4.5h459q10 0 10 11v321q0 27 27 27h92q27 0 27 -27v-321q0 -10 10 -11h80q27 1 27 -26v-78q0 -27 -27 -27h-80q-10 0 -10 -10v-358q0 -27 -27 -27h-92q-27 0 -27 27 v358q0 10 -10 10h-606q-27 0 -27 27z" />
<glyph unicode="5" horiz-adv-x="1052" d="M135 338v4q0 12 7.5 18.5t19.5 6.5h94q27 0 29 -27q0 -10 8 -35q20 -88 85.5 -140t162.5 -52q98 0 163.5 55t86.5 151q12 47 12 121q0 70 -10 135q-14 94 -82 143.5t-170 49.5q-88 0 -156 -37t-92 -102q-8 -23 -31 -23h-100q-27 0 -27 27v774q0 27 27 27h704q27 0 27 -27 v-74q0 -27 -27 -26h-575q-10 0 -10 -11l-2 -489q0 -8 4 -9t8 3q51 47 120.5 71.5t145.5 24.5q145 0 245.5 -70.5t129.5 -199.5q18 -91 18 -185q0 -100 -18 -172q-35 -131 -139.5 -207.5t-251.5 -76.5q-145 0 -248 73.5t-139 196.5q-12 41 -19 82z" />
<glyph unicode="6" horiz-adv-x="1054" d="M133 444v639q0 168 110.5 267.5t288.5 99.5q174 0 281 -96.5t107 -253.5v-23q0 -27 -27 -26h-92q-12 0 -19.5 5t-7.5 13v18q0 104 -67.5 170t-174.5 66q-111 0 -182 -68.5t-71 -181.5v-297q0 -6 4 -7t8 5q90 119 270 119q129 0 216 -57.5t132 -161.5q43 -93 43 -234 q0 -127 -32 -204q-43 -119 -137.5 -184.5t-235.5 -65.5q-147 0 -247.5 69.5t-141.5 196.5q-25 82 -25 192zM279 434q0 -90 20 -149q25 -78 87.5 -125t156.5 -47q88 0 151.5 44t87.5 128q25 63 25 155q0 106 -29 164q-25 76 -86 119t-151 43t-151.5 -44t-86.5 -122 q-25 -63 -24 -166z" />
<glyph unicode="7" horiz-adv-x="968" d="M74 1210l2 197q0 27 26 27h795q27 0 27 -27v-84q0 -16 -6 -33l-467 -1270q-6 -20 -31 -20h-103q-14 0 -19 8t-1 23l469 1263q4 12 -8 13h-549q-10 0 -10 -11v-86q0 -27 -27 -26h-72q-27 0 -26 26z" />
<glyph unicode="8" horiz-adv-x="1062" d="M119 403q0 113 41 205q49 102 137 154q10 6 0 12q-72 45 -115 107q-61 88 -61 200q0 115 57 201q51 82 142.5 127t207.5 45q129 0 221.5 -48t141.5 -142q45 -80 45 -183q0 -113 -59 -194q-47 -70 -117 -113q-12 -8 0 -14q94 -53 139 -158q39 -80 39 -201q0 -139 -57 -239 q-49 -84 -140.5 -131t-212.5 -47t-213 49t-141 139q-55 98 -55 231zM264 1069q0 -86 45 -149q33 -49 86.5 -77t122.5 -30h12q74 0 130.5 30.5t93.5 84.5q39 59 39 143q0 76 -31 131q-33 59 -93.5 93t-142.5 34q-78 0 -137 -33.5t-92 -93.5q-33 -61 -33 -133zM266 410 q0 -109 43 -189q70 -113 219 -112q145 0 215 104q50 82 50 201q0 72 -25 141q-29 74 -90.5 114t-149.5 40q-170 0 -233 -148q-29 -59 -29 -151z" />
<glyph unicode="9" horiz-adv-x="1067" d="M115 993q0 127 32 205q43 119 137.5 184.5t235.5 65.5q147 0 247.5 -69.5t141.5 -196.5q25 -82 25 -193v-639q0 -168 -110.5 -267t-288.5 -99q-174 0 -281 96t-107 254v22q0 27 27 27h92q12 0 19.5 -5t7.5 -13v-19q0 -104 67.5 -169.5t174.5 -65.5q111 0 182 68.5 t71 180.5v297q0 6 -4 7.5t-8 -5.5q-88 -119 -270 -118q-129 0 -216 57t-132 162q-43 92 -43 233zM260 993q0 -106 29 -164q25 -76 86 -118.5t151 -42.5t151.5 44t86.5 122q25 66 24 165q0 90 -20 150q-25 78 -87.5 125t-156.5 47q-88 0 -151.5 -44t-87.5 -128 q-25 -63 -25 -156z" />
<glyph unicode=":" horiz-adv-x="694" d="M221 152q0 49 38 84.5t87 35.5q51 0 90 -35.5t39 -84.5q0 -51 -38 -87t-91 -36t-89 35.5t-36 87.5zM221 840q0 49 38 85t87 36q51 0 90 -36t39 -85q0 -51 -38 -86t-91 -35t-89 34.5t-36 86.5z" />
<glyph unicode=";" horiz-adv-x="636" d="M197 834q0 49 38.5 83.5t88.5 34.5q49 0 89 -34.5t40 -83.5q0 -51 -38 -87t-91 -36q-56 0 -91.5 34.5t-35.5 88.5zM207 -125l53 410q4 25 29 24h82q29 0 22 -28l-82 -410q-4 -25 -28 -25h-52q-12 0 -19 8.5t-5 20.5z" />
<glyph unicode="&#x3c;" horiz-adv-x="1024" d="M80 510v86q0 23 20 33l813 377q8 4 13 4q18 0 18 -25v-86q0 -20 -20 -31l-684 -309q-12 -6 0 -12l684 -309q20 -10 20 -31v-86q0 -15 -8 -21t-23 0l-813 377q-20 10 -20 33z" />
<glyph unicode="=" horiz-adv-x="1024" d="M80 397v74q0 27 26 27h812q27 0 26 -27v-74q0 -27 -26 -26h-812q-26 -1 -26 26zM80 825v74q0 27 26 27h812q27 0 26 -27v-74q0 -27 -26 -26h-812q-26 -1 -26 26z" />
<glyph unicode="&#x3e;" horiz-adv-x="1024" d="M80 121v86q0 20 20 31l684 309q12 6 0 12l-684 309q-20 10 -20 31v86q0 16 8 21.5t23 -0.5l813 -377q20 -10 20 -33v-86q0 -23 -20 -33l-813 -377q-9 -4 -13 -4q-18 0 -18 25z" />
<glyph unicode="?" horiz-adv-x="944" d="M82 1038v52q0 162 108.5 262t284.5 100q172 0 276.5 -98.5t104.5 -261.5q0 -90 -29.5 -156t-70.5 -107t-109 -94q-70 -53 -104.5 -94t-34.5 -98v-107q0 -27 -27 -26h-94q-27 -1 -27 26v115q0 88 43 143.5t132 124.5q59 47 94 81t58.5 81t23.5 111q0 102 -65.5 164.5 t-174.5 62.5q-111 0 -177.5 -63.5t-66.5 -165.5v-58q0 -25 -26 -24l-92 4q-27 0 -27 26zM322 121q0 47 35.5 82t84.5 35t86 -35t37 -82q0 -49 -36.5 -83t-86.5 -34q-51 0 -85.5 34t-34.5 83z" />
<glyph unicode="@" horiz-adv-x="1693" d="M131 469q0 246 114.5 427t298 274.5t386.5 93.5q188 0 332.5 -76t223.5 -213t79 -313q0 -33 -9 -107q-27 -188 -118.5 -292.5t-231.5 -104.5q-143 0 -207 104q-6 8 -14 0q-37 -49 -92 -75.5t-121 -26.5q-111 0 -180.5 54t-79.5 142q-2 14 -2 50q0 45 10 126 q16 121 37 179q31 90 108.5 143t172.5 53q115 0 174 -76q4 -4 8 -3t4 8l4 36q4 25 29 25h51q12 0 19.5 -8t5.5 -21l-54 -422q-2 -12 -2 -32q0 -70 38 -115t104 -45q86 0 146 78t81 217q8 49 8 106q0 156 -67.5 271.5t-188.5 177t-276 61.5q-174 0 -331 -79.5t-255 -237.5 t-98 -383q0 -162 61 -288t179 -196.5t280 -70.5q98 0 192 23.5t146 56.5q12 8 18 8q10 0 19 -12l26 -33q8 -12 8 -19q0 -10 -12 -18q-70 -49 -183.5 -77.5t-228.5 -28.5q-186 0 -325 82.5t-213 232t-74 344.5zM614 420q0 -23 2 -33q4 -59 46.5 -96t111.5 -37q66 0 113 37 t67 96q9 23 15 50.5t14 97.5q10 84 10 145q-4 59 -44 97t-105 38q-66 0 -116 -38t-73 -95q-10 -20 -16 -55t-14 -97q-10 -74 -11 -110z" />
<glyph unicode="A" d="M76 31l450 1380q6 23 29 23h131q23 0 29 -23l452 -1380q2 -4 2 -11q0 -8 -7 -14t-17 -6h-98q-23 0 -29 23l-82 249q-4 8 -10 9h-611q-6 0 -10 -9l-80 -249q-6 -23 -28 -23h-99q-14 0 -20 8t-2 23zM350 412q-2 -13 8 -13h527q12 0 8 13l-266 837q-2 8 -6.5 8t-6.5 -8z" />
<glyph unicode="B" horiz-adv-x="1284" d="M193 27v1380q0 27 26 27h475q199 0 312.5 -98.5t113.5 -276.5q0 -113 -52 -190.5t-153 -120.5q-12 -7 0 -13q109 -45 165.5 -133t56.5 -213q0 -184 -118 -286.5t-310 -102.5h-490q-27 0 -26 27zM338 139q0 -10 10 -10h361q129 0 205.5 73.5t76.5 198.5t-78.5 200 t-212.5 75h-352q-10 0 -10 -10v-527zM338 809q0 -10 10 -10h346q129 0 206 67.5t77 180.5q0 119 -77 189.5t-206 70.5h-346q-10 -1 -10 -11v-487z" />
<glyph unicode="C" d="M147 436v563q0 133 60.5 235.5t169 159t252.5 56.5q143 0 251.5 -55.5t169 -155.5t60.5 -231q0 -18 -27 -23l-92 -6h-6q-8 0 -14 4t-6 8v13q0 145 -92.5 232t-243.5 87q-152 0 -244 -88t-92 -231v-574q0 -143 92 -231t244 -88t244 87t92 232q0 25 26 23l92 -4 q27 0 27 -11v-10q0 -133 -60.5 -234.5t-169 -156.5t-251.5 -55q-144 0 -252.5 56t-169 159.5t-60.5 238.5z" />
<glyph unicode="D" horiz-adv-x="1265" d="M193 27v1380q0 27 26 27h477q203 0 323 -106.5t120 -289.5v-643q0 -182 -120 -288.5t-323 -106.5h-477q-26 0 -26 27zM338 137q0 -10 10 -10h354q133 0 212 78t79 209v604q0 133 -77.5 211t-213.5 78h-354q-10 0 -10 -11v-1159z" />
<glyph unicode="E" horiz-adv-x="1239" d="M193 27v1380q0 27 26 27h875q27 0 26 -27v-74q1 -26 -26 -26h-746q-10 0 -10 -11v-501q0 -10 10 -11h520q27 0 27 -26v-74q0 -27 -27 -27h-520q-10 0 -10 -10v-510q0 -10 10 -10h746q27 0 26 -27v-73q0 -27 -26 -27h-875q-27 0 -26 27z" />
<glyph unicode="F" horiz-adv-x="1163" d="M193 27v1380q0 27 26 27h873q27 0 26 -27v-74q1 -26 -26 -26h-744q-10 0 -10 -11v-501q0 -10 10 -11h518q27 0 27 -26v-74q0 -27 -27 -27h-518q-10 0 -10 -10v-620q0 -27 -27 -27h-92q-27 0 -26 27z" />
<glyph unicode="G" horiz-adv-x="1241" d="M147 434v565q0 133 60.5 235.5t169 159t252.5 56.5q141 0 250.5 -55.5t169 -154.5t59.5 -224v-21q0 -27 -27 -26h-92q-27 0 -26 22v23q0 137 -91.5 223t-242.5 86q-152 0 -244 -88t-92 -231v-574q0 -143 94 -231t248 -88q150 0 239 81.5t89 219.5v184q0 10 -11 10h-293 q-27 0 -26 27v74q0 27 26 26h422q27 0 27 -26v-258q0 -219 -130 -342t-349 -123q-144 0 -252.5 56t-169 158.5t-60.5 235.5z" />
<glyph unicode="H" horiz-adv-x="1339" d="M193 27v1380q0 27 26 27h92q27 0 27 -27v-612q0 -10 10 -11h649q10 0 11 11v612q-1 27 26 27h92q27 0 27 -27v-1380q0 -27 -27 -27h-92q-27 0 -26 27v620q0 10 -11 10h-649q-10 0 -10 -10v-620q0 -27 -27 -27h-92q-27 0 -26 27z" />
<glyph unicode="I" horiz-adv-x="530" d="M193 27v1380q0 27 26 27h92q27 0 27 -27v-1380q0 -27 -27 -27h-92q-26 0 -26 27z" />
<glyph unicode="J" horiz-adv-x="1187" d="M59 412v94q0 27 27 26h92q27 0 27 -26v-94q0 -135 89 -218t232 -83q145 0 234.5 82.5t89.5 218.5v995q0 27 27 27h92q27 0 26 -27v-995q0 -127 -58 -224.5t-164.5 -150.5t-246.5 -53q-139 0 -244.5 53t-164 150.5t-58.5 224.5z" />
<glyph unicode="K" horiz-adv-x="1251" d="M193 27v1380q0 27 26 27h92q27 0 27 -27v-684q0 -6 4 -8t8 4l643 700q12 14 33 15h102q23 0 23 -17q0 -8 -8 -16l-494 -559q-6 -8 -2 -15l539 -794q6 -8 6 -17q0 -16 -23 -16h-106q-20 0 -33 16l-481 707q-8 12 -14 2l-193 -203q-4 -8 -4 -14v-481q0 -27 -27 -27h-92 q-26 0 -26 27z" />
<glyph unicode="L" horiz-adv-x="1163" d="M193 27v1380q0 27 26 27h92q27 0 27 -27v-1270q0 -10 10 -10h715q27 0 27 -27v-73q0 -27 -27 -27h-844q-26 0 -26 27z" />
<glyph unicode="M" horiz-adv-x="1456" d="M193 27v1380q0 27 26 27h96q18 0 31 -19l375 -592q6 -12 12 0l377 592q12 18 31 19h96q27 0 27 -27v-1380q0 -27 -27 -27h-92q-27 0 -27 27v1130q0 8 -4 8t-8 -6l-324 -512q-12 -18 -30 -18h-47q-18 0 -31 18l-324 512q-4 6 -8 6t-4 -8v-1130q0 -27 -27 -27h-92 q-26 0 -26 27z" />
<glyph unicode="N" horiz-adv-x="1378" d="M193 27v1380q0 27 26 27h92q18 0 31 -19l688 -1114q4 -6 8 -5t4 9v1102q0 27 27 27h92q27 0 27 -27v-1380q0 -27 -27 -27h-92q-18 0 -31 18l-690 1119q-4 6 -8 5t-4 -9l2 -1106q0 -27 -27 -27h-92q-26 0 -26 27z" />
<glyph unicode="O" horiz-adv-x="1273" d="M147 459v516q0 141 60.5 248.5t171 167t256.5 59.5q145 0 257 -59.5t172 -167t60 -248.5v-516q0 -141 -60 -249t-172 -167t-257 -59q-146 0 -256.5 59t-171 166.5t-60.5 249.5zM293 453q0 -156 94 -250t248 -94q156 0 250 94t94 250v524q0 156 -94 251t-250 95 q-154 0 -248 -95t-94 -251v-524z" />
<glyph unicode="P" horiz-adv-x="1212" d="M178 27v1382q0 27 27 27h532q181 0 290.5 -111t109.5 -291q0 -178 -112 -286.5t-294 -108.5h-397q-10 0 -10 -10v-602q0 -27 -27 -27h-92q-27 0 -27 27zM324 770q0 -10 10 -10h387q121 0 196.5 74.5t75.5 197.5q0 125 -75.5 201t-196.5 76h-387q-10 0 -10 -11v-528z" />
<glyph unicode="Q" horiz-adv-x="1179" d="M119 438v549q0 137 58.5 241.5t166 163t246.5 58.5t246.5 -58.5t166 -163t58.5 -241.5v-549q0 -182 -105.5 -304t-281.5 -144q-10 -4 -10 -13v-186q0 -27 -27 -27h-92q-27 0 -27 27v186q0 8 -10 13q-178 23 -283.5 144.5t-105.5 303.5zM264 440q0 -147 90 -238t236 -91 q145 0 235 91t90 238v553q0 147 -90 238.5t-235 91.5t-235.5 -91t-90.5 -239v-553z" />
<glyph unicode="R" horiz-adv-x="1253" d="M193 27v1382q0 27 26 27h524q176 0 285 -108.5t109 -285.5q0 -143 -77 -242.5t-210 -129.5q-10 -2 -6 -13l305 -626q4 -8 4 -13q0 -18 -25 -18h-94q-23 0 -33 20l-299 631q-4 8 -12 8h-342q-10 0 -10 -10v-622q0 -27 -27 -27h-92q-27 0 -26 27zM338 786q0 -10 10 -10h379 q119 0 192.5 73t73.5 191q0 119 -73.5 194t-192.5 75h-379q-10 -1 -10 -11v-512z" />
<glyph unicode="S" horiz-adv-x="1200" d="M117 367v57q0 27 26 27h88q27 0 27 -27v-49q0 -117 98.5 -190.5t264.5 -73.5q158 0 239.5 66.5t81.5 176.5q0 72 -38 123t-115.5 96t-223.5 105q-154 61 -238.5 107t-137 119t-52.5 183q0 172 120 267.5t331 95.5q225 0 356 -106.5t131 -282.5v-39q0 -27 -26 -27h-91 q-27 0 -26 27v31q0 119 -92 194.5t-260 75.5q-145 0 -222 -59.5t-77 -171.5q0 -74 37.5 -122t108.5 -84t216 -93q150 -61 242 -114.5t147 -130.5t55 -188q0 -170 -125.5 -273t-351.5 -103q-149 0 -260.5 47t-172 134t-60.5 202z" />
<glyph unicode="T" horiz-adv-x="1165" d="M88 1331v76q0 27 27 27h936q26 0 26 -27v-76q0 -27 -26 -26h-394q-10 0 -10 -11v-1267q0 -27 -26 -27h-93q-27 0 -26 27v1267q0 10 -10 11h-377q-27 0 -27 26z" />
<glyph unicode="U" horiz-adv-x="1327" d="M176 442v965q0 27 27 27h92q27 0 27 -27v-969q0 -145 94 -236t248 -91t248 91t94 236v969q0 27 26 27h92q27 0 27 -27v-965q0 -137 -60.5 -240.5t-171 -160.5t-255.5 -57q-144 0 -254.5 57t-172 160.5t-61.5 240.5z" />
<glyph unicode="V" horiz-adv-x="1206" d="M74 1413q0 8 7 14.5t17 6.5h99q23 0 28 -23l373 -1190q2 -8 6 -8t6 8l373 1190q6 23 29 23h96q14 0 20.5 -8.5t1.5 -22.5l-448 -1380q-6 -23 -29 -23h-104q-23 0 -29 23l-444 1380q-2 4 -2 10z" />
<glyph unicode="W" horiz-adv-x="1785" d="M51 1411q0 23 25 23h100q23 0 29 -23l307 -1110q2 -6 6 -6t6 6l287 1110q6 23 31 23h98q23 0 29 -23l299 -1112q2 -6 6 -6t6 6l307 1112q6 23 29 23h94q14 0 20.5 -8.5t2.5 -22.5l-383 -1380q-6 -23 -29 -23h-98q-25 0 -31 23l-295 1138q-2 6 -6 6t-6 -6l-291 -1138 q-6 -23 -31 -23h-92q-23 0 -29 23l-389 1380z" />
<glyph unicode="X" horiz-adv-x="1206" d="M82 1415q0 8 6 13.5t16 5.5h101q18 0 31 -19l362 -575q6 -12 12 0l361 575q12 18 30 19h101q20 0 20 -17q0 -10 -4 -16l-424 -680q-2 -6 0 -12l424 -676q4 -12 4 -15q0 -8 -6 -13t-16 -5h-99q-18 0 -30 18l-361 574q-6 12 -12 0l-362 -574q-12 -18 -31 -18h-101 q-16 0 -21 9t3 24l426 678q4 6 0 12l-426 678q-4 12 -4 14z" />
<glyph unicode="Y" horiz-adv-x="1161" d="M80 1415q0 8 6 13.5t16 5.5h99q23 0 30 -19l342 -618q6 -8 13 0l344 618q10 18 31 19h98q16 0 21 -9.5t-3 -23.5l-420 -760q-4 -8 -4 -12v-600q0 -27 -26 -27h-92q-27 0 -27 27v600q0 4 -4 12l-420 760q-4 12 -4 14z" />
<glyph unicode="Z" horiz-adv-x="1124" d="M92 27v88q0 16 10 32l746 1147q6 12 -6 13h-723q-27 0 -27 26v74q0 27 27 27h870q27 0 27 -27v-88q0 -16 -10 -33l-744 -1147q-6 -12 6 -12h721q27 0 27 -27v-73q0 -27 -27 -27h-870q-27 0 -27 27z" />
<glyph unicode="[" horiz-adv-x="778" d="M66 -221v1780q0 27 26 26h383q27 0 27 -26v-74q0 -27 -27 -27h-254q-10 0 -10 -10v-1559q0 -10 10 -10h256q27 0 27 -26v-74q0 -27 -27 -27h-385q-26 0 -26 27z" />
<glyph unicode="\" horiz-adv-x="731" d="M68 1413q0 8 7 14.5t17 6.5h90q23 0 29 -23l451 -1380q2 -5 2 -11q0 -8 -7.5 -14t-17.5 -6h-90q-23 0 -29 23l-450 1380q-2 4 -2 10z" />
<glyph unicode="]" horiz-adv-x="778" d="M274 -147q0 27 27 26h256q10 0 10 10v1559q0 10 -10 10h-254q-27 0 -27 27v74q0 27 27 26h383q27 0 27 -26v-1780q0 -27 -27 -27h-385q-27 0 -27 27v74z" />
<glyph unicode="^" horiz-adv-x="921" d="M92 659l295 754q8 20 31 21h84q23 0 30 -21l297 -754q2 -4 2 -12t-6 -13t-16 -5h-72q-23 0 -30 20l-240 623q-6 16 -12 0l-240 -623q-8 -20 -31 -20h-71q-15 0 -20 8t-1 22z" />
<glyph unicode="_" horiz-adv-x="991" d="M59 27v63q0 27 27 27h819q27 0 27 -27v-63q0 -27 -27 -27h-819q-27 0 -27 27z" />
<glyph unicode="`" horiz-adv-x="409" d="M76 1427q0 16 20 17h88q20 0 31 -19l117 -211q4 -12 4 -14q0 -8 -6.5 -13t-16.5 -5h-72q-18 0 -30 18l-131 211q-4 6 -4 16z" />
<glyph unicode="a" horiz-adv-x="1046" d="M94 283q0 154 111.5 242.5t310.5 88.5h238q10 0 10 11v75q0 104 -58.5 165t-181.5 61q-96 0 -157.5 -37t-77.5 -103q-6 -25 -31 -20l-100 12q-27 4 -25 23q20 113 126 182.5t263 69.5q185 0 286 -94.5t101 -249.5v-682q0 -27 -26 -27h-92q-27 0 -27 27v73q0 6 -4 8.5 t-8 -4.5q-55 -59 -138.5 -89.5t-181.5 -30.5q-143 0 -240.5 73.5t-97.5 225.5zM240 291q0 -90 63.5 -136t161.5 -46q121 0 210 60t89 163v157q0 10 -10 11h-215q-135 0 -217 -55.5t-82 -153.5z" />
<glyph unicode="b" horiz-adv-x="1110" d="M164 27v1380q0 27 26 27h93q27 0 26 -27v-473q0 -6 4 -8t9 4q45 59 112.5 91t147.5 32q145 0 243.5 -75t135.5 -206q24 -84 24 -254q0 -168 -29 -260q-37 -127 -134 -200.5t-240 -73.5q-82 0 -148.5 32.5t-111.5 92.5q-4 4 -8.5 3t-4.5 -8v-77q0 -27 -26 -27h-93 q-27 0 -26 27zM313 518q0 -98 8.5 -153.5t26.5 -96.5q27 -72 82 -114.5t137 -42.5q86 0 148.5 43t87.5 116q20 43 28.5 97.5t8.5 150.5q0 100 -11.5 156.5t-35.5 101.5q-27 68 -86.5 109t-141.5 41q-78 0 -134 -42t-81 -112q-20 -43 -28.5 -99.5t-8.5 -154.5z" />
<glyph unicode="c" horiz-adv-x="1064" d="M131 522q0 147 27 250q37 127 143.5 204t253.5 77q150 0 259.5 -76t141.5 -189q8 -29 13 -55v-4q0 -23 -25 -27l-90 -10h-6q-18 0 -25 23q0 8 -4 24q-18 78 -90 132.5t-174 54.5t-171 -54.5t-89 -144.5q-18 -78 -19 -207q0 -135 19 -209q20 -92 89 -146t171 -54 q100 0 173 52t89 132q2 4 2 10l2 2q2 27 31 23l88 -15q27 -4 25 -30l-9 -35q-31 -119 -141 -192.5t-260 -73.5q-147 0 -252.5 76.5t-144.5 207.5q-27 90 -27 254z" />
<glyph unicode="d" horiz-adv-x="1110" d="M125 518q0 170 25 254q37 131 135 206t243 75q80 0 147.5 -32t112.5 -91q4 -6 8.5 -4t4.5 8v473q-1 27 26 27h93q27 0 26 -27v-1380q0 -27 -26 -27h-93q-27 0 -26 27v77q0 6 -4 7.5t-9 -2.5q-45 -59 -111.5 -92t-148.5 -33q-143 0 -240.5 73.5t-133.5 200.5 q-29 92 -29 260zM270 518q0 -96 8.5 -150.5t28.5 -97.5q25 -74 87.5 -116.5t148.5 -42.5q82 0 137 43t82 114q18 41 26.5 96.5t8.5 153.5t-8.5 154.5t-28.5 99.5q-25 70 -81 112t-134 42q-82 0 -141.5 -41t-86.5 -109q-25 -45 -36 -101.5t-11 -156.5z" />
<glyph unicode="e" horiz-adv-x="1093" d="M133 522q0 88 3 140.5t16 97.5q35 133 140 213t255 80q178 0 279.5 -92.5t129.5 -260.5q12 -66 13 -204q0 -27 -27 -27h-655q-10 0 -11 -10q0 -102 13 -150q23 -92 95.5 -146t182.5 -54q92 2 159 41.5t103 111.5q4 10 14.5 14.5t20.5 -2.5l60 -32q25 -14 12 -35 q-49 -102 -147.5 -162.5t-233.5 -60.5q-143 0 -241.5 67.5t-141.5 188.5q-39 102 -39 282zM276 594q0 -10 11 -10h526q10 0 10 10q-4 90 -12 131q-23 92 -91.5 146.5t-172.5 54.5q-103 0 -168.5 -52.5t-85.5 -140.5q-12 -41 -17 -139z" />
<glyph unicode="f" horiz-adv-x="729" d="M70 930v80q0 27 26 26h129q10 0 11 11v47q0 127 28.5 199.5t99 106.5t197.5 34h53q27 0 27 -27v-74q0 -27 -27 -26h-41q-112 0 -153 -50.5t-41 -171.5v-38q0 -10 10 -11h221q27 0 27 -26v-80q0 -27 -27 -27h-221q-10 0 -10 -10v-866q0 -27 -27 -27h-90q-27 0 -26 27v866 q0 10 -11 10h-129q-27 0 -26 27z" />
<glyph unicode="g" horiz-adv-x="1095" d="M125 518q0 90 5 151.5t22 110.5q37 123 133 198t231 75q178 0 275 -117q4 -6 8 -4t4 8v70q-1 26 26 26h93q27 0 26 -26v-975q0 -229 -133 -336t-362 -107q-43 0 -66 2q-27 2 -27 29l5 82q0 29 26 25q26 -1 50 -1q179 0 265 65q97 73 97 245v72q0 6 -4 8t-8 -4 q-94 -121 -267 -121q-133 0 -236.5 71.5t-137.5 202.5q-25 84 -25 250zM270 522q0 -150 21 -207q20 -86 89 -142t167 -56q100 0 164.5 55t81.5 141q6 31 8 76t2 131q0 104 -2 140t-10 67q-16 86 -81 142.5t-163 56.5q-96 0 -163 -55.5t-93 -143.5q-20 -66 -21 -205z" />
<glyph unicode="h" horiz-adv-x="1103" d="M164 27v1380q0 27 26 27h93q27 0 26 -27v-473q0 -6 4 -9t6 3q90 123 275 123q162 0 259 -96.5t97 -258.5v-669q0 -27 -26 -27h-93q-27 0 -26 27v641q0 115 -67.5 185.5t-176.5 70.5q-104 0 -173 -59.5t-79 -155.5v-682q0 -27 -26 -27h-93q-27 0 -26 27z" />
<glyph unicode="i" horiz-adv-x="501" d="M141 1329q0 47 31 76t80 29t79.5 -29t30.5 -76t-30.5 -76.5t-79.5 -29.5t-80 29.5t-31 76.5zM180 27v983q0 27 27 26h92q27 0 27 -26v-983q0 -27 -27 -27h-92q-27 0 -27 27z" />
<glyph unicode="j" horiz-adv-x="477" d="M-72 -328q0 27 27 27q213 6 213 211v1100q0 27 27 26h92q27 0 26 -26v-1100q0 -174 -85 -254t-273 -82q-27 0 -27 27v71zM131 1325q0 47 33 77t78 30q49 0 80.5 -30t31.5 -77t-30.5 -76.5t-81.5 -29.5q-49 0 -80 29.5t-31 76.5z" />
<glyph unicode="k" horiz-adv-x="1026" d="M164 27v1380q0 27 26 27h93q27 0 26 -27v-827q0 -6 4 -9.5t9 2.5l428 449q12 14 32 14h109q23 0 22 -16q0 -6 -6 -16l-254 -281q-6 -6 -2 -14l307 -678q4 -8 5 -13q0 -18 -25 -18h-96q-20 0 -31 20l-260 592q-2 4 -6 5t-8 -3l-224 -233q-4 -8 -4 -14v-340q0 -27 -26 -27 h-93q-26 0 -26 27z" />
<glyph unicode="l" horiz-adv-x="475" d="M164 27v1380q0 27 26 27h93q27 0 26 -27v-1380q0 -27 -26 -27h-93q-26 0 -26 27z" />
<glyph unicode="m" horiz-adv-x="1693" d="M164 27v983q0 27 26 26h93q27 0 26 -26v-72q0 -6 4 -8t9 4q45 59 114.5 88t155.5 29q104 0 180 -43t115 -121q6 -12 12 -2q45 84 127 125t186 41q154 0 243 -92.5t89 -251.5v-680q0 -27 -26 -27h-91q-27 0 -26 27v651q0 113 -64.5 179.5t-169.5 66.5q-109 0 -175 -65.5 t-66 -176.5v-655q0 -27 -27 -27h-92q-27 0 -27 27v651q0 113 -63.5 179.5t-169.5 66.5q-109 0 -173.5 -65.5t-64.5 -176.5v-655q0 -27 -26 -27h-93q-27 0 -26 27z" />
<glyph unicode="n" horiz-adv-x="1103" d="M164 27v983q0 27 26 26h93q27 0 26 -26v-76q0 -6 4 -9t6 3q90 123 275 123q162 0 259 -96.5t97 -258.5v-669q0 -27 -26 -27h-93q-27 0 -26 27v641q0 115 -67.5 185.5t-176.5 70.5q-104 0 -173 -59.5t-79 -155.5v-682q0 -27 -26 -27h-93q-27 0 -26 27z" />
<glyph unicode="o" horiz-adv-x="1118" d="M131 520q0 156 27 250q41 131 146.5 207t256.5 76q147 0 253 -76t144 -205q29 -98 29 -252q0 -158 -29 -252q-41 -133 -146 -208.5t-251 -75.5q-149 0 -254.5 75.5t-146.5 208.5q-29 94 -29 252zM279 518q0 -147 16 -207q23 -92 93.5 -146t172.5 -54q98 0 168 54t94 146 q16 66 17 207q0 147 -17 207q-23 92 -93.5 146.5t-172.5 54.5q-98 0 -168 -54.5t-94 -146.5q-16 -59 -16 -207z" />
<glyph unicode="p" horiz-adv-x="1122" d="M176 -371v1381q0 27 27 26h92q27 0 27 -26v-78q0 -6 4 -7t8 3q45 59 111.5 92t148.5 33q143 0 240.5 -74t134.5 -201q28 -92 28 -260q0 -170 -24 -254q-37 -131 -135.5 -205.5t-243.5 -74.5q-80 0 -147.5 31.5t-112.5 90.5q-4 6 -8 4.5t-4 -8.5v-473q0 -27 -27 -26h-92 q-27 0 -27 26zM326 518q0 -98 8 -154.5t28 -99.5q25 -70 81.5 -111.5t134.5 -41.5q82 0 141 41t86 108q24 45 35.5 101.5t11.5 156.5q0 96 -8 150.5t-29 97.5q-25 74 -87 117t-148 43q-82 0 -137.5 -43t-82.5 -115q-18 -41 -26 -96.5t-8 -153.5z" />
<glyph unicode="q" horiz-adv-x="1122" d="M125 518q0 168 29 260q37 127 134 201t240 74q82 0 148.5 -33t111.5 -92q4 -4 8.5 -3t4.5 7v78q-1 26 26 26h93q27 0 26 -26v-1381q0 -27 -26 -26h-93q-27 0 -26 26v473q0 6 -4 8.5t-9 -4.5q-45 -59 -112.5 -90.5t-147.5 -31.5q-145 0 -243.5 74.5t-134.5 205.5 q-25 84 -25 254zM270 518q0 -100 11.5 -156.5t35.5 -101.5q27 -68 86.5 -108.5t141.5 -40.5q78 0 134 42t81 111q20 43 28.5 99.5t8.5 154.5t-8.5 153.5t-26.5 96.5q-27 72 -82 115t-137 43q-86 0 -148.5 -43t-87.5 -117q-20 -43 -28.5 -97.5t-8.5 -150.5z" />
<glyph unicode="r" horiz-adv-x="745" d="M164 27v983q0 27 26 26h93q27 0 26 -26v-115q0 -8 3 -9t7 5q43 74 110 115t153 41q67 0 112 -25q20 -8 15 -33l-21 -90q-6 -25 -33 -16q-33 10 -83 10h-17q-106 -4 -176 -79t-70 -189v-598q0 -27 -26 -27h-93q-27 0 -26 27z" />
<glyph unicode="s" horiz-adv-x="987" d="M115 262v19q0 27 26 26h88q12 0 19.5 -5t7.5 -13v-19q0 -68 69.5 -118t176.5 -50q106 0 171.5 48.5t65.5 121.5q0 51 -32.5 84t-79.5 51.5t-142 47.5q-115 33 -188.5 65.5t-124.5 91t-51 148.5q0 131 103.5 209t271.5 78q113 0 199.5 -37t134 -101.5t47.5 -144.5 q0 -27 -27 -27h-84q-27 0 -27 15v12q0 70 -66.5 117t-178.5 47q-104 0 -168 -42t-64 -116q0 -70 60.5 -106.5t189.5 -73.5q119 -33 192.5 -63.5t127 -90t53.5 -153.5q0 -133 -103.5 -213t-277.5 -80q-115 0 -204 36.5t-137 98t-48 137.5z" />
<glyph unicode="t" horiz-adv-x="745" d="M74 942v68q0 27 26 26h117q10 0 10 11v229q0 27 27 27h88q27 0 27 -27v-229q0 -10 10 -11h223q27 0 27 -26v-68q0 -27 -27 -27h-223q-10 0 -10 -10v-598q0 -98 44 -138t138 -40h45q27 0 27 -27v-71q0 -27 -27 -29h-70q-147 0 -223 55.5t-76 204.5v643q0 10 -10 10h-117 q-27 0 -26 27z" />
<glyph unicode="u" horiz-adv-x="1097" d="M147 324v686q0 27 27 26h92q27 0 27 -26v-643q0 -117 65.5 -185.5t178.5 -68.5q117 0 185.5 69.5t68.5 184.5v643q-1 26 26 26h92q27 0 27 -26v-983q0 -27 -27 -27h-92q-27 0 -26 27v77q0 6 -4.5 8.5t-8.5 -3.5q-88 -123 -270 -123q-98 0 -181 40t-131.5 115.5 t-48.5 182.5z" />
<glyph unicode="v" horiz-adv-x="972" d="M68 1016q0 8 7 14t17 6h105q23 0 28 -22l256 -797q2 -8 6.5 -8t6.5 8l256 797q6 23 28 22l105 -2q14 0 19 -8t1 -22l-330 -981q-6 -23 -30 -23h-111q-25 0 -31 23l-331 983q-2 4 -2 10z" />
<glyph unicode="w" horiz-adv-x="1476" d="M66 1016q0 8 7 14t17 6h96q23 0 29 -22l213 -799q2 -6 6 -6t6 6l219 799q6 23 29 22h90q23 0 29 -22l223 -799q2 -6 6 -6t6 6l220 799q6 23 30 22l94 -2q14 0 20.5 -8t2.5 -22l-291 -981q-6 -23 -28 -23h-101q-23 0 -28 23l-222 755q-2 6 -6 6t-6 -6l-213 -755 q-6 -23 -29 -23h-102q-23 0 -29 23l-286 983q-2 4 -2 10z" />
<glyph unicode="x" horiz-adv-x="976" d="M61 1018q0 8 6.5 13t16.5 5h98q20 0 33 -16l262 -381q4 -4 8 -4t7 4l262 381q12 16 32 16h109q16 0 21.5 -10t-5.5 -22l-338 -480q-2 -6 0 -12l338 -479q6 -8 7 -15q0 -8 -6.5 -13t-16.5 -5h-100q-20 0 -33 16l-262 381q-2 4 -6.5 4t-8.5 -4l-264 -381q-12 -16 -33 -16 h-104q-14 0 -19.5 10t3.5 23l335 479q4 6 0 12l-335 480q-6 10 -7 14z" />
<glyph unicode="y" horiz-adv-x="944" d="M53 1016q0 8 7.5 14t17.5 6h96q25 0 31 -22l264 -803q2 -8 6 -8t6 8l258 803q6 23 29 22h98q14 0 20.5 -8t2.5 -22l-377 -1096q-49 -137 -92 -202.5t-107.5 -91.5t-181.5 -26h-14q-15 0 -15 27v72q0 27 15 26h14q80 0 124 22.5t75.5 80t68.5 176.5q2 4 0 12l-344 1000 q-2 4 -2 10z" />
<glyph unicode="z" horiz-adv-x="911" d="M70 27v88q0 18 12 32l575 744q4 4 2 8t-8 4h-547q-27 0 -26 27v80q0 27 26 26h707q27 0 27 -26v-88q0 -16 -13 -33l-581 -744q-4 -4 -2 -8t8 -4h561q27 0 27 -27v-79q0 -27 -27 -27h-715q-26 0 -26 27z" />
<glyph unicode="{" horiz-adv-x="618" d="M66 641v70q0 23 24 28q53 8 78 52.5t25 128.5v434q0 119 51 175t159 56h123q27 0 27 -26v-74q0 -27 -27 -27h-71q-59 0 -88 -37t-29 -114v-398q0 -92 -23.5 -146t-74.5 -81q-8 -6 0 -12q51 -29 74.5 -83.5t23.5 -146.5v-407q0 -154 117 -154h71q27 0 27 -26v-74 q0 -27 -27 -27h-123q-108 0 -159 56.5t-51 177.5v444q0 86 -25 129t-78 53q-25 6 -24 29z" />
<glyph unicode="|" horiz-adv-x="339" d="M96 -137v1667q0 27 27 26h92q27 0 27 -26v-1667q0 -27 -27 -27h-92q-27 0 -27 27z" />
<glyph unicode="}" horiz-adv-x="618" d="M66 -147q0 27 26 26h72q117 0 117 154v407q0 92 23.5 146.5t74.5 83.5q8 6 0 12q-51 27 -74.5 81t-23.5 146v398q0 78 -29 114.5t-88 36.5h-72q-27 0 -26 27v74q0 27 26 26h123q109 0 160 -56t51 -175v-434q0 -84 24.5 -128t77.5 -53q25 -6 25 -28v-70q0 -23 -25 -29 q-53 -10 -77.5 -53t-24.5 -129v-444q0 -121 -51 -177.5t-160 -56.5h-123q-27 0 -26 27v74z" />
<glyph unicode="~" horiz-adv-x="1026" d="M90 578q33 68 97.5 107.5t144.5 39.5q51 0 89 -13.5t87 -39.5q10 -6 46 -26.5t73 -32t73 -11.5q41 0 71 19.5t60 58.5q8 12 21 12q6 0 16 -6l56 -35q23 -16 10 -37q-37 -66 -95.5 -103.5t-131.5 -37.5q-62 0 -105 17.5t-104 52.5q-47 25 -83 39t-79 14q-100 0 -152 -80 q-8 -12 -20 -12q-6 0 -17 6l-47 31q-23 16 -10 37z" />
<glyph unicode="&#xa1;" horiz-adv-x="661" d="M199 1329q0 51 35.5 86t91.5 35q53 0 90 -35t37 -86q0 -49 -39 -85t-88 -36t-88 36t-39 85zM258 51l10 914q0 26 27 26h70q27 0 26 -26l12 -914q0 -27 -26 -26h-92q-27 0 -27 26z" />
<glyph unicode="&#xa2;" horiz-adv-x="1064" d="M131 707q0 147 27 249q33 106 112.5 179t192.5 94q10 4 10 12l-4 135q0 27 27 27h73q27 0 27 -27l-4 -131q0 -10 10 -10q133 -12 228.5 -85t125.5 -177q8 -29 13 -55v-5q0 -23 -25 -26l-90 -10h-6q-18 0 -25 22q0 8 -4 25q-18 78 -90 132t-174 54t-171 -54.5t-89 -144.5 q-18 -78 -19 -206q0 -135 19 -209q20 -92 89 -146.5t171 -54.5q100 0 173 52t89 132q2 4 2 10l2 3q2 27 31 22l88 -14q27 -4 25 -31l-9 -35q-29 -109 -124 -180.5t-230 -83.5q-10 0 -10 -10l4 -131q0 -27 -27 -27h-73q-27 0 -27 27l4 135q0 8 -10 12q-113 20 -193 93 t-112 184q-27 90 -27 254z" />
<glyph unicode="&#xa3;" horiz-adv-x="1241" d="M193 657v68q0 27 26 27h148q10 0 10 10v287q0 188 110.5 294.5t305.5 106.5q133 0 225 -68.5t135 -197.5q2 -4 2 -10q0 -14 -22 -23l-86 -16l-9 -2q-18 0 -24 22q-31 88 -86.5 128t-139.5 40q-127 0 -196.5 -69.5t-69.5 -202.5v-289q0 -10 10 -10h386q27 0 26 -27v-68 q0 -27 -26 -26h-386q-10 0 -10 -10v-234q0 -162 -90 -248q-4 -4 -2 -8t8 -4h707q27 0 26 -27v-73q0 -27 -26 -27h-864q-27 0 -27 27v79q0 18 18 31q49 33 77 97.5t28 148.5v238q0 10 -10 10h-148q-27 0 -26 26z" />
<glyph unicode="&#xa4;" horiz-adv-x="1067" d="M55 1006q0 10 11 20l55 49q12 8 18 8q8 0 19 -10l121 -121q6 -6 14 0q104 72 233 72q133 0 240 -80q8 -6 14 0l129 129q10 10 19 10q10 0 18 -8l58 -49q10 -6 10 -18q0 -10 -10 -21l-136 -133q-4 -4 -2 -14q68 -100 68 -224q0 -127 -72 -227q-6 -8 0 -14l127 -127 q10 -10 10 -21q0 -8 -10 -18l-57 -49q-8 -8 -19 -8q-8 0 -18 10l-123 123q-6 6 -14 0q-104 -72 -232 -72q-121 0 -223 66q-8 6 -14 0l-117 -117q-10 -10 -18 -10q-10 0 -19 8l-57 49q-8 8 -8 18q0 12 8 21l119 117q6 6 0 14q-78 104 -78 237q0 131 71 232q6 8 0 14l-127 127 q-8 8 -8 17zM246 616q0 -73 38 -136.5t102.5 -101.5t139.5 -38q76 0 139.5 37t102.5 100.5t39 138.5q0 76 -39 140.5t-103.5 102.5t-138.5 38q-76 0 -140 -38t-102 -102.5t-38 -140.5z" />
<glyph unicode="&#xa5;" horiz-adv-x="1409" d="M207 1415q0 8 6 13.5t16 5.5h99q23 0 30 -19l342 -618q6 -8 13 0l344 618q10 18 30 19h99q16 0 21 -9.5t-3 -23.5l-385 -694q-6 -12 8 -13h230q27 0 26 -26v-35q0 -27 -26 -27h-266q-10 0 -11 -10v-164q0 -10 11 -10h266q27 0 26 -27v-37q0 -27 -26 -26h-266 q-10 0 -11 -10v-293q0 -27 -26 -27h-92q-27 0 -27 27v293q0 10 -10 10h-277q-27 0 -26 26v37q0 27 26 27h277q10 0 10 10v164q0 10 -10 10h-277q-27 0 -26 27v35q0 27 26 26h240q14 0 8 13l-385 694q-4 12 -4 14z" />
<glyph unicode="&#xa6;" horiz-adv-x="339" d="M96 -137v688q0 27 27 27h92q27 0 27 -27v-688q0 -27 -27 -27h-92q-27 0 -27 27zM96 842v688q0 27 27 26h92q27 0 27 -26v-688q0 -27 -27 -27h-92q-27 0 -27 27z" />
<glyph unicode="&#xa7;" horiz-adv-x="935" d="M117 498q0 117 55 198q59 92 160 119q14 4 0 10q-88 37 -144.5 117t-56.5 182q0 86 43 161t122 119t179 44q145 0 238.5 -91t95.5 -235v-28q0 -27 -27 -27h-92q-12 0 -19 6t-7 17v20q0 94 -53.5 153.5t-137.5 59.5q-86 0 -141.5 -63.5t-55.5 -151.5q0 -90 66 -145.5 t186 -94.5q70 -23 127.5 -51.5t100.5 -79.5q70 -84 69 -215q0 -117 -53 -200q-27 -47 -65.5 -79t-85.5 -42q-12 -2 -3 -8q92 -41 144.5 -115t52.5 -178q0 -92 -45 -166t-124 -116t-177 -42q-152 0 -240 90t-90 244l-2 41q0 27 27 26h92q12 0 19.5 -7t7.5 -17v-23 q0 -104 53 -166.5t139 -62.5q84 0 139.5 61.5t55.5 149.5q0 74 -37 120t-88 69.5t-137 52.5q-92 31 -150.5 66.5t-95.5 96.5q-45 80 -45 181zM262 502q0 -80 33 -127q59 -92 174 -92q123 0 178 90q33 53 33 135q0 94 -43 149q-63 78 -164 78q-57 0 -104 -29.5t-74 -76.5 q-33 -53 -33 -127z" />
<glyph unicode="&#xa8;" horiz-adv-x="657" d="M59 1323q0 41 28 68.5t71 27.5q41 0 67.5 -27.5t26.5 -68.5t-26.5 -67.5t-67.5 -26.5q-43 0 -71 26.5t-28 67.5zM405 1323q0 41 27 68.5t70 27.5t69.5 -27.5t26.5 -68.5t-26.5 -67.5t-69.5 -26.5t-70 26.5t-27 67.5z" />
<glyph unicode="&#xa9;" horiz-adv-x="1779" d="M147 717q0 207 96.5 375t265.5 263t380 95t381 -95t265 -263t95 -375t-95 -375t-265 -263t-381 -95t-380 95t-265.5 263t-96.5 375zM242 717q0 -182 83 -328.5t230 -230.5t334 -84q186 0 333.5 84t230.5 230.5t83 328.5t-83 328.5t-230.5 230.5t-333.5 84t-333.5 -84 t-230.5 -230.5t-83 -328.5zM666 561v313q0 96 61 152.5t164 56.5q102 0 163.5 -55t61.5 -147q0 -23 -26 -23l-37 2q-12 0 -19.5 4t-7.5 8v11q0 55 -38 89t-97 34q-61 0 -98 -34t-37 -89v-332q0 -55 36.5 -89t98.5 -34q59 0 97 34t38 89q0 23 27 22l37 2q27 0 26 -10v-10 q0 -92 -62.5 -148.5t-162.5 -56.5q-103 0 -164 57.5t-61 153.5z" />
<glyph unicode="&#xaa;" horiz-adv-x="663" d="M47 535v55q0 26 27 26h495q27 0 27 -26v-55q0 -27 -27 -27h-495q-27 0 -27 27zM47 934q0 102 76 161.5t205 59.5h149q10 0 10 10v47q0 72 -42 115t-123 43q-57 0 -99.5 -23.5t-56.5 -64.5q-6 -25 -29 -22l-39 4q-12 2 -18 10t-4 20q16 70 82.5 113t165.5 43 q119 0 187.5 -62.5t68.5 -164.5v-441q0 -27 -27 -26h-39q-27 0 -27 26v33q0 6 -4 8t-8 -4q-68 -76 -201 -76q-100 0 -163.5 48.5t-63.5 142.5zM139 942q0 -61 41 -92t109 -31q82 0 140 41t58 113v96q0 10 -10 10h-141q-90 0 -143.5 -34.5t-53.5 -102.5z" />
<glyph unicode="&#xab;" horiz-adv-x="1105" d="M176 575q0 6 8 19l252 321q10 16 33 17h86q23 0 23 -17q0 -6 -7 -16l-247 -315q-6 -8 0 -17l247 -315q7 -8 7 -16q0 -16 -23 -17h-86q-23 0 -33 17l-252 321q-8 12 -8 18zM500 575q0 6 8 19l252 321q10 16 33 17h86q23 0 22 -17q0 -6 -6 -16l-248 -315q-6 -8 0 -17 l248 -315q6 -8 6 -16q0 -16 -22 -17h-86q-23 0 -33 17l-252 321q-8 12 -8 18z" />
<glyph unicode="&#xac;" horiz-adv-x="1024" d="M80 604v74q-1 27 26 27h812q27 0 26 -27v-320q0 -27 -26 -26h-76q-27 0 -27 26v209q0 10 -10 11h-699q-27 0 -26 26z" />
<glyph unicode="&#xad;" horiz-adv-x="806" d="M80 600v74q0 27 26 26h594q27 0 27 -26v-74q0 -27 -27 -27h-594q-26 0 -26 27z" />
<glyph unicode="&#xae;" horiz-adv-x="923" d="M59 1065q0 109 54.5 200t146.5 144t203 53q110 0 202.5 -53t145.5 -144t53 -200q0 -111 -53 -203t-145.5 -145t-202.5 -53q-111 0 -204 53t-146.5 145t-53.5 203zM133 1065q0 -90 44 -166t120 -120t166 -44t166 44t119 120t43 166q0 88 -43 163t-119 119t-166 44 t-166 -44t-120 -119t-44 -163zM356 905v314q0 27 27 26h102q47 0 77 -30.5t30 -77.5q0 -66 -53 -93q-8 -4 -4 -14l49 -121q2 -4 2 -12q0 -18 -23 -18h-14q-23 0 -31 20l-47 125q-4 8 -12 8h-29q-10 0 -10 -10v-117q0 -27 -27 -26h-10q-27 0 -27 26zM420 1092q0 -10 10 -11 h45q25 0 39 15.5t14 38.5q0 27 -14 41t-39 14h-45q-10 0 -10 -10v-88z" />
<glyph unicode="&#xaf;" horiz-adv-x="550" d="M0 1243v51q0 27 27 27h497q27 0 27 -27v-51q0 -27 -27 -26h-497q-27 -1 -27 26z" />
<glyph unicode="&#xb0;" horiz-adv-x="780" d="M59 1327q0 90 44 166t120 119t166 43q92 0 168 -43t120 -119t44 -166q0 -92 -44 -168t-120 -119t-168 -43q-90 0 -166 44t-120 119t-44 167zM164 1327q0 -94 65.5 -160.5t159.5 -66.5q96 0 161.5 66.5t65.5 160.5t-65.5 159.5t-161.5 65.5q-94 0 -159.5 -65.5 t-65.5 -159.5z" />
<glyph unicode="&#xb1;" horiz-adv-x="1024" d="M80 26v74q0 27 26 27h812q27 0 26 -27v-74q0 -27 -26 -26h-812q-26 -1 -26 26zM80 684v74q0 27 26 27h332q10 0 11 10v340q0 27 26 26h74q27 0 26 -26v-340q0 -10 11 -10h332q26 0 26 -27v-74q0 -27 -26 -26h-332q-10 0 -11 -11v-323q0 -27 -26 -27h-74q-27 0 -26 27v323 q0 10 -11 11h-332q-27 0 -26 26z" />
<glyph unicode="&#xb2;" horiz-adv-x="667" d="M72 1526v36q2 96 72.5 154.5t177.5 58.5q115 0 184 -63.5t69 -159.5q0 -102 -110 -248q-78 -102 -246 -297q-4 -4 -2 -8t8 -4h350q27 0 27 -27v-36q0 -27 -27 -27h-475q-26 0 -26 27v45q0 18 12 32q156 178 270 322q117 139 117 219q0 59 -42 96t-109 37 q-66 0 -107 -36.5t-39 -98.5v-22q0 -27 -26 -27h-52q-27 0 -26 27z" />
<glyph unicode="&#xb3;" horiz-adv-x="659" d="M76 1138q0 27 26 27h52q27 0 26 -27q4 -37 8 -49q10 -47 48 -76.5t92 -29.5q88 0 125 72q25 47 24 114q0 80 -26 127q-37 72 -123 72q-18 0 -33 -6q-12 -4 -16 -4q-10 0 -21 12l-22 29l-9 18q0 6 9 18l198 224q8 12 -4 12h-319q-27 0 -27 27v36q0 27 27 27h438 q27 0 26 -27v-45q0 -16 -12 -32l-180 -207q-8 -10 6 -15q115 -14 162 -112q31 -62 31 -156q0 -84 -29 -145q-29 -63 -87 -97t-138 -34q-86 0 -148.5 45t-89.5 123q-10 35 -14 79z" />
<glyph unicode="&#xb4;" horiz-adv-x="409" d="M75 1191q-5 9 3 23l117 211q8 18 31 19h88q20 0 20 -17q0 -10 -4 -16l-131 -211q-12 -18 -31 -18h-71q-17 0 -22 9z" />
<glyph unicode="&#xb5;" horiz-adv-x="1118" d="M162 324v686q0 27 26 26h95q27 0 26 -26v-682q10 -100 75 -157.5t167 -57.5q117 0 185.5 69.5t68.5 184.5v643q-1 26 26 26h93q27 0 26 -26v-983q0 -27 -26 -27h-93q-27 0 -26 27v77q0 6 -4 8.5t-8 -3.5q-88 -123 -271 -123q-115 0 -200 49q-4 4 -8.5 2t-4.5 -8v-412 q0 -27 -26 -27h-93q-27 0 -26 27v659v13q-2 10 -2 35z" />
<glyph unicode="&#xb6;" horiz-adv-x="1181" d="M74 973q0 129 57 234.5t159.5 166t229.5 60.5h447q27 0 26 -27v-1790q0 -27 -26 -27h-58q-27 0 -26 27v1698q0 10 -11 10h-258q-10 0 -10 -10v-1698q0 -27 -26 -27h-60q-27 0 -26 27v885q0 10 -11 10q-115 8 -208 70.5t-146 164t-53 226.5z" />
<glyph unicode="&#xb7;" horiz-adv-x="253" d="M-34 127q0 49 37.5 85t88.5 36q49 0 88 -36t39 -85q0 -51 -36.5 -86t-90.5 -35q-55 0 -90.5 35t-35.5 86z" />
<glyph unicode="&#xb8;" horiz-adv-x="286" d="M4 -340l6 33q2 27 31 20q25 -4 37 -4q86 0 100 74q2 8 2 24q0 74 -96 160q-10 10 -10 19q0 14 22 14h39q20 0 33 -12q119 -94 119 -201q0 -25 -6 -45q-16 -66 -64.5 -94.5t-112.5 -28.5q-39 0 -79 10q-25 6 -21 31z" />
<glyph unicode="&#xb9;" horiz-adv-x="376" d="M78 1673v25q0 20 20 30l66 31q13 6 33 6h61q27 0 27 -26v-807q0 -27 -27 -27h-51q-27 0 -27 27v723q0 4 -4 8t-8 2l-62 -17h-8q-20 0 -20 25z" />
<glyph unicode="&#xba;" horiz-adv-x="714" d="M66 535v57q0 27 26 26h531q27 0 26 -26v-57q0 -27 -26 -27h-531q-26 0 -26 27zM82 1102q0 100 18 164q27 86 94.5 135t163.5 49q92 0 159 -49t93 -135q18 -57 19 -162q0 -109 -19 -166q-27 -86 -93 -136t-159 -50q-94 0 -160.5 49t-95.5 137q-20 63 -20 164zM184 1102 q0 -88 13 -135q14 -59 57 -93t104 -34q60 0 102 34.5t56 92.5q12 39 12 135q0 94 -10 133q-16 59 -58 93t-104 34q-61 0 -102 -34t-57 -93q-12 -45 -13 -133z" />
<glyph unicode="&#xbb;" horiz-adv-x="1105" d="M211 236q0 8 6 16l248 315q6 8 0 17l-248 315q-6 10 -6 16q0 16 22 17h86q23 0 33 -17l252 -321q8 -8 8 -19q0 -10 -8 -18l-252 -321q-10 -16 -33 -17h-86q-22 1 -22 17zM535 236q0 8 6 16l248 315q6 8 0 17l-248 315q-6 10 -6 16q0 16 22 17h86q23 0 33 -17l252 -321 q8 -8 8 -19q0 -10 -8 -18l-252 -321q-10 -16 -33 -17h-86q-22 1 -22 17z" />
<glyph unicode="&#xbc;" horiz-adv-x="1626" d="M78 1341v25q0 20 20 30l66 31q13 6 33 6h61q27 0 27 -26v-807q0 -27 -27 -27h-51q-27 0 -27 27v723q0 4 -4 8t-8 2l-62 -17h-8q-20 0 -20 25zM217 16q0 10 5 17l866 1382q12 18 31 19h55q20 0 20 -17q0 -10 -4 -16l-864 -1383q-12 -18 -31 -18h-57q-21 0 -21 16zM993 258 v37q0 12 9 33l235 512q10 20 31 20h51q16 0 21.5 -8t-1.5 -23l-223 -491q-2 -4 0 -8t6 -4h248q10 0 10 10v172q0 27 27 27h51q27 0 27 -27v-172q0 -10 10 -10h33q26 0 26 -27v-41q0 -27 -26 -27h-33q-10 0 -10 -10v-194q0 -27 -27 -27h-51q-27 0 -27 27v194q0 10 -10 10 h-350q-27 0 -27 27z" />
<glyph unicode="&#xbd;" horiz-adv-x="1603" d="M78 1341v25q0 20 20 30l66 31q13 6 33 6h61q27 0 27 -26v-807q0 -27 -27 -27h-51q-27 0 -27 27v723q0 4 -4 8t-8 2l-62 -17h-8q-20 0 -20 25zM217 16q0 10 5 17l866 1382q12 18 31 19h55q20 0 20 -17q0 -10 -4 -16l-864 -1383q-12 -18 -31 -18h-57q-21 0 -21 16z M1008 621v36q2 96 72.5 154.5t177.5 58.5q115 0 184 -63.5t69 -159.5q0 -102 -110 -248q-78 -102 -246 -297q-4 -4 -2 -8t8 -4h350q27 0 27 -27v-36q0 -27 -27 -27h-475q-26 0 -26 27v45q0 18 12 32q156 178 270 322q117 139 117 219q0 59 -42 96t-109 37q-66 0 -107 -36.5 t-39 -98.5v-22q0 -27 -26 -27h-52q-27 0 -26 27z" />
<glyph unicode="&#xbe;" horiz-adv-x="1830" d="M76 823q0 27 26 27h52q27 0 26 -27q4 -37 8 -49q10 -47 48 -76.5t92 -29.5q88 0 125 72q25 47 24 114q0 80 -26 127q-37 72 -123 72q-18 0 -33 -6q-12 -4 -16 -4q-10 0 -21 12l-22 29l-9 18q0 6 9 18l198 224q8 12 -4 12h-319q-27 0 -27 27v36q0 27 27 27h438 q27 0 26 -27v-45q0 -16 -12 -32l-180 -207q-8 -10 6 -15q115 -14 162 -112q31 -62 31 -156q0 -84 -29 -145q-29 -63 -87 -97t-138 -34q-86 0 -148.5 45t-89.5 123q-10 35 -14 79zM421 16q0 10 5 17l866 1382q12 18 31 19h55q20 0 20 -17q0 -10 -4 -16l-864 -1383 q-12 -18 -31 -18h-57q-21 0 -21 16zM1198 258v37q0 12 9 33l235 512q10 20 31 20h51q16 0 21.5 -8t-1.5 -23l-223 -491q-2 -4 0 -8t6 -4h248q10 0 10 10v172q0 27 27 27h51q27 0 27 -27v-172q0 -10 10 -10h33q26 0 26 -27v-41q0 -27 -26 -27h-33q-10 0 -10 -10v-194 q0 -27 -27 -27h-51q-27 0 -27 27v194q0 10 -10 10h-350q-27 0 -27 27z" />
<glyph unicode="&#xbf;" horiz-adv-x="944" d="M88 -68q0 90 29.5 156t70.5 107t109 94q70 53 104.5 94t34.5 98v107q0 27 27 26h94q27 1 27 -26v-115q0 -88 -43 -143.5t-131 -124.5q-59 -47 -94 -81t-59 -81t-24 -111q0 -102 66 -164.5t174 -62.5q111 0 177.5 63.5t66.5 165.5v58q0 25 26 24l93 -4q27 0 26 -26v-52 q0 -162 -108.5 -262t-284.5 -100q-172 0 -276.5 98.5t-104.5 261.5zM379 903q0 49 37 83t86 34q51 0 86 -34t35 -83q0 -47 -36 -82t-85 -35t-86 35t-37 82z" />
<glyph unicode="&#xc0;" d="M76 31l450 1380q6 23 29 23h131q23 0 29 -23l452 -1380q2 -4 2 -11q0 -8 -7 -14t-17 -6h-98q-23 0 -29 23l-82 249q-4 8 -10 9h-611q-6 0 -10 -9l-80 -249q-6 -23 -28 -23h-99q-14 0 -20 8t-2 23zM350 412q-2 -13 8 -13h527q12 0 8 13l-266 837q-2 8 -6.5 8t-6.5 -8z M406 1824q0 16 20 17h88q20 0 31 -19l117 -211q4 -12 4 -14q0 -8 -6.5 -13t-16.5 -5h-72q-18 0 -30 18l-131 211q-4 6 -4 16z" />
<glyph unicode="&#xc1;" d="M76 31l450 1380q6 23 29 23h131q23 0 29 -23l452 -1380q2 -4 2 -11q0 -8 -7 -14t-17 -6h-98q-23 0 -29 23l-82 249q-4 8 -10 9h-611q-6 0 -10 -9l-80 -249q-6 -23 -28 -23h-99q-14 0 -20 8t-2 23zM350 412q-2 -13 8 -13h527q12 0 8 13l-266 837q-2 8 -6.5 8t-6.5 -8z M538 1588q-5 9 3 23l117 211q8 18 31 19h88q20 0 20 -17q0 -10 -4 -16l-131 -211q-12 -18 -31 -18h-71q-17 0 -22 9z" />
<glyph unicode="&#xc2;" d="M76 31l450 1380q6 23 29 23h131q23 0 29 -23l452 -1380q2 -4 2 -11q0 -8 -7 -14t-17 -6h-98q-23 0 -29 23l-82 249q-4 8 -10 9h-611q-6 0 -10 -9l-80 -249q-6 -23 -28 -23h-99q-14 0 -20 8t-2 23zM350 412q-2 -13 8 -13h527q12 0 8 13l-266 837q-2 8 -6.5 8t-6.5 -8z M369 1581q0 8 6 16l160 209q10 16 33 16h96q23 0 33 -16l161 -209q6 -8 7 -16q0 -16 -23 -17h-65q-20 0 -33 17l-119 164q-4 4 -8 4t-6 -4l-121 -164q-12 -16 -33 -17h-66q-22 1 -22 17z" />
<glyph unicode="&#xc3;" d="M76 31l450 1380q6 23 29 23h131q23 0 29 -23l452 -1380q2 -4 2 -11q0 -8 -7 -14t-17 -6h-98q-23 0 -29 23l-82 249q-4 8 -10 9h-611q-6 0 -10 -9l-80 -249q-6 -23 -28 -23h-99q-14 0 -20 8t-2 23zM350 412q-2 -13 8 -13h527q12 0 8 13l-266 837q-2 8 -6.5 8t-6.5 -8z M356.5 1679q-2.5 10 3.5 21q61 102 164 102q33 0 59.5 -11.5t65.5 -35.5q35 -23 56.5 -33t43.5 -10q59 0 97 55q14 20 37 8l30 -18q12 -8 13 -21q0 -12 -13 -30q-33 -49 -77 -73t-85 -24q-34 0 -64 13.5t-62 36.5q-33 23 -51.5 32t-41.5 9q-31 0 -52 -10.5t-44 -39.5 q-14 -14 -22 -14t-17 6l-28 21q-10 6 -12.5 16z" />
<glyph unicode="&#xc4;" d="M76 31l450 1380q6 23 29 23h131q23 0 29 -23l452 -1380q2 -4 2 -11q0 -8 -7 -14t-17 -6h-98q-23 0 -29 23l-82 249q-4 8 -10 9h-611q-6 0 -10 -9l-80 -249q-6 -23 -28 -23h-99q-14 0 -20 8t-2 23zM350 412q-2 -13 8 -13h527q12 0 8 13l-266 837q-2 8 -6.5 8t-6.5 -8z M350 1720q0 41 28 68.5t71 27.5q41 0 67.5 -27.5t26.5 -68.5t-26.5 -67.5t-67.5 -26.5q-43 0 -71 26.5t-28 67.5zM696 1720q0 41 27 68.5t70 27.5t69.5 -27.5t26.5 -68.5t-26.5 -67.5t-69.5 -26.5t-70 26.5t-27 67.5z" />
<glyph unicode="&#xc5;" d="M76 31l450 1380q6 23 29 23h131q23 0 29 -23l452 -1380q2 -4 2 -11q0 -8 -7 -14t-17 -6h-98q-23 0 -29 23l-82 249q-4 8 -10 9h-611q-6 0 -10 -9l-80 -249q-6 -23 -28 -23h-99q-14 0 -20 8t-2 23zM350 412q-2 -13 8 -13h527q12 0 8 13l-266 837q-2 8 -6.5 8t-6.5 -8z M403 1773q0 88 62.5 148.5t152.5 60.5t151.5 -60.5t61.5 -148.5t-61.5 -149.5t-151.5 -61.5t-152.5 61.5t-62.5 149.5zM485 1773q0 -55 39 -93t94 -38t93 38t38 93t-39 93t-92 38q-55 0 -94 -37.5t-39 -93.5z" />
<glyph unicode="&#xc6;" horiz-adv-x="1886" d="M79 8q-5 8 3 23l729 1384q10 18 31 19h899q27 0 26 -27v-74q1 -26 -26 -26h-690q-10 0 -11 -11v-501q0 -10 11 -11h465q27 0 26 -26v-74q0 -27 -26 -27h-465q-10 0 -11 -10v-510q0 -10 11 -10h690q27 0 26 -27v-73q0 -27 -26 -27h-819q-27 0 -27 27v243q0 10 -10 11h-504 q-10 0 -12 -9l-131 -254q-8 -18 -33 -18h-105q-16 0 -21 8zM442 412q-5 -13 9 -13h434q10 0 10 11v843q0 8 -4 9.5t-8 -5.5z" />
<glyph unicode="&#xc7;" d="M147 436v563q0 133 60.5 235.5t169 159t252.5 56.5q143 0 251.5 -55.5t169 -155.5t60.5 -231v-11q0 -8 -27 -12l-92 -6h-6q-8 0 -14 4t-6 8v13q0 145 -92.5 232t-243.5 87q-152 0 -244 -88t-92 -231v-574q0 -143 92 -231t244 -88t244 87t92 232q0 25 26 23l92 -4 q27 0 27 -11v-10q0 -133 -60.5 -234.5t-169 -156.5t-251.5 -55q-6 0 6 -13q98 -90 98 -184q0 -25 -6 -45q-16 -66 -64.5 -94.5t-111.5 -28.5q-39 0 -80 10q-25 6 -20 31l6 33q2 27 30 20q25 -4 37 -4q45 0 74 23.5t29 74.5q0 88 -127 187q-4 4 -7.5 5t-5.5 1 q-158 39 -249 154.5t-91 283.5z" />
<glyph unicode="&#xc8;" horiz-adv-x="1239" d="M193 27v1380q0 27 26 27h875q27 0 26 -27v-74q1 -26 -26 -26h-746q-10 0 -10 -11v-501q0 -10 10 -11h520q27 0 27 -26v-74q0 -27 -27 -27h-520q-10 0 -10 -10v-510q0 -10 10 -10h746q27 0 26 -27v-73q0 -27 -26 -27h-875q-27 0 -26 27zM435 1847q0 16 20 17h88 q20 0 31 -19l117 -211q4 -12 4 -14q0 -8 -6.5 -13t-16.5 -5h-72q-18 0 -30 18l-131 211q-4 6 -4 16z" />
<glyph unicode="&#xc9;" horiz-adv-x="1239" d="M193 27v1380q0 27 26 27h875q27 0 26 -27v-74q1 -26 -26 -26h-746q-10 0 -10 -11v-501q0 -10 10 -11h520q27 0 27 -26v-74q0 -27 -27 -27h-520q-10 0 -10 -10v-510q0 -10 10 -10h746q27 0 26 -27v-73q0 -27 -26 -27h-875q-27 0 -26 27zM566 1611q-5 9 3 23l117 211 q8 18 31 19h88q20 0 20 -17q0 -10 -4 -16l-131 -211q-12 -18 -31 -18h-71q-17 0 -22 9z" />
<glyph unicode="&#xca;" horiz-adv-x="1239" d="M193 27v1380q0 27 26 27h875q27 0 26 -27v-74q1 -26 -26 -26h-746q-10 0 -10 -11v-501q0 -10 10 -11h520q27 0 27 -26v-74q0 -27 -27 -27h-520q-10 0 -10 -10v-510q0 -10 10 -10h746q27 0 26 -27v-73q0 -27 -26 -27h-875q-27 0 -26 27zM397 1604q0 8 6 16l160 209 q10 16 33 16h96q23 0 33 -16l161 -209q6 -8 7 -16q0 -16 -23 -17h-65q-20 0 -33 17l-119 164q-4 4 -8 4t-6 -4l-121 -164q-12 -16 -33 -17h-66q-22 1 -22 17z" />
<glyph unicode="&#xcb;" horiz-adv-x="1239" d="M193 27v1380q0 27 26 27h875q27 0 26 -27v-74q1 -26 -26 -26h-746q-10 0 -10 -11v-501q0 -10 10 -11h520q27 0 27 -26v-74q0 -27 -27 -27h-520q-10 0 -10 -10v-510q0 -10 10 -10h746q27 0 26 -27v-73q0 -27 -26 -27h-875q-27 0 -26 27zM379 1743q0 41 28 68.5t71 27.5 q41 0 67.5 -27.5t26.5 -68.5t-26.5 -67.5t-67.5 -26.5q-43 0 -71 26.5t-28 67.5zM725 1743q0 41 27 68.5t70 27.5t69.5 -27.5t26.5 -68.5t-26.5 -67.5t-69.5 -26.5t-70 26.5t-27 67.5z" />
<glyph unicode="&#xcc;" horiz-adv-x="530" d="M52 1847q0 16 20 17h88q20 0 31 -19l117 -211q4 -12 4 -14q0 -8 -6.5 -13t-16.5 -5h-72q-18 0 -30 18l-131 211q-4 6 -4 16zM193 27v1380q0 27 26 27h92q27 0 27 -27v-1380q0 -27 -27 -27h-92q-26 0 -26 27z" />
<glyph unicode="&#xcd;" horiz-adv-x="530" d="M183 1611q-5 9 3 23l117 211q8 18 31 19h88q20 0 20 -17q0 -10 -4 -16l-131 -211q-12 -18 -31 -18h-71q-17 0 -22 9zM193 27v1380q0 27 26 27h92q27 0 27 -27v-1380q0 -27 -27 -27h-92q-26 0 -26 27z" />
<glyph unicode="&#xce;" horiz-adv-x="530" d="M14 1604q0 8 6 16l160 209q10 16 33 16h96q23 0 33 -16l161 -209q6 -8 7 -16q0 -16 -23 -17h-65q-20 0 -33 17l-119 164q-4 4 -8 4t-6 -4l-121 -164q-12 -16 -33 -17h-66q-22 1 -22 17zM193 27v1380q0 27 26 27h92q27 0 27 -27v-1380q0 -27 -27 -27h-92q-26 0 -26 27z " />
<glyph unicode="&#xcf;" horiz-adv-x="530" d="M-7 1743q0 41 28 68.5t71 27.5q41 0 67.5 -27.5t26.5 -68.5t-26.5 -67.5t-67.5 -26.5q-43 0 -71 26.5t-28 67.5zM193 27v1380q0 27 26 27h92q27 0 27 -27v-1380q0 -27 -27 -27h-92q-26 0 -26 27zM339 1743q0 41 27 68.5t70 27.5t69.5 -27.5t26.5 -68.5t-26.5 -67.5 t-69.5 -26.5t-70 26.5t-27 67.5z" />
<glyph unicode="&#xd0;" horiz-adv-x="1398" d="M193 719v53q0 27 26 27h96q10 0 11 10v598q0 27 26 27h477q203 0 323 -106.5t120 -289.5v-643q0 -182 -120 -288.5t-323 -106.5h-477q-27 0 -26 27v655q0 10 -11 10h-96q-27 0 -26 27zM471 137q0 -10 10 -10h355q133 0 211.5 78t78.5 209v604q0 133 -77.5 211t-212.5 78 h-355q-10 0 -10 -11v-487q0 -10 10 -10h236q27 0 26 -27v-53q0 -27 -26 -27h-236q-10 0 -10 -10v-545z" />
<glyph unicode="&#xd1;" horiz-adv-x="1378" d="M193 27v1380q0 27 26 27h92q18 0 31 -19l688 -1114q4 -6 8 -5t4 9v1102q0 27 27 27h92q27 0 27 -27v-1380q0 -27 -27 -27h-92q-18 0 -31 18l-690 1119q-4 6 -8 5t-4 -9l2 -1106q0 -27 -27 -27h-92q-26 0 -26 27zM424.5 1702q-2.5 10 3.5 21q61 102 164 102 q33 0 59.5 -11.5t65.5 -35.5q35 -23 56.5 -33t43.5 -10q59 0 97 55q14 20 37 8l30 -18q12 -8 13 -21q0 -12 -13 -30q-33 -49 -77 -73t-85 -24q-34 0 -64 13.5t-62 36.5q-33 23 -51.5 32t-41.5 9q-31 0 -52 -10.5t-44 -39.5q-14 -14 -22 -14t-17 6l-28 21q-10 6 -12.5 16z " />
<glyph unicode="&#xd2;" horiz-adv-x="1273" d="M147 459v516q0 141 60.5 248.5t171 167t256.5 59.5q145 0 257 -59.5t172 -167t60 -248.5v-516q0 -141 -60 -249t-172 -167t-257 -59q-146 0 -256.5 59t-171 166.5t-60.5 249.5zM293 453q0 -156 94 -250t248 -94q156 0 250 94t94 250v524q0 156 -94 251t-250 95 q-154 0 -248 -95t-94 -251v-524zM422 1841q0 16 20 17h88q20 0 31 -19l117 -211q4 -12 4 -14q0 -8 -6.5 -13t-16.5 -5h-72q-18 0 -30 18l-131 211q-4 6 -4 16z" />
<glyph unicode="&#xd3;" horiz-adv-x="1273" d="M147 459v516q0 141 60.5 248.5t171 167t256.5 59.5q145 0 257 -59.5t172 -167t60 -248.5v-516q0 -141 -60 -249t-172 -167t-257 -59q-146 0 -256.5 59t-171 166.5t-60.5 249.5zM293 453q0 -156 94 -250t248 -94q156 0 250 94t94 250v524q0 156 -94 251t-250 95 q-154 0 -248 -95t-94 -251v-524zM554 1605q-5 9 3 23l117 211q8 18 31 19h88q20 0 20 -17q0 -10 -4 -16l-131 -211q-12 -18 -31 -18h-71q-17 0 -22 9z" />
<glyph unicode="&#xd4;" horiz-adv-x="1273" d="M147 459v516q0 141 60.5 248.5t171 167t256.5 59.5q145 0 257 -59.5t172 -167t60 -248.5v-516q0 -141 -60 -249t-172 -167t-257 -59q-146 0 -256.5 59t-171 166.5t-60.5 249.5zM293 453q0 -156 94 -250t248 -94q156 0 250 94t94 250v524q0 156 -94 251t-250 95 q-154 0 -248 -95t-94 -251v-524zM385 1598q0 8 6 16l160 209q10 16 33 16h96q23 0 33 -16l161 -209q6 -8 7 -16q0 -16 -23 -17h-65q-20 0 -33 17l-119 164q-4 4 -8 4t-6 -4l-121 -164q-12 -16 -33 -17h-66q-22 1 -22 17z" />
<glyph unicode="&#xd5;" horiz-adv-x="1273" d="M147 459v516q0 141 60.5 248.5t171 167t256.5 59.5q145 0 257 -59.5t172 -167t60 -248.5v-516q0 -141 -60 -249t-172 -167t-257 -59q-146 0 -256.5 59t-171 166.5t-60.5 249.5zM293 453q0 -156 94 -250t248 -94q156 0 250 94t94 250v524q0 156 -94 251t-250 95 q-154 0 -248 -95t-94 -251v-524zM373.5 1696q-2.5 10 3.5 21q61 102 164 102q33 0 59.5 -11.5t65.5 -35.5q35 -23 56.5 -33t43.5 -10q59 0 97 55q14 20 37 8l30 -18q12 -8 13 -21q0 -12 -13 -30q-33 -49 -77 -73t-85 -24q-34 0 -64 13.5t-62 36.5q-33 23 -51.5 32t-41.5 9 q-31 0 -52 -10.5t-44 -39.5q-14 -14 -22 -14t-17 6l-28 21q-10 6 -12.5 16z" />
<glyph unicode="&#xd6;" horiz-adv-x="1273" d="M147 459v516q0 141 60.5 248.5t171 167t256.5 59.5q145 0 257 -59.5t172 -167t60 -248.5v-516q0 -141 -60 -249t-172 -167t-257 -59q-146 0 -256.5 59t-171 166.5t-60.5 249.5zM293 453q0 -156 94 -250t248 -94q156 0 250 94t94 250v524q0 156 -94 251t-250 95 q-154 0 -248 -95t-94 -251v-524zM366 1737q0 41 28 68.5t71 27.5q41 0 67.5 -27.5t26.5 -68.5t-26.5 -67.5t-67.5 -26.5q-43 0 -71 26.5t-28 67.5zM712 1737q0 41 27 68.5t70 27.5t69.5 -27.5t26.5 -68.5t-26.5 -67.5t-69.5 -26.5t-70 26.5t-27 67.5z" />
<glyph unicode="&#xd7;" horiz-adv-x="864" d="M90 918q0 10 8 18l52 53q10 10 18 10t18 -10l242 -239q8 -8 16 0l234 233q10 10 18 10t19 -10l53 -53q10 -11 10 -19t-10 -18l-233 -234q-4 -4 -4.5 -8t4.5 -8l227 -227q10 -10 10 -19q0 -8 -10 -18l-53 -53q-8 -8 -19 -9q-10 0 -18 9l-228 227q-8 8 -16 0l-235 -234 q-8 -8 -19 -8q-10 0 -18 8l-54 54q-8 8 -8 18t8 19l236 233q8 8 0 16l-240 240q-8 8 -8 19z" />
<glyph unicode="&#xd8;" horiz-adv-x="1284" d="M158 459v516q0 141 60.5 248.5t171 167t255.5 59.5q119 0 217 -41q10 -4 12 4l44 92q10 20 32 21h62q16 0 21 -8.5t-1 -22.5l-65 -135q-4 -8 4 -14q78 -63 121 -158.5t43 -212.5v-516q0 -141 -60.5 -249t-172 -167t-257.5 -59q-164 0 -285 75q-2 4 -6 2t-6 -6l-55 -114 q-10 -20 -33 -21h-59q-14 0 -20.5 8.5t-0.5 22.5l84 178q4 8 -2 14q-104 131 -104 316zM303 453q0 -86 31 -154q2 -6 6 -6t6 6l463 979q2 8 -4 12q-68 33 -160 33q-154 0 -248 -95t-94 -251v-524zM416 199q-4 -8 2 -15q88 -76 227 -75q156 0 250 94t94 250v524 q0 143 -80 233q-2 4 -7 3t-7 -5z" />
<glyph unicode="&#xd9;" horiz-adv-x="1327" d="M176 442v965q0 27 27 27h92q27 0 27 -27v-969q0 -145 94 -236t248 -91t248 91t94 236v969q0 27 26 27h92q27 0 27 -27v-965q0 -137 -60.5 -240.5t-171 -160.5t-255.5 -57q-144 0 -254.5 57t-172 160.5t-61.5 240.5zM451 1849q0 16 20 17h88q20 0 31 -19l117 -211 q4 -12 4 -14q0 -8 -6.5 -13t-16.5 -5h-72q-18 0 -30 18l-131 211q-4 6 -4 16z" />
<glyph unicode="&#xda;" horiz-adv-x="1327" d="M176 442v965q0 27 27 27h92q27 0 27 -27v-969q0 -145 94 -236t248 -91t248 91t94 236v969q0 27 26 27h92q27 0 27 -27v-965q0 -137 -60.5 -240.5t-171 -160.5t-255.5 -57q-144 0 -254.5 57t-172 160.5t-61.5 240.5zM583 1613q-5 9 3 23l117 211q8 18 31 19h88 q20 0 20 -17q0 -10 -4 -16l-131 -211q-12 -18 -31 -18h-71q-17 0 -22 9z" />
<glyph unicode="&#xdb;" horiz-adv-x="1327" d="M176 442v965q0 27 27 27h92q27 0 27 -27v-969q0 -145 94 -236t248 -91t248 91t94 236v969q0 27 26 27h92q27 0 27 -27v-965q0 -137 -60.5 -240.5t-171 -160.5t-255.5 -57q-144 0 -254.5 57t-172 160.5t-61.5 240.5zM414 1606q0 8 6 16l160 209q10 16 33 16h96 q23 0 33 -16l161 -209q6 -8 7 -16q0 -16 -23 -17h-65q-20 0 -33 17l-119 164q-4 4 -8 4t-6 -4l-121 -164q-12 -16 -33 -17h-66q-22 1 -22 17z" />
<glyph unicode="&#xdc;" horiz-adv-x="1327" d="M176 442v965q0 27 27 27h92q27 0 27 -27v-969q0 -145 94 -236t248 -91t248 91t94 236v969q0 27 26 27h92q27 0 27 -27v-965q0 -137 -60.5 -240.5t-171 -160.5t-255.5 -57q-144 0 -254.5 57t-172 160.5t-61.5 240.5zM395 1745q0 41 28 68.5t71 27.5q41 0 67.5 -27.5 t26.5 -68.5t-26.5 -67.5t-67.5 -26.5q-43 0 -71 26.5t-28 67.5zM741 1745q0 41 27 68.5t70 27.5t69.5 -27.5t26.5 -68.5t-26.5 -67.5t-69.5 -26.5t-70 26.5t-27 67.5z" />
<glyph unicode="&#xdd;" horiz-adv-x="1161" d="M80 1415q0 8 6 13.5t16 5.5h99q23 0 30 -19l342 -618q6 -8 13 0l344 618q10 18 31 19h98q16 0 21 -9.5t-3 -23.5l-420 -760q-4 -8 -4 -12v-600q0 -27 -26 -27h-92q-27 0 -27 27v600q0 4 -4 12l-420 760q-4 12 -4 14zM499 1586q-5 9 3 23l117 211q8 18 31 19h88 q20 0 20 -17q0 -10 -4 -16l-131 -211q-12 -18 -31 -18h-71q-17 0 -22 9z" />
<glyph unicode="&#xde;" horiz-adv-x="1161" d="M178 27v1380q0 27 27 27h92q27 0 27 -27v-285q0 -10 10 -10h352q180 0 290.5 -109.5t110.5 -287.5q0 -117 -52 -206t-144 -138t-209 -49h-348q-10 0 -10 -11v-284q0 -27 -27 -27h-92q-27 0 -27 27zM324 453q0 -10 10 -11h338q123 0 196.5 74t73.5 197q0 125 -73.5 198.5 t-196.5 73.5h-338q-10 0 -10 -10v-522z" />
<glyph unicode="&#xdf;" horiz-adv-x="1206" d="M164 27v1017q2 188 122 298t314 110q217 0 338 -101.5t121 -281.5q0 -109 -45 -185.5t-133 -113.5q-12 -6 0 -12q88 -39 140 -133.5t52 -225.5q0 -190 -125 -294.5t-370 -104.5h-136q-27 0 -26 27v71q0 27 26 27h152q166 0 250 74.5t84 212.5q0 141 -74 215.5t-219 77.5 h-143q-27 0 -27 26v64q0 27 27 26h147q135 0 204.5 62.5t69.5 177.5q0 125 -75.5 194.5t-229.5 69.5q-125 0 -211 -72.5t-88 -197.5v-1028q0 -27 -26 -27h-93q-26 0 -26 27z" />
<glyph unicode="&#xe0;" horiz-adv-x="1046" d="M94 283q0 154 111.5 242.5t310.5 88.5h238q10 0 10 11v75q0 104 -58.5 165t-181.5 61q-96 0 -157.5 -37t-77.5 -103q-6 -25 -31 -20l-100 12q-27 4 -25 23q20 113 126 182.5t263 69.5q185 0 286 -94.5t101 -249.5v-682q0 -27 -26 -27h-92q-27 0 -27 27v73q0 6 -4 8.5 t-8 -4.5q-55 -59 -138.5 -89.5t-181.5 -30.5q-143 0 -240.5 73.5t-97.5 225.5zM240 291q0 -90 63.5 -136t161.5 -46q121 0 210 60t89 163v157q0 10 -10 11h-215q-135 0 -217 -55.5t-82 -153.5zM312 1443q0 16 20 17h88q20 0 31 -19l117 -211q4 -12 4 -14q0 -8 -6.5 -13 t-16.5 -5h-72q-18 0 -30 18l-131 211q-4 6 -4 16z" />
<glyph unicode="&#xe1;" horiz-adv-x="1046" d="M94 283q0 154 111.5 242.5t310.5 88.5h238q10 0 10 11v75q0 104 -58.5 165t-181.5 61q-96 0 -157.5 -37t-77.5 -103q-6 -25 -31 -20l-100 12q-27 4 -25 23q20 113 126 182.5t263 69.5q185 0 286 -94.5t101 -249.5v-682q0 -27 -26 -27h-92q-27 0 -27 27v73q0 6 -4 8.5 t-8 -4.5q-55 -59 -138.5 -89.5t-181.5 -30.5q-143 0 -240.5 73.5t-97.5 225.5zM240 291q0 -90 63.5 -136t161.5 -46q121 0 210 60t89 163v157q0 10 -10 11h-215q-135 0 -217 -55.5t-82 -153.5zM443 1207q-5 9 3 23l117 211q8 18 31 19h88q20 0 20 -17q0 -10 -4 -16 l-131 -211q-12 -18 -31 -18h-71q-17 0 -22 9z" />
<glyph unicode="&#xe2;" horiz-adv-x="1046" d="M94 283q0 154 111.5 242.5t310.5 88.5h238q10 0 10 11v75q0 104 -58.5 165t-181.5 61q-96 0 -157.5 -37t-77.5 -103q-6 -25 -31 -20l-100 12q-27 4 -25 23q20 113 126 182.5t263 69.5q185 0 286 -94.5t101 -249.5v-682q0 -27 -26 -27h-92q-27 0 -27 27v73q0 6 -4 8.5 t-8 -4.5q-55 -59 -138.5 -89.5t-181.5 -30.5q-143 0 -240.5 73.5t-97.5 225.5zM240 291q0 -90 63.5 -136t161.5 -46q121 0 210 60t89 163v157q0 10 -10 11h-215q-135 0 -217 -55.5t-82 -153.5zM274 1200q0 8 6 16l160 209q10 16 33 16h96q23 0 33 -16l161 -209q6 -8 7 -16 q0 -16 -23 -17h-65q-20 0 -33 17l-119 164q-4 4 -8 4t-6 -4l-121 -164q-12 -16 -33 -17h-66q-22 1 -22 17z" />
<glyph unicode="&#xe3;" horiz-adv-x="1046" d="M94 283q0 154 111.5 242.5t310.5 88.5h238q10 0 10 11v75q0 104 -58.5 165t-181.5 61q-96 0 -157.5 -37t-77.5 -103q-6 -25 -31 -20l-100 12q-27 4 -25 23q20 113 126 182.5t263 69.5q185 0 286 -94.5t101 -249.5v-682q0 -27 -26 -27h-92q-27 0 -27 27v73q0 6 -4 8.5 t-8 -4.5q-55 -59 -138.5 -89.5t-181.5 -30.5q-143 0 -240.5 73.5t-97.5 225.5zM240 291q0 -90 63.5 -136t161.5 -46q121 0 210 60t89 163v157q0 10 -10 11h-215q-135 0 -217 -55.5t-82 -153.5zM262.5 1298q-2.5 10 3.5 21q61 102 164 102q33 0 59.5 -11.5t65.5 -35.5 q35 -23 56.5 -33t43.5 -10q59 0 97 55q14 20 37 8l30 -18q12 -8 13 -21q0 -12 -13 -30q-33 -49 -77 -73t-85 -24q-34 0 -64 13.5t-62 36.5q-33 23 -51.5 32t-41.5 9q-31 0 -52 -10.5t-44 -39.5q-14 -14 -22 -14t-17 6l-28 21q-10 6 -12.5 16z" />
<glyph unicode="&#xe4;" horiz-adv-x="1046" d="M94 283q0 154 111.5 242.5t310.5 88.5h238q10 0 10 11v75q0 104 -58.5 165t-181.5 61q-96 0 -157.5 -37t-77.5 -103q-6 -25 -31 -20l-100 12q-27 4 -25 23q20 113 126 182.5t263 69.5q185 0 286 -94.5t101 -249.5v-682q0 -27 -26 -27h-92q-27 0 -27 27v73q0 6 -4 8.5 t-8 -4.5q-55 -59 -138.5 -89.5t-181.5 -30.5q-143 0 -240.5 73.5t-97.5 225.5zM240 291q0 -90 63.5 -136t161.5 -46q121 0 210 60t89 163v157q0 10 -10 11h-215q-135 0 -217 -55.5t-82 -153.5zM256 1339q0 41 28 68.5t71 27.5q41 0 67.5 -27.5t26.5 -68.5t-26.5 -67.5 t-67.5 -26.5q-43 0 -71 26.5t-28 67.5zM602 1339q0 41 27 68.5t70 27.5t69.5 -27.5t26.5 -68.5t-26.5 -67.5t-69.5 -26.5t-70 26.5t-27 67.5z" />
<glyph unicode="&#xe5;" horiz-adv-x="1046" d="M94 283q0 154 111.5 242.5t310.5 88.5h238q10 0 10 11v75q0 104 -58.5 165t-181.5 61q-96 0 -157.5 -37t-77.5 -103q-6 -25 -31 -20l-100 12q-27 4 -25 23q20 113 126 182.5t263 69.5q185 0 286 -94.5t101 -249.5v-682q0 -27 -26 -27h-92q-27 0 -27 27v73q0 6 -4 8.5 t-8 -4.5q-55 -59 -138.5 -89.5t-181.5 -30.5q-143 0 -240.5 73.5t-97.5 225.5zM240 291q0 -90 63.5 -136t161.5 -46q121 0 210 60t89 163v157q0 10 -10 11h-215q-135 0 -217 -55.5t-82 -153.5zM309 1392q0 88 62.5 148.5t152.5 60.5t151.5 -60.5t61.5 -148.5t-61.5 -149.5 t-151.5 -61.5t-152.5 61.5t-62.5 149.5zM391 1392q0 -55 39 -93t94 -38t93 38t38 93t-39 93t-92 38q-55 0 -94 -37.5t-39 -93.5z" />
<glyph unicode="&#xe6;" horiz-adv-x="1705" d="M94 270q0 152 111.5 238t310.5 86h238q10 0 10 10v86q0 106 -60.5 171t-185.5 65q-94 0 -157.5 -37t-79.5 -103q-6 -25 -31 -20l-92 10q-12 2 -18.5 10.5t-4.5 20.5q23 109 127.5 177.5t253.5 68.5q121 0 207 -50.5t119 -128.5q6 -12 12 0q41 76 127 127.5t195 51.5 q139 0 246.5 -77t140.5 -206q10 -41 14 -96.5t4 -173.5q0 -29 -27 -29h-632q-10 0 -11 -10q0 -29 4 -127q4 -102 83 -157.5t198 -55.5q92 0 155.5 38t98.5 107q4 12 14.5 15.5t20.5 -2.5l59 -33q23 -14 15 -35q-43 -98 -144.5 -162.5t-236.5 -64.5q-115 0 -203 46t-129 126 q-8 10 -10 2q-43 -82 -146.5 -128t-232.5 -46q-158 0 -260.5 69.5t-102.5 216.5zM240 283q0 -86 64.5 -134.5t166.5 -48.5q119 0 206 58.5t87 169.5v133q0 10 -10 10h-215q-137 0 -218 -48t-81 -140zM911 604q1 -10 11 -10h505q10 0 11 10q-4 94 -11 121q-16 88 -85.5 144.5 t-167.5 56.5t-167 -55.5t-87 -145.5q-8 -39 -9 -121z" />
<glyph unicode="&#xe7;" horiz-adv-x="1064" d="M131 522q0 147 27 250q37 127 143.5 204t253.5 77q150 0 259.5 -76t141.5 -189q8 -29 13 -55v-4q0 -23 -25 -27l-90 -10h-6q-18 0 -25 23q0 8 -4 24q-18 78 -90 132.5t-174 54.5t-171 -54.5t-89 -144.5q-18 -78 -19 -207q0 -135 19 -209q20 -92 89 -146t171 -54 q100 0 173 52t89 132q2 4 2 10l2 2q2 27 31 23l88 -15q27 -4 25 -30l-9 -35q-29 -109 -124 -180.5t-226 -81.5q-6 -2 -7 -6.5t3 -6.5q102 -90 103 -188q0 -25 -7 -45q-16 -66 -64 -94.5t-112 -28.5q-39 0 -80 10q-25 6 -20 31l6 33q2 27 31 20q25 -4 37 -4q86 0 100 74 q2 8 2 24q0 82 -115 179l-12 6q-117 18 -197.5 91t-115.5 185q-27 90 -27 254z" />
<glyph unicode="&#xe8;" horiz-adv-x="1093" d="M133 522q0 88 3 140.5t16 97.5q35 133 140 213t255 80q178 0 279.5 -92.5t129.5 -260.5q12 -66 13 -204q0 -27 -27 -27h-655q-10 0 -11 -10q0 -102 13 -150q23 -92 95.5 -146t182.5 -54q92 2 159 41.5t103 111.5q4 10 14.5 14.5t20.5 -2.5l60 -32q25 -14 12 -35 q-49 -102 -147.5 -162.5t-233.5 -60.5q-143 0 -241.5 67.5t-141.5 188.5q-39 102 -39 282zM276 594q0 -10 11 -10h526q10 0 10 10q-4 90 -12 131q-23 92 -91.5 146.5t-172.5 54.5q-103 0 -168.5 -52.5t-85.5 -140.5q-12 -41 -17 -139zM332 1443q0 16 20 17h88q20 0 31 -19 l117 -211q4 -12 4 -14q0 -8 -6.5 -13t-16.5 -5h-72q-18 0 -30 18l-131 211q-4 6 -4 16z" />
<glyph unicode="&#xe9;" horiz-adv-x="1093" d="M133 522q0 88 3 140.5t16 97.5q35 133 140 213t255 80q178 0 279.5 -92.5t129.5 -260.5q12 -66 13 -204q0 -27 -27 -27h-655q-10 0 -11 -10q0 -102 13 -150q23 -92 95.5 -146t182.5 -54q92 2 159 41.5t103 111.5q4 10 14.5 14.5t20.5 -2.5l60 -32q25 -14 12 -35 q-49 -102 -147.5 -162.5t-233.5 -60.5q-143 0 -241.5 67.5t-141.5 188.5q-39 102 -39 282zM276 594q0 -10 11 -10h526q10 0 10 10q-4 90 -12 131q-23 92 -91.5 146.5t-172.5 54.5q-103 0 -168.5 -52.5t-85.5 -140.5q-12 -41 -17 -139zM464 1207q-5 9 3 23l117 211 q8 18 31 19h88q20 0 20 -17q0 -10 -4 -16l-131 -211q-12 -18 -31 -18h-71q-17 0 -22 9z" />
<glyph unicode="&#xea;" horiz-adv-x="1093" d="M133 522q0 88 3 140.5t16 97.5q35 133 140 213t255 80q178 0 279.5 -92.5t129.5 -260.5q12 -66 13 -204q0 -27 -27 -27h-655q-10 0 -11 -10q0 -102 13 -150q23 -92 95.5 -146t182.5 -54q92 2 159 41.5t103 111.5q4 10 14.5 14.5t20.5 -2.5l60 -32q25 -14 12 -35 q-49 -102 -147.5 -162.5t-233.5 -60.5q-143 0 -241.5 67.5t-141.5 188.5q-39 102 -39 282zM276 594q0 -10 11 -10h526q10 0 10 10q-4 90 -12 131q-23 92 -91.5 146.5t-172.5 54.5q-103 0 -168.5 -52.5t-85.5 -140.5q-12 -41 -17 -139zM295 1200q0 8 6 16l160 209 q10 16 33 16h96q23 0 33 -16l161 -209q6 -8 7 -16q0 -16 -23 -17h-65q-20 0 -33 17l-119 164q-4 4 -8 4t-6 -4l-121 -164q-12 -16 -33 -17h-66q-22 1 -22 17z" />
<glyph unicode="&#xeb;" horiz-adv-x="1093" d="M133 522q0 88 3 140.5t16 97.5q35 133 140 213t255 80q178 0 279.5 -92.5t129.5 -260.5q12 -66 13 -204q0 -27 -27 -27h-655q-10 0 -11 -10q0 -102 13 -150q23 -92 95.5 -146t182.5 -54q92 2 159 41.5t103 111.5q4 10 14.5 14.5t20.5 -2.5l60 -32q25 -14 12 -35 q-49 -102 -147.5 -162.5t-233.5 -60.5q-143 0 -241.5 67.5t-141.5 188.5q-39 102 -39 282zM276 594q0 -10 11 -10h526q10 0 10 10q-4 90 -12 131q-23 92 -91.5 146.5t-172.5 54.5q-103 0 -168.5 -52.5t-85.5 -140.5q-12 -41 -17 -139zM276 1339q0 41 28 68.5t71 27.5 q41 0 67.5 -27.5t26.5 -68.5t-26.5 -67.5t-67.5 -26.5q-43 0 -71 26.5t-28 67.5zM622 1339q0 41 27 68.5t70 27.5t69.5 -27.5t26.5 -68.5t-26.5 -67.5t-69.5 -26.5t-70 26.5t-27 67.5z" />
<glyph unicode="&#xec;" horiz-adv-x="452" d="M9 1447q0 16 20 17h88q20 0 31 -19l117 -211q4 -12 4 -14q0 -8 -6.5 -13t-16.5 -5h-72q-18 0 -30 18l-131 211q-4 6 -4 16zM152 27v983q0 27 26 26h92q27 0 27 -26v-983q0 -27 -27 -27h-92q-26 0 -26 27z" />
<glyph unicode="&#xed;" horiz-adv-x="452" d="M140 1211q-5 9 3 23l117 211q8 18 31 19h88q20 0 20 -17q0 -10 -4 -16l-131 -211q-12 -18 -31 -18h-71q-17 0 -22 9zM152 27v983q0 27 26 26h92q27 0 27 -26v-983q0 -27 -27 -27h-92q-26 0 -26 27z" />
<glyph unicode="&#xee;" horiz-adv-x="452" d="M-29 1204q0 8 6 16l160 209q10 16 33 16h96q23 0 33 -16l161 -209q6 -8 7 -16q0 -16 -23 -17h-65q-20 0 -33 17l-119 164q-4 4 -8 4t-6 -4l-121 -164q-12 -16 -33 -17h-66q-22 1 -22 17zM152 27v983q0 27 26 26h92q27 0 27 -26v-983q0 -27 -27 -27h-92q-26 0 -26 27z" />
<glyph unicode="&#xef;" horiz-adv-x="587" d="M20 1343q0 41 28 68.5t71 27.5q41 0 67.5 -27.5t26.5 -68.5t-26.5 -67.5t-67.5 -26.5q-43 0 -71 26.5t-28 67.5zM226 27v983q0 27 26 26h92q27 0 27 -26v-983q0 -27 -27 -27h-92q-26 0 -26 27zM366 1343q0 41 27 68.5t70 27.5t69.5 -27.5t26.5 -68.5t-26.5 -67.5 t-69.5 -26.5t-70 26.5t-27 67.5z" />
<glyph unicode="&#xf0;" horiz-adv-x="1077" d="M121 500q0 86 5 141t17 100q27 100 105 167t188 77q35 6 72 6q66 0 128 -17.5t103 -47.5q4 -4 6.5 -3t-0.5 7q-39 121 -133 237q-8 8 -14 4l-180 -53q-4 -2 -12 -2q-14 0 -21 21l-10 34l-2 11q0 16 20 22l137 39q10 4 5 14q-49 53 -152 144q-10 8 -10 18q0 14 22 15h101 q18 0 32 -15q86 -82 129 -129q8 -8 15 -4l151 45q4 2 13 2q18 0 20 -20l10 -35l2 -8q0 -18 -20 -25l-107 -31q-12 -4 -6 -12q80 -98 130 -211.5t63 -263.5q14 -92 14 -227q0 -94 -4 -147.5t-16 -96.5q-37 -123 -141.5 -197.5t-250.5 -74.5q-143 0 -246.5 74.5t-140.5 197.5 q-14 45 -18 100.5t-4 143.5zM268 496q0 -154 15 -201q18 -88 84.5 -142.5t162.5 -54.5t164 54.5t88 142.5q13 49 13 201q0 150 -13 196q-20 88 -87.5 142.5t-164.5 54.5q-96 0 -162.5 -53.5t-86.5 -143.5q-12 -49 -13 -196z" />
<glyph unicode="&#xf1;" horiz-adv-x="1103" d="M164 27v983q0 27 26 26h93q27 0 26 -26v-76q0 -6 4 -9t6 3q90 123 275 123q162 0 259 -96.5t97 -258.5v-669q0 -27 -26 -27h-93q-27 0 -26 27v641q0 115 -67.5 185.5t-176.5 70.5q-104 0 -173 -59.5t-79 -155.5v-682q0 -27 -26 -27h-93q-27 0 -26 27zM293.5 1282 q-2.5 10 3.5 21q61 102 164 102q33 0 59.5 -11.5t65.5 -35.5q35 -23 56.5 -33t43.5 -10q59 0 97 55q14 20 37 8l30 -18q12 -8 13 -21q0 -12 -13 -30q-33 -49 -77 -73t-85 -24q-34 0 -64 13.5t-62 36.5q-33 23 -51.5 32t-41.5 9q-31 0 -52 -10.5t-44 -39.5q-14 -14 -22 -14 t-17 6l-28 21q-10 6 -12.5 16z" />
<glyph unicode="&#xf2;" horiz-adv-x="1118" d="M131 520q0 156 27 250q41 131 146.5 207t256.5 76q147 0 253 -76t144 -205q29 -98 29 -252q0 -158 -29 -252q-41 -133 -146 -208.5t-251 -75.5q-149 0 -254.5 75.5t-146.5 208.5q-29 94 -29 252zM279 518q0 -147 16 -207q23 -92 93.5 -146t172.5 -54q98 0 168 54t94 146 q16 66 17 207q0 147 -17 207q-23 92 -93.5 146.5t-172.5 54.5q-98 0 -168 -54.5t-94 -146.5q-16 -59 -16 -207zM344 1443q0 16 20 17h88q20 0 31 -19l117 -211q4 -12 4 -14q0 -8 -6.5 -13t-16.5 -5h-72q-18 0 -30 18l-131 211q-4 6 -4 16z" />
<glyph unicode="&#xf3;" horiz-adv-x="1118" d="M131 520q0 156 27 250q41 131 146.5 207t256.5 76q147 0 253 -76t144 -205q29 -98 29 -252q0 -158 -29 -252q-41 -133 -146 -208.5t-251 -75.5q-149 0 -254.5 75.5t-146.5 208.5q-29 94 -29 252zM279 518q0 -147 16 -207q23 -92 93.5 -146t172.5 -54q98 0 168 54t94 146 q16 66 17 207q0 147 -17 207q-23 92 -93.5 146.5t-172.5 54.5q-98 0 -168 -54.5t-94 -146.5q-16 -59 -16 -207zM476 1207q-5 9 3 23l117 211q8 18 31 19h88q20 0 20 -17q0 -10 -4 -16l-131 -211q-12 -18 -31 -18h-71q-17 0 -22 9z" />
<glyph unicode="&#xf4;" horiz-adv-x="1118" d="M131 520q0 156 27 250q41 131 146.5 207t256.5 76q147 0 253 -76t144 -205q29 -98 29 -252q0 -158 -29 -252q-41 -133 -146 -208.5t-251 -75.5q-149 0 -254.5 75.5t-146.5 208.5q-29 94 -29 252zM279 518q0 -147 16 -207q23 -92 93.5 -146t172.5 -54q98 0 168 54t94 146 q16 66 17 207q0 147 -17 207q-23 92 -93.5 146.5t-172.5 54.5q-98 0 -168 -54.5t-94 -146.5q-16 -59 -16 -207zM307 1200q0 8 6 16l160 209q10 16 33 16h96q23 0 33 -16l161 -209q6 -8 7 -16q0 -16 -23 -17h-65q-20 0 -33 17l-119 164q-4 4 -8 4t-6 -4l-121 -164 q-12 -16 -33 -17h-66q-22 1 -22 17z" />
<glyph unicode="&#xf5;" horiz-adv-x="1118" d="M131 520q0 156 27 250q41 131 146.5 207t256.5 76q147 0 253 -76t144 -205q29 -98 29 -252q0 -158 -29 -252q-41 -133 -146 -208.5t-251 -75.5q-149 0 -254.5 75.5t-146.5 208.5q-29 94 -29 252zM279 518q0 -147 16 -207q23 -92 93.5 -146t172.5 -54q98 0 168 54t94 146 q16 66 17 207q0 147 -17 207q-23 92 -93.5 146.5t-172.5 54.5q-98 0 -168 -54.5t-94 -146.5q-16 -59 -16 -207zM295.5 1298q-2.5 10 3.5 21q61 102 164 102q33 0 59.5 -11.5t65.5 -35.5q35 -23 56.5 -33t43.5 -10q59 0 97 55q14 20 37 8l30 -18q12 -8 13 -21q0 -12 -13 -30 q-33 -49 -77 -73t-85 -24q-34 0 -64 13.5t-62 36.5q-33 23 -51.5 32t-41.5 9q-31 0 -52 -10.5t-44 -39.5q-14 -14 -22 -14t-17 6l-28 21q-10 6 -12.5 16z" />
<glyph unicode="&#xf6;" horiz-adv-x="1118" d="M131 520q0 156 27 250q41 131 146.5 207t256.5 76q147 0 253 -76t144 -205q29 -98 29 -252q0 -158 -29 -252q-41 -133 -146 -208.5t-251 -75.5q-149 0 -254.5 75.5t-146.5 208.5q-29 94 -29 252zM279 518q0 -147 16 -207q23 -92 93.5 -146t172.5 -54q98 0 168 54t94 146 q16 66 17 207q0 147 -17 207q-23 92 -93.5 146.5t-172.5 54.5q-98 0 -168 -54.5t-94 -146.5q-16 -59 -16 -207zM288 1339q0 41 28 68.5t71 27.5q41 0 67.5 -27.5t26.5 -68.5t-26.5 -67.5t-67.5 -26.5q-43 0 -71 26.5t-28 67.5zM634 1339q0 41 27 68.5t70 27.5t69.5 -27.5 t26.5 -68.5t-26.5 -67.5t-69.5 -26.5t-70 26.5t-27 67.5z" />
<glyph unicode="&#xf7;" horiz-adv-x="1024" d="M80 629v73q0 27 26 27h812q27 0 26 -27v-73q0 -27 -26 -27h-812q-26 0 -26 27zM403 358q0 43 32 75t75 32t75.5 -32t32.5 -75t-32.5 -74.5t-75.5 -31.5q-45 0 -76 30.5t-31 75.5zM403 1010q0 43 32 73.5t75 30.5t75.5 -30.5t32.5 -73.5q0 -45 -32.5 -77t-75.5 -32 q-45 0 -76 32t-31 77z" />
<glyph unicode="&#xf8;" horiz-adv-x="1130" d="M139 2q0 8 6 16l82 121q4 8 -2 15q-31 47 -53 114q-29 94 -29 252q0 156 27 250q41 131 146.5 207t256.5 76q117 0 213 -52q8 -2 15 5l57 88q6 12 19 12q8 0 18 -6l55 -39q12 -8 13 -21q0 -6 -7 -16l-63 -94q-4 -8 2 -15q53 -66 76 -143q28 -98 28 -252q0 -158 -28 -252 q-41 -133 -146.5 -208.5t-251.5 -75.5q-143 0 -247 69q-8 4 -15 -2l-67 -102q-6 -12 -19 -12q-8 0 -18 6l-55 39q-12 8 -13 20zM291 518q0 -147 16 -207l4 -18q2 -6 6.5 -6t8.5 4l389 588q4 4 2 7t-6 5q-63 35 -142 35q-98 0 -167.5 -54.5t-94.5 -146.5q-16 -59 -16 -207z M397 180q-8 -8 2 -14q72 -55 174 -55q98 0 168 54t95 146q16 66 16 207q0 147 -16 207q-6 31 -23 61q-8 12 -14 0z" />
<glyph unicode="&#xf9;" horiz-adv-x="1097" d="M147 324v686q0 27 27 26h92q27 0 27 -26v-643q0 -117 65.5 -185.5t178.5 -68.5q117 0 185.5 69.5t68.5 184.5v643q-1 26 26 26h92q27 0 27 -26v-983q0 -27 -27 -27h-92q-27 0 -26 27v77q0 6 -4.5 8.5t-8.5 -3.5q-88 -123 -270 -123q-98 0 -181 40t-131.5 115.5 t-48.5 182.5zM332 1427q0 16 20 17h88q20 0 31 -19l117 -211q4 -12 4 -14q0 -8 -6.5 -13t-16.5 -5h-72q-18 0 -30 18l-131 211q-4 6 -4 16z" />
<glyph unicode="&#xfa;" horiz-adv-x="1097" d="M147 324v686q0 27 27 26h92q27 0 27 -26v-643q0 -117 65.5 -185.5t178.5 -68.5q117 0 185.5 69.5t68.5 184.5v643q-1 26 26 26h92q27 0 27 -26v-983q0 -27 -27 -27h-92q-27 0 -26 27v77q0 6 -4.5 8.5t-8.5 -3.5q-88 -123 -270 -123q-98 0 -181 40t-131.5 115.5 t-48.5 182.5zM464 1191q-5 9 3 23l117 211q8 18 31 19h88q20 0 20 -17q0 -10 -4 -16l-131 -211q-12 -18 -31 -18h-71q-17 0 -22 9z" />
<glyph unicode="&#xfb;" horiz-adv-x="1097" d="M147 324v686q0 27 27 26h92q27 0 27 -26v-643q0 -117 65.5 -185.5t178.5 -68.5q117 0 185.5 69.5t68.5 184.5v643q-1 26 26 26h92q27 0 27 -26v-983q0 -27 -27 -27h-92q-27 0 -26 27v77q0 6 -4.5 8.5t-8.5 -3.5q-88 -123 -270 -123q-98 0 -181 40t-131.5 115.5 t-48.5 182.5zM295 1184q0 8 6 16l160 209q10 16 33 16h96q23 0 33 -16l161 -209q6 -8 7 -16q0 -16 -23 -17h-65q-20 0 -33 17l-119 164q-4 4 -8 4t-6 -4l-121 -164q-12 -16 -33 -17h-66q-22 1 -22 17z" />
<glyph unicode="&#xfc;" horiz-adv-x="1097" d="M147 324v686q0 27 27 26h92q27 0 27 -26v-643q0 -117 65.5 -185.5t178.5 -68.5q117 0 185.5 69.5t68.5 184.5v643q-1 26 26 26h92q27 0 27 -26v-983q0 -27 -27 -27h-92q-27 0 -26 27v77q0 6 -4.5 8.5t-8.5 -3.5q-88 -123 -270 -123q-98 0 -181 40t-131.5 115.5 t-48.5 182.5zM276 1323q0 41 28 68.5t71 27.5q41 0 67.5 -27.5t26.5 -68.5t-26.5 -67.5t-67.5 -26.5q-43 0 -71 26.5t-28 67.5zM622 1323q0 41 27 68.5t70 27.5t69.5 -27.5t26.5 -68.5t-26.5 -67.5t-69.5 -26.5t-70 26.5t-27 67.5z" />
<glyph unicode="&#xfd;" horiz-adv-x="944" d="M53 1016q0 8 7.5 14t17.5 6h96q25 0 31 -22l264 -803q2 -8 6 -8t6 8l258 803q6 23 29 22h98q14 0 20.5 -8t2.5 -22l-377 -1096q-49 -137 -92 -202.5t-107.5 -91.5t-181.5 -26h-14q-15 0 -15 27v72q0 27 15 26h14q80 0 124 22.5t75.5 80t68.5 176.5q2 4 0 12l-344 1000 q-2 4 -2 10zM390 1199q-5 9 3 23l117 211q8 18 31 19h88q20 0 20 -17q0 -10 -4 -16l-131 -211q-12 -18 -31 -18h-71q-17 0 -22 9z" />
<glyph unicode="&#xfe;" horiz-adv-x="1097" d="M164 -383v1790q0 27 26 27h93q27 0 26 -27v-459q0 -6 4 -8t9 2q94 111 249 111q145 0 243.5 -75t135.5 -206q25 -84 25 -254q0 -168 -29 -260q-37 -127 -134 -200.5t-241 -73.5q-154 0 -249 112q-4 4 -8.5 2t-4.5 -8v-473q0 -27 -26 -27h-93q-27 0 -26 27zM309 379 q8 -68 29 -111q27 -72 82 -114.5t137 -42.5q86 0 148.5 43t87.5 116q20 43 28 97.5t8 150.5q0 100 -11 156.5t-36 101.5q-27 68 -86 109t-141 41q-78 0 -134 -42t-81 -112q-23 -51 -31 -119v-274z" />
<glyph unicode="&#xff;" horiz-adv-x="944" d="M53 1016q0 8 7.5 14t17.5 6h96q25 0 31 -22l264 -803q2 -8 6 -8t6 8l258 803q6 23 29 22h98q14 0 20.5 -8t2.5 -22l-377 -1096q-49 -137 -92 -202.5t-107.5 -91.5t-181.5 -26h-14q-15 0 -15 27v72q0 27 15 26h14q80 0 124 22.5t75.5 80t68.5 176.5q2 4 0 12l-344 1000 q-2 4 -2 10zM202 1331q0 41 28 68.5t71 27.5q41 0 67.5 -27.5t26.5 -68.5t-26.5 -67.5t-67.5 -26.5q-43 0 -71 26.5t-28 67.5zM548 1331q0 41 27 68.5t70 27.5t69.5 -27.5t26.5 -68.5t-26.5 -67.5t-69.5 -26.5t-70 26.5t-27 67.5z" />
<glyph unicode="&#x152;" horiz-adv-x="1884" d="M147 428v576q0 129 55.5 230t153 158.5t219.5 57.5q100 0 186.5 -36t147.5 -101q4 -6 8.5 -4t4.5 8v90q0 27 26 27h791q27 0 26 -27v-74q1 -26 -26 -26h-662q-10 0 -10 -11v-501q0 -10 10 -11h436q27 0 27 -26v-74q0 -27 -27 -27h-436q-10 0 -10 -10v-510q0 -10 10 -10 h662q27 0 26 -27v-73q0 -27 -26 -27h-791q-27 0 -26 27v90q0 6 -4.5 8t-8.5 -4q-61 -66 -147 -101.5t-187 -35.5q-123 0 -220 57t-152.5 157.5t-55.5 229.5zM293 424q0 -137 87 -226t226 -89q142 0 229 89t87 226v582q0 139 -87 228t-229 89q-139 0 -226 -89t-87 -228v-582z " />
<glyph unicode="&#x153;" horiz-adv-x="1757" d="M131 520q0 94 4 150.5t17 101.5q35 127 139 204t248 77q104 0 192 -47.5t146 -128.5q6 -8 12 0q55 82 141 129t191 47q145 0 251.5 -79t141.5 -204q10 -41 15 -98.5t5 -167.5q0 -29 -26 -29h-639q-10 0 -11 -10q0 -115 13 -154q20 -94 92 -148t182 -54q82 0 148.5 39.5 t101.5 107.5q4 12 14.5 15t20.5 -3l57 -35q20 -14 10 -36q-51 -98 -146 -155.5t-222 -57.5q-111 0 -199 47t-141 129q-6 10 -12 0q-55 -80 -143.5 -128t-194.5 -48q-143 0 -247 76.5t-140 205.5q-12 49 -16.5 106.5t-4.5 147.5zM276 520q0 -150 15 -209q18 -90 84.5 -145 t163.5 -55q98 0 165.5 55t86.5 145q12 51 12 209q0 156 -12 205q-18 90 -86 145.5t-166 55.5q-96 0 -163 -55.5t-87 -145.5q-12 -51 -13 -205zM958 588q0 -10 11 -10h508q10 0 10 10q-4 106 -10 137q-20 90 -89 145.5t-167 55.5q-99 0 -165.5 -55.5t-84.5 -145.5 q-8 -33 -13 -137z" />
<glyph unicode="&#x178;" horiz-adv-x="1161" d="M80 1415q0 8 6 13.5t16 5.5h99q23 0 30 -19l342 -618q6 -8 13 0l344 618q10 18 31 19h98q16 0 21 -9.5t-3 -23.5l-420 -760q-4 -8 -4 -12v-600q0 -27 -26 -27h-92q-27 0 -27 27v600q0 4 -4 12l-420 760q-4 12 -4 14zM311 1718q0 41 28 68.5t71 27.5q41 0 67.5 -27.5 t26.5 -68.5t-26.5 -67.5t-67.5 -26.5q-43 0 -71 26.5t-28 67.5zM657 1718q0 41 27 68.5t70 27.5t69.5 -27.5t26.5 -68.5t-26.5 -67.5t-69.5 -26.5t-70 26.5t-27 67.5z" />
<glyph unicode="&#x2c6;" horiz-adv-x="532" d="M18 1184q0 8 6 16l160 209q10 16 33 16h96q23 0 33 -16l161 -209q6 -8 7 -16q0 -16 -23 -17h-65q-20 0 -33 17l-119 164q-4 4 -8 4t-6 -4l-121 -164q-12 -16 -33 -17h-66q-22 1 -22 17z" />
<glyph unicode="&#x2dc;" horiz-adv-x="702" d="M67.5 1282q-2.5 10 3.5 21q61 102 164 102q33 0 59.5 -11.5t65.5 -35.5q35 -23 56.5 -33t43.5 -10q59 0 97 55q14 20 37 8l30 -18q12 -8 13 -21q0 -12 -13 -30q-33 -49 -77 -73t-85 -24q-34 0 -64 13.5t-62 36.5q-33 23 -51.5 32t-41.5 9q-31 0 -52 -10.5t-44 -39.5 q-14 -14 -22 -14t-17 6l-28 21q-10 6 -12.5 16z" />
<glyph unicode="&#x2000;" horiz-adv-x="991" />
<glyph unicode="&#x2001;" horiz-adv-x="1982" />
<glyph unicode="&#x2002;" horiz-adv-x="991" />
<glyph unicode="&#x2003;" horiz-adv-x="1982" />
<glyph unicode="&#x2004;" horiz-adv-x="660" />
<glyph unicode="&#x2005;" horiz-adv-x="495" />
<glyph unicode="&#x2006;" horiz-adv-x="330" />
<glyph unicode="&#x2007;" horiz-adv-x="330" />
<glyph unicode="&#x2008;" horiz-adv-x="247" />
<glyph unicode="&#x2009;" horiz-adv-x="396" />
<glyph unicode="&#x200a;" horiz-adv-x="110" />
<glyph unicode="&#x2010;" horiz-adv-x="806" d="M80 600v74q0 27 26 26h594q27 0 27 -26v-74q0 -27 -27 -27h-594q-26 0 -26 27z" />
<glyph unicode="&#x2011;" horiz-adv-x="806" d="M80 600v74q0 27 26 26h594q27 0 27 -26v-74q0 -27 -27 -27h-594q-26 0 -26 27z" />
<glyph unicode="&#x2012;" horiz-adv-x="806" d="M80 600v74q0 27 26 26h594q27 0 27 -26v-74q0 -27 -27 -27h-594q-26 0 -26 27z" />
<glyph unicode="&#x2013;" horiz-adv-x="921" d="M80 541v75q0 27 26 27h709q27 0 27 -27v-75q0 -27 -27 -27h-709q-26 0 -26 27z" />
<glyph unicode="&#x2014;" horiz-adv-x="1402" d="M80 543v73q0 27 26 27h1190q27 0 27 -27v-73q0 -27 -27 -27h-1190q-26 0 -26 27z" />
<glyph unicode="&#x2018;" horiz-adv-x="286" d="M12 1044l148 369q8 20 30 21h64q14 0 20.5 -8.5t1.5 -22.5l-118 -367q-6 -23 -29 -22h-96q-15 0 -20 8t-1 22z" />
<glyph unicode="&#x2019;" horiz-adv-x="286" d="M10 1044l119 367q6 23 29 23h96q14 0 19.5 -8.5t0.5 -22.5l-147 -369q-8 -20 -31 -20h-63q-14 0 -20.5 8t-2.5 22z" />
<glyph unicode="&#x201a;" horiz-adv-x="1228" d="M139 -133l88 426q6 25 29 24h78q29 0 22 -28l-110 -428q-6 -23 -31 -23h-51q-14 0 -20.5 7.5t-4.5 21.5z" />
<glyph unicode="&#x201c;" horiz-adv-x="546" d="M12 1044l140 369q8 20 30 21h62q14 0 20 -8.5t2 -22.5l-112 -367q-6 -23 -29 -22h-92q-15 0 -20 8t-1 22zM285 1044l139 369q8 20 31 21h61q14 0 20.5 -8.5t2.5 -22.5l-113 -367q-6 -23 -29 -22h-92q-14 0 -19 8t-1 22z" />
<glyph unicode="&#x201d;" horiz-adv-x="546" d="M8 1044l113 367q6 23 29 23h92q14 0 19 -8.5t1 -22.5l-139 -369q-8 -20 -31 -20h-61q-14 0 -20.5 8t-2.5 22zM281 1044l112 367q6 23 29 23h92q14 0 19.5 -8.5t1.5 -22.5l-140 -369q-8 -20 -30 -20h-62q-14 0 -20.5 8t-1.5 22z" />
<glyph unicode="&#x201e;" horiz-adv-x="563" d="M8 -127l113 367q6 23 29 23h92q14 0 19 -8.5t1 -22.5l-139 -369q-8 -20 -31 -20h-61q-14 0 -20.5 8t-2.5 22zM281 -127l112 367q6 23 29 23h92q14 0 19.5 -8.5t1.5 -22.5l-140 -369q-8 -20 -30 -20h-62q-14 0 -20.5 8t-1.5 22z" />
<glyph unicode="&#x2022;" horiz-adv-x="632" d="M80 547q0 98 69.5 166.5t167.5 68.5q96 0 166 -68.5t70 -166.5q0 -96 -69.5 -167t-166.5 -71q-98 0 -167.5 71t-69.5 167z" />
<glyph unicode="&#x2026;" horiz-adv-x="1619" d="M150 127q0 49 37.5 85t88.5 36q49 0 88 -36t39 -85q0 -51 -36.5 -86t-90.5 -35q-55 0 -90.5 35t-35.5 86zM685 127q0 49 37.5 85t88.5 36q49 0 88 -36t39 -85q0 -51 -36.5 -86t-90.5 -35q-55 0 -90.5 35t-35.5 86zM1209 127q0 49 37.5 85t88.5 36q49 0 88 -36t39 -85 q0 -51 -36.5 -86t-90.5 -35q-55 0 -90.5 35t-35.5 86z" />
<glyph unicode="&#x202f;" horiz-adv-x="396" />
<glyph unicode="&#x2039;" horiz-adv-x="743" d="M131 575q0 6 8 19l252 321q10 16 33 17h86q23 0 22 -17q0 -6 -6 -16l-247 -315q-6 -8 0 -17l247 -315q6 -8 6 -16q0 -16 -22 -17h-86q-23 0 -33 17l-252 321q-8 12 -8 18z" />
<glyph unicode="&#x203a;" horiz-adv-x="804" d="M211 236q0 8 6 16l248 315q6 8 0 17l-248 315q-6 10 -6 16q0 16 22 17h86q23 0 33 -17l252 -321q8 -8 8 -19q0 -10 -8 -18l-252 -321q-10 -16 -33 -17h-86q-22 1 -22 17z" />
<glyph unicode="&#x205f;" horiz-adv-x="495" />
<glyph unicode="&#x20ac;" horiz-adv-x="1302" d="M147 580v34q0 27 27 27h135q10 0 10 10v127q0 10 -10 10h-135q-27 0 -27 27v35q0 27 27 27h135q10 0 10 10v153q0 186 117 298t309 112q172 0 286 -91t136 -245v-4q0 -23 -24 -27l-92 -12h-4q-20 0 -25 23q-16 104 -90 166.5t-187 62.5q-127 0 -203.5 -77t-76.5 -202 v-157q0 -10 10 -10h486q14 0 20 -8.5t2 -22.5l-12 -37q-6 -20 -31 -21h-465q-10 0 -10 -10v-127q0 -10 10 -10h416q14 0 20.5 -8t1.5 -23l-12 -37q-6 -20 -31 -20h-395q-10 0 -10 -10v-154q0 -125 76.5 -201.5t203.5 -76.5q113 0 187 61t90 166q4 29 29 22l92 -16 q27 -6 20 -31q-23 -152 -135.5 -241.5t-282.5 -89.5q-127 0 -224 51t-149.5 145t-52.5 217v148q0 10 -10 10h-135q-27 0 -27 27z" />
<glyph unicode="&#x2122;" horiz-adv-x="1347" d="M45 1380v27q0 27 27 27h460q27 0 27 -27v-27q0 -27 -27 -26h-180q-10 0 -10 -11v-602q0 -27 -27 -26h-36q-27 0 -27 26v602q0 10 -10 11h-170q-27 -1 -27 26zM705 741v666q0 27 26 27h43q23 0 33 -17l164 -250q6 -12 14 0l164 250q10 17 33 17h41q27 0 26 -27v-666 q0 -27 -26 -26h-37q-27 0 -27 26v523q0 6 -5 8t-7 -4l-135 -205q-10 -16 -33 -16h-2q-23 0 -33 16l-135 205q-2 6 -7 4t-5 -8v-523q0 -27 -27 -26h-39q-27 0 -26 26z" />
<glyph unicode="&#x25fc;" horiz-adv-x="1034" d="M0 0v1034h1034v-1034h-1034z" />
</font>
</defs>
</svg>
