<?xml version="1.0" standalone="no"?>
<!DOCTYPE svg PUBLIC "-//W3C//DTD SVG 1.1//EN" "http://www.w3.org/Graphics/SVG/1.1/DTD/svg11.dtd" >
<svg xmlns="http://www.w3.org/2000/svg" xmlns:xlink="http://www.w3.org/1999/xlink" version="1.1">
<metadata></metadata>
<defs>
<font id="barlowextralight_italic" horiz-adv-x="1060" >
<font-face units-per-em="2048" ascent="1638" descent="-410" />
<missing-glyph horiz-adv-x="397" />
<glyph horiz-adv-x="0" />
<glyph unicode="&#xd;" horiz-adv-x="397" />
<glyph unicode=" "  horiz-adv-x="397" />
<glyph unicode="&#x09;" horiz-adv-x="397" />
<glyph unicode="&#xa0;" horiz-adv-x="397" />
<glyph unicode="!" horiz-adv-x="620" d="M182 94q0 45 33 77t74 32q35 0 60.5 -24.5t25.5 -61.5q0 -43 -33 -76t-76 -33q-37 0 -60.5 24.5t-23.5 61.5zM293 477l110 936q4 20 23 21h39q8 0 13 -6.5t3 -14.5l-119 -936q-2 -20 -22 -20h-29q-20 0 -18 20z" />
<glyph unicode="&#x22;" horiz-adv-x="434" d="M168 1036l35 363q4 20 22 20h45q8 0 13.5 -6t3.5 -14l-54 -363q-2 -20 -22 -20h-25q-18 0 -18 20zM377 1036l37 363q4 20 22 20h41q10 0 15.5 -6t3.5 -14l-54 -363q-2 -20 -22 -20h-25q-20 0 -18 20z" />
<glyph unicode="#" horiz-adv-x="1286" d="M182 453l6 30q2 20 23 21h141q10 0 10 8l103 383q2 2 0 5t-4 3h-131q-18 0 -19 21l6 30q2 20 23 21h141q10 0 11 8l104 383q6 18 22 18l39 -2q8 0 12.5 -7t2.5 -15l-103 -377q0 -8 6 -8h369q10 0 10 8l105 383q6 18 22 18l39 -2q8 0 12.5 -7t2.5 -15l-103 -377q0 -8 6 -8 h140q10 0 15 -6t3 -15l-6 -30q-3 -21 -23 -21h-149q-10 0 -10 -8l-105 -383q0 -8 4 -8h142q10 0 15 -6t3 -15l-6 -30q-2 -20 -23 -21h-149q-10 0 -10 -8l-105 -381q-6 -18 -22 -18l-37 2q-8 0 -13.5 6t-3.5 16l103 375q0 8 -4 8h-371q-10 0 -10 -8l-105 -381q-6 -18 -22 -18 l-37 2q-8 0 -13.5 6t-2.5 16l102 375q0 8 -4 8h-133q-10 0 -15.5 6t-3.5 15zM440 512q0 -8 4 -8h371q10 0 10 8l103 383q2 2 0 5t-4 3h-369q-10 0 -10 -8z" />
<glyph unicode="$" horiz-adv-x="1079" d="M129 289q0 14 4 51l10 78q0 8 6.5 14t16.5 6h33q18 0 18 -20l-8 -66q-2 -14 -2 -43q0 -117 83 -185.5t232 -68.5q154 0 248 76t111 207q2 12 2 37q0 70 -38 125t-107.5 103t-198.5 120q-113 59 -171.5 100t-91 95.5t-32.5 132.5q0 16 4 57q18 154 113.5 241t254.5 99 q6 0 11 8l16 143q4 20 23 21h22q20 0 17 -21l-17 -141q-4 -8 6 -8q170 -6 259 -87t89 -220q0 -16 -4 -53l-8 -56q0 -8 -6 -14t-16 -6h-37q-20 0 -17 20l4 43q2 16 3 47q0 117 -78 185.5t-226 68.5q-145 0 -231 -68.5t-100 -197.5q-2 -14 -2 -41q0 -70 34.5 -117t90 -80.5 t184.5 -99.5q172 -88 251 -173t79 -206q0 -178 -117 -291.5t-320 -119.5q-8 0 -8 -9l-16 -131q-4 -20 -23 -20h-24q-20 0 -17 20l19 133q0 8 -8 9q-152 14 -236 94t-84 209z" />
<glyph unicode="%" horiz-adv-x="1703" d="M319 1143q0 82 43.5 154.5t114 114.5t150.5 42q102 0 170.5 -69.5t68.5 -172.5q0 -84 -43 -155.5t-114.5 -114.5t-149.5 -43q-104 0 -172 69.5t-68 174.5zM379 1149q0 -82 53 -136.5t135 -54.5q62 0 117 34t89 90.5t34 121.5q0 82 -52.5 136.5t-133.5 54.5 q-63 0 -119 -34t-89.5 -90.5t-33.5 -121.5zM404.5 7q-3.5 7 3.5 18l925 1394q10 14 25 15h22q12 0 15.5 -7.5t-4.5 -17.5l-922 -1395q-10 -14 -27 -14h-22q-12 0 -15.5 7zM940 223q0 82 42 154t112.5 115t150.5 43q104 0 172 -70t68 -172q0 -84 -43 -155.5t-114 -114.5 t-150 -43q-105 0 -171.5 69.5t-66.5 173.5zM997 227q0 -82 53.5 -135t135.5 -53q63 0 118.5 33.5t88 92t32.5 124.5q0 80 -53 133t-133 53q-63 0 -118.5 -33.5t-89.5 -91t-34 -123.5z" />
<glyph unicode="&#x26;" horiz-adv-x="1275" d="M123 252q0 115 50 206t128 158.5t193 145.5q6 2 2 10q-90 135 -124 208t-34 134q0 27 2 39q16 133 108.5 215t227.5 82q129 0 204.5 -66.5t75.5 -179.5q0 -96 -47 -175t-117.5 -138.5t-181.5 -134.5q-8 -2 -2 -11q100 -152 172 -256q14 -20 26.5 -37.5t22.5 -33.5 q59 -86 72 -107q4 -10 10 0q61 68 158 181q16 16 29 6l26 -19q14 -10 2 -28q-106 -125 -176 -199l-2 -4q0 -6 10 -21l138 -202l4 -11q0 -6 -5 -10t-14 -4h-47q-12 0 -22 12l-115 170q-2 4 -6 3t-6 -3q-111 -106 -208 -152t-218 -46q-156 0 -246 69.5t-90 198.5zM203 268 q0 -102 71.5 -157.5t196.5 -55.5q104 0 189 43t184 144q8 8 2 12l-135 203l-86 123l-82 120q-2 6 -11 2q-106 -74 -173.5 -133t-111.5 -134t-44 -167zM416 1122q0 -47 29.5 -111.5t113.5 -193.5q6 -6 12 -2q154 104 231 186t77 191q0 84 -56.5 133t-150.5 49 q-103 0 -172.5 -58.5t-81.5 -162.5q-2 -10 -2 -31z" />
<glyph unicode="'" horiz-adv-x="229" d="M170 1049l35 358q4 20 22 20h45q18 0 19 -20l-55 -358q-2 -20 -23 -21h-25q-20 1 -18 21z" />
<glyph unicode="(" horiz-adv-x="438" d="M12 391q0 125 17 268q33 254 117.5 497t193.5 396q8 14 25 15h32q12 0 15.5 -7.5t-2.5 -17.5q-100 -156 -180 -394.5t-111 -483.5q-16 -125 -17 -283q0 -172 24 -323.5t69 -258.5l2 -8q0 -16 -21 -16h-37q-16 0 -22 14q-49 111 -77 267.5t-28 334.5z" />
<glyph unicode=")" horiz-adv-x="438" d="M112 -218q-3 7 5 17q98 152 177 386.5t109 478.5q18 147 19 290q0 172 -24.5 326t-67.5 262l-2 8q0 16 20 17h31q16 0 22 -15q51 -113 80 -272.5t29 -339.5q0 -139 -18 -281q-31 -248 -113 -483t-189 -387q-8 -14 -24 -14h-39q-12 0 -15 7z" />
<glyph unicode="*" horiz-adv-x="786" d="M158 999q0 14 12 21l256 141q4 2 4 6t-2 7l-221 141q-6 4 -8 12t4 16l10 17q4 8 12 10t17 -2l223 -143q4 -2 7 0t3 6l35 278q0 8 6 14.5t16 6.5h19q18 0 18 -21l-34 -278q0 -10 8 -6l260 143q4 2 10 2q12 0 18 -10l5 -17q2 -2 2 -8q0 -14 -13 -20l-258 -141 q-4 -2 -4 -6.5t2 -6.5l223 -141q8 -4 9.5 -12.5t-4.5 -16.5l-11 -16q-4 -8 -12 -10t-16 2l-224 143q-4 2 -7 0t-5 -6l-33 -279q-4 -20 -22 -20h-21q-20 0 -16 20l33 279q2 4 -1 6t-7 0l-258 -143q-4 -2 -11 -2q-12 0 -16 10l-6 16q-2 2 -2 8z" />
<glyph unicode="+" horiz-adv-x="1007" d="M127 639l2 29q4 20 23 20h354q8 0 8 8l47 375q0 8 6 14.5t17 6.5h26q18 0 19 -21l-47 -375q0 -8 8 -8h354q19 0 19 -20l-5 -29q-4 -20 -22 -21h-356q-2 0 -5.5 -2t-3.5 -6l-43 -356q-4 -20 -22 -21h-29q-20 0 -16 21l43 356q0 8 -6 8h-355q-20 0 -16 21z" />
<glyph unicode="," horiz-adv-x="524" d="M103 -139q-3 6 1 16l148 420q2 8 8 13t14 5h33q25 0 15 -22l-156 -420q-6 -18 -25 -18h-24q-11 0 -14 6z" />
<glyph unicode="-" horiz-adv-x="770" d="M125 635l4 31q4 20 23 20h557q20 0 16 -20l-4 -31q0 -8 -6 -14.5t-17 -6.5h-555q-18 1 -18 21z" />
<glyph unicode="." horiz-adv-x="548" d="M145 96q0 43 34 76t75 33q37 0 62.5 -24.5t25.5 -61.5q0 -43 -35 -76t-78 -33q-36 0 -60 24.5t-24 61.5z" />
<glyph unicode="/" horiz-adv-x="628" d="M37 23l577 1394q10 16 27 17h35q10 0 15 -6.5t1 -16.5l-579 -1395q-6 -16 -25 -16h-37q-24 0 -14 23z" />
<glyph unicode="0" horiz-adv-x="1116" d="M164 309q0 18 4 60l86 696q23 176 142.5 281.5t297.5 105.5q164 0 259.5 -89t95.5 -239q0 -18 -5 -59l-86 -696q-20 -174 -143 -280.5t-301 -106.5q-162 0 -256 88t-94 239zM244 317q0 -121 74.5 -192.5t203.5 -71.5q146 0 244 85t115 227l86 704q4 33 4 49 q0 121 -77 191.5t-208 70.5q-141 0 -239.5 -86t-114.5 -225l-86 -704q-2 -16 -2 -48z" />
<glyph unicode="1" horiz-adv-x="690" d="M242 1235l2 25q2 14 16 24l254 143q13 7 27 7h45q20 0 16 -21l-170 -1393q-4 -20 -22 -20h-39q-8 0 -13.5 6t-3.5 14l160 1311q2 4 -1 6t-7 0l-244 -116l-10 -4q-6 0 -9 5t-1 13z" />
<glyph unicode="2" horiz-adv-x="1042" d="M94 20l4 35q4 16 13 25l256 297q252 291 272 315q225 262 242 412q2 14 2 39q0 109 -71 172t-191 63q-129 0 -216.5 -75.5t-101.5 -200.5l-10 -68q0 -8 -6 -14t-15 -6h-39q-20 0 -16 20l8 76q20 152 132 246t272 94q154 0 243 -81t89 -216q0 -33 -3 -49 q-20 -176 -249 -440q-182 -213 -504 -582q-6 -10 2 -10h655q10 0 15.5 -6.5t3.5 -14.5l-4 -31q-4 -20 -23 -20h-743q-21 0 -17 20z" />
<glyph unicode="3" horiz-adv-x="1001" d="M119 311q0 10 6 90q2 20 22 21h37q20 0 19 -21q-4 -53 -4 -86q0 -117 66.5 -188.5t185.5 -71.5q205 0 288 193q31 66 47 180q6 49 7 94q0 63 -15 127q-47 170 -237 170q-29 0 -54 -6q-18 -6 -24 6l-17 21q-4 8 -4 10q0 6 9 18l419 484q4 2 3 6t-5 4h-602q-20 0 -16 20 l4 31q0 8 6 14.5t14 6.5h689q18 0 18 -21l-6 -37q0 -12 -10 -26l-400 -463q-4 -4 -2 -7t8 -3q227 -2 285 -203q14 -57 14 -139q0 -49 -6 -109q-12 -106 -51 -195q-51 -121 -145.5 -184t-227.5 -63q-150 0 -235.5 91t-85.5 236z" />
<glyph unicode="4" horiz-adv-x="1044" d="M125 428l4 33q0 10 8 24l541 934q8 14 27 15h36q10 0 13.5 -7.5t-0.5 -17.5l-535 -917q-2 -4 -1 -7.5t5 -3.5h514q8 0 8 8l46 361q0 8 6 14t16 6h37q20 0 16 -20l-43 -361q0 -8 6 -8h82q21 0 17 -20l-4 -33q0 -8 -6.5 -14t-14.5 -6h-82q-6 0 -10 -9l-45 -379 q-4 -20 -23 -20h-38q-8 0 -13.5 6t-3.5 14l47 379q0 8 -8 9h-586q-20 0 -16 20z" />
<glyph unicode="5" horiz-adv-x="999" d="M152 330q0 20 20 20h39q20 0 18 -20q0 -29 2 -43q8 -104 75 -167t175 -63q113 0 197 66.5t119 181.5q16 59 22 129q10 57 10 152q0 111 -69.5 168t-186.5 57q-100 0 -183 -46t-120 -128q-2 -8 -8 -12t-14 -4h-41q-20 0 -17 20l95 772q4 20 22 21h633q10 0 15.5 -6.5 t2.5 -14.5l-4 -31q-4 -20 -22 -20h-567q-6 0 -11 -8l-73 -586q0 -4 3 -6t7 2q53 55 132 87t167 32q139 0 224 -69t93 -200q2 -78 -10 -180q-8 -84 -31 -162q-45 -133 -150.5 -210.5t-242.5 -77.5q-133 0 -217 73.5t-100 196.5q-4 27 -4 76z" />
<glyph unicode="6" horiz-adv-x="1001" d="M154 307q0 33 4 73t6 56l82 651q20 166 131.5 264.5t271.5 98.5q141 0 224 -80t83 -213q0 -14 -4 -51l-2 -14q-4 -20 -22 -21h-37q-18 0 -19 19l2 16q2 14 3 43q0 102 -64.5 165.5t-171.5 63.5q-123 0 -213 -78.5t-106 -212.5l-43 -354q0 -6 3 -7t5 3q57 82 133 118 t172 36q262 0 309 -254q8 -25 8 -80q0 -53 -8 -117q-16 -133 -43 -184q-51 -123 -145.5 -193.5t-229.5 -70.5q-154 0 -241.5 88t-87.5 235zM233 319q0 -27 3 -38q6 -98 71.5 -161t177.5 -63q102 0 185.5 56.5t117.5 167.5q25 53 35 153q8 55 8 103q0 29 -4 53 q-10 98 -75.5 159.5t-176.5 61.5q-109 0 -189.5 -61.5t-113.5 -161.5q-18 -51 -30 -156q-8 -68 -9 -113z" />
<glyph unicode="7" horiz-adv-x="919" d="M203 1264l18 149q4 20 23 21h741q20 0 16 -21l-4 -39q-4 -16 -8 -24l-631 -1334q-8 -16 -26 -16h-41q-25 0 -15 23l633 1329q2 4 0 7t-4 3h-612q-6 0 -10 -8l-11 -90q-4 -20 -22 -21h-29q-10 0 -15 6t-3 15z" />
<glyph unicode="8" horiz-adv-x="1011" d="M137 326q0 20 4 69q14 115 66 203q63 117 180 168q10 4 0 10q-78 41 -117 109q-45 74 -45 166q0 63 20.5 122.5t57.5 106.5q55 80 144.5 126t193.5 46q113 0 188.5 -46t112.5 -132q23 -57 23 -133q0 -143 -93 -256q-61 -70 -141 -107q-10 -6 -2 -10q109 -55 139 -178 q15 -49 15 -117q0 -27 -4 -80q-16 -145 -93 -254q-55 -74 -138 -114.5t-187 -40.5q-109 0 -182.5 44t-110.5 128q-31 74 -31 170zM215 328q0 -84 29 -146q57 -127 225 -127q164 0 252 121q66 88 80 221q4 27 4 74q0 53 -8 88q-20 82 -82 129t-158 49h-6q-188 0 -279 -168 q-39 -68 -53 -174q-4 -49 -4 -67zM303 1049q0 -70 31 -127q33 -56 90 -87.5t131 -33.5h8q78 2 144.5 35.5t113.5 91.5q33 41 50.5 94t17.5 106q0 66 -23 109q-27 68 -87 105.5t-150 37.5q-84 0 -155 -40t-116 -105q-55 -90 -55 -186z" />
<glyph unicode="9" horiz-adv-x="1026" d="M168 272q0 18 4 56l2 14q0 8 6 14t15 6h38q18 0 19 -16l-4 -18q-2 -12 -2 -39q0 -104 64.5 -169t172.5 -65q123 0 212 79t106 212l45 354q0 6 -3 7.5t-7 -2.5q-57 -82 -133 -118t-171 -36q-264 0 -311 254q-6 29 -6 76q0 55 8 120q12 121 41 185q53 123 147.5 193.5 t229.5 70.5q154 0 241 -89t87 -241q-1 -51 -11 -123l-79 -651q-20 -166 -132 -264t-272 -98q-141 0 -224 77.5t-83 210.5zM293 897q0 -29 4 -53q10 -98 74.5 -159.5t175.5 -61.5q110 0 191 61t112 162q10 27 18.5 66.5t14.5 88.5q8 68 8 113q0 27 -2 39q-6 98 -71.5 160.5 t-180.5 62.5q-102 0 -184 -56t-119 -167q-23 -57 -35 -154q-6 -61 -6 -102z" />
<glyph unicode=":" horiz-adv-x="649" d="M205 123q0 43 32.5 74.5t73.5 31.5q37 0 61.5 -24.5t24.5 -59.5q0 -45 -32.5 -76.5t-75.5 -31.5q-37 0 -60.5 24.5t-23.5 61.5zM291 819q0 43 32.5 76t73.5 33q37 0 61.5 -24.5t24.5 -61.5q0 -43 -32.5 -75t-75.5 -32q-37 0 -60.5 24.5t-23.5 59.5z" />
<glyph unicode=";" horiz-adv-x="612" d="M170 -111l104 396q6 18 23 18h39q8 0 13 -6t1 -16l-121 -396q-2 -18 -22 -18h-23q-8 0 -13 6t-1 16zM279 823q0 43 33.5 77t74.5 34q35 0 60.5 -24.5t25.5 -61.5q0 -43 -32.5 -75t-78.5 -32q-36 0 -59.5 23.5t-23.5 58.5z" />
<glyph unicode="&#x3c;" horiz-adv-x="1007" d="M113 526l6 45q0 14 16 25l842 387q4 2 10 2t10 -4t2 -12l-6 -39q0 -14 -16 -23l-774 -352q-8 -6 -2 -12l688 -353q12 -8 12 -22l-6 -39q0 -10 -7 -14t-18 0l-747 387q-12 10 -10 24z" />
<glyph unicode="=" horiz-adv-x="1007" d="M127 430l2 29q4 20 23 20h792q18 0 19 -20l-5 -29q-4 -20 -22 -21h-793q-20 1 -16 21zM127 872l2 29q4 20 23 20h792q18 0 19 -20l-5 -29q-4 -20 -22 -21h-793q-20 1 -16 21z" />
<glyph unicode="&#x3e;" horiz-adv-x="1007" d="M63 129l5 39q2 14 16 22l776 353q10 6 0 12l-688 352q-12 10 -10 23l4 39q2 10 9 14t18 0l747 -387q12 -10 10 -25l-6 -45q0 -14 -16 -24l-842 -387q-4 -2 -10 -2t-10.5 4t-2.5 12z" />
<glyph unicode="?" horiz-adv-x="860" d="M178 1040l8 74q18 150 124 244t257 94q137 0 218 -79t81 -210q0 -16 -4 -53q-12 -90 -48 -155.5t-80 -108.5t-113 -94q-78 -59 -115 -100.5t-43 -100.5l-17 -141q-2 -8 -8 -14.5t-14 -6.5h-43q-20 1 -16 21l16 143q10 84 56 137t134 119q68 53 106 88t68.5 89t38.5 126 q2 14 2 43q0 102 -62 162.5t-165 60.5q-119 0 -199.5 -72.5t-95.5 -191.5l-10 -76q0 -8 -6 -14t-17 -6l-36 2q-20 0 -17 20zM279 92q0 43 31.5 74t72.5 31q35 0 59.5 -23.5t24.5 -58.5q0 -43 -33 -75t-74 -32q-34 0 -57.5 24.5t-23.5 59.5z" />
<glyph unicode="@" horiz-adv-x="1652" d="M158 350q0 57 10 135q33 238 166 406t316.5 252t365.5 84q162 0 281.5 -64.5t184 -179.5t64.5 -262q0 -92 -24 -191q-45 -178 -145.5 -281.5t-223.5 -103.5q-70 0 -117 32t-63 91q-4 12 -10 2q-41 -59 -101.5 -92t-136.5 -33q-100 0 -155.5 52.5t-55.5 136.5q0 55 33 182 q12 55 26.5 102.5t30.5 79.5q39 88 117 140.5t172 52.5q59 0 103 -22.5t67 -65.5q2 -4 5 -2t5 6l12 55q6 18 23 19h25q8 0 14 -6.5t4 -16.5l-111 -448q-8 -31 -8 -62q0 -66 36 -103.5t99 -37.5q92 0 170 85t119 236q27 94 27 185q0 135 -60.5 237.5t-170 157.5t-251.5 55 q-166 0 -331.5 -75.5t-286.5 -232.5t-150 -384q-8 -55 -8 -121q0 -217 119 -348t342 -131q100 0 198.5 23.5t151.5 60.5q18 12 27 -2l10 -16q4 -8 4 -13q0 -12 -10 -16q-70 -47 -179.5 -74t-215.5 -27q-248 0 -381 148.5t-133 394.5zM582 362q-8 -70 34.5 -112.5 t120.5 -42.5q74 0 132.5 44t86.5 111q2 4 12.5 30t32.5 126q27 115 33 158q6 68 -32.5 111.5t-112.5 43.5t-135.5 -44t-96.5 -109q-10 -23 -20 -56.5t-27 -103.5q-20 -76 -24 -102.5t-4 -53.5z" />
<glyph unicode="A" horiz-adv-x="1148" d="M43 23l614 1394q6 16 25 17h53q6 0 12.5 -4.5t8.5 -12.5l276 -1394v-5q0 -18 -18 -18h-41q-17 0 -21 16l-55 283q-2 6 -8 6h-639q-6 0 -8 -6l-123 -283q-2 -8 -10.5 -12t-14.5 -4h-39q-23 0 -12 23zM276 383q-2 -4 1.5 -7t7.5 -3h589q4 0 7.5 3t1.5 7l-183 938q-2 4 -5 4 t-7 -4z" />
<glyph unicode="B" horiz-adv-x="1251" d="M180 20l170 1393q4 20 23 21h448q162 0 254 -82t92 -226q0 -137 -67.5 -235t-186.5 -146q-6 -2 -6 -4t4 -4q92 -39 140.5 -114.5t48.5 -180.5q0 -133 -57.5 -233t-158 -154.5t-225.5 -54.5h-462q-20 0 -17 20zM264 82q0 -4 2 -6t4 -2h398q141 0 237 86t115 227q2 16 2 47 q0 125 -77 198t-212 73h-385q-8 0 -8 -9zM350 784q0 -8 8 -8h383q154 0 251.5 92.5t97.5 239.5q0 117 -74 185.5t-203 68.5h-383q-6 0 -10 -8z" />
<glyph unicode="C" horiz-adv-x="1204" d="M174 348q0 23 4 68l74 604q25 195 161 312.5t337 117.5q180 0 287.5 -99.5t107.5 -267.5q0 -20 -4 -61v-2q-4 -20 -23 -21l-39 -2q-18 0 -18 13l2 12q4 37 4 53q0 139 -88 221t-238 82q-166 0 -278.5 -98t-132.5 -258l-74 -610q-4 -37 -4 -56q0 -137 88 -220t240 -83 q162 0 275.5 99.5t133.5 259.5v4q4 18 23 18l37 -2q18 0 18 -8l-2 -10q-14 -127 -82 -225.5t-175.5 -152.5t-238.5 -54q-182 0 -288.5 100t-106.5 266z" />
<glyph unicode="D" horiz-adv-x="1226" d="M180 20l170 1393q4 20 23 21h454q166 0 260.5 -84t94.5 -232q0 -18 -4 -63l-82 -676q-20 -176 -140 -277.5t-305 -101.5h-454q-21 0 -17 20zM264 80q0 -8 6 -8h394q145 0 241 84t113 227l82 666q4 37 4 53q0 123 -74 191.5t-207 68.5h-393q-6 0 -10 -8z" />
<glyph unicode="E" horiz-adv-x="1222" d="M180 20l170 1393q4 20 23 21h831q10 0 15.5 -6.5t3.5 -14.5l-4 -31q-5 -20 -23 -20h-766q-6 0 -10 -8l-72 -590q0 -8 6 -8h549q18 0 19 -21l-4 -33q-2 -8 -8.5 -14t-14.5 -6h-549q-8 0 -8 -8l-74 -594q0 -8 6 -8h768q20 0 17 -21l-4 -31q0 -8 -6.5 -14t-16.5 -6h-831 q-20 0 -17 20z" />
<glyph unicode="F" horiz-adv-x="1136" d="M180 20l170 1393q4 20 23 21h829q10 0 15.5 -6.5t3.5 -14.5l-4 -31q-5 -20 -23 -20h-764q-6 0 -10 -8l-72 -590q0 -8 6 -8h547q18 0 19 -21l-5 -33q-2 -8 -8 -14t-14 -6h-547q-8 0 -8 -8l-82 -654q0 -8 -6 -14t-17 -6h-36q-20 0 -17 20z" />
<glyph unicode="G" horiz-adv-x="1202" d="M174 344q0 20 4 66l74 614q25 193 161 309.5t337 116.5q180 0 286.5 -98.5t106.5 -259.5q0 -20 -4 -62l-2 -31q-4 -20 -23 -20h-39q-20 0 -16 20l4 31q2 16 2 49q0 135 -87 217t-237 82q-166 0 -278.5 -97t-132.5 -255l-76 -618q-2 -16 -2 -50q0 -139 88 -221t242 -82 q162 0 272.5 95.5t130.5 250.5l27 224q2 2 0 5t-6 3h-324q-18 0 -18 20l4 31q4 20 22 21h389q18 0 19 -21l-33 -268q-25 -199 -161 -315.5t-335 -116.5q-182 0 -288.5 98t-106.5 262z" />
<glyph unicode="H" horiz-adv-x="1323" d="M180 20l170 1393q4 20 23 21h37q10 0 15 -6.5t3 -14.5l-80 -649q0 -8 6 -8h721q4 0 7 2t3 6l80 649q0 8 6.5 14.5t16.5 6.5h37q18 0 18 -21l-172 -1393q-4 -20 -22 -20h-37q-18 0 -19 20l80 654q2 2 0 5t-6 3h-721q-8 0 -8 -8l-82 -654q0 -8 -6 -14t-17 -6h-36 q-20 0 -17 20z" />
<glyph unicode="I" horiz-adv-x="509" d="M180 20l170 1393q4 20 23 21h37q10 0 15 -6.5t3 -14.5l-172 -1393q0 -8 -6 -14t-17 -6h-36q-21 0 -17 20z" />
<glyph unicode="J" horiz-adv-x="1142" d="M72 334q0 20 4 61l14 105q0 8 6 14t15 6h39q20 0 16 -20l-12 -107q-4 -33 -4 -49q0 -133 84.5 -211t228.5 -78q160 0 268.5 93.5t126.5 244.5l125 1020q2 8 8 14.5t15 6.5h36q20 0 17 -21l-125 -1018q-23 -186 -155 -298.5t-324 -112.5q-176 0 -279.5 95t-103.5 255z" />
<glyph unicode="K" horiz-adv-x="1200" d="M180 20l170 1393q4 20 23 21h37q10 0 15 -6.5t3 -14.5l-92 -745q0 -4 3 -6.5t7 2.5l797 759q10 10 24 11h41q12 0 15.5 -7.5t-4.5 -17.5l-574 -559q-6 -6 -2 -12l453 -813q4 -8 4 -11q0 -6 -5 -10t-14 -4h-49q-14 0 -22 12l-428 766q0 4 -4.5 4t-6.5 -2l-245 -225 q-4 -4 -4 -10l-66 -525q0 -8 -6 -14t-17 -6h-36q-21 0 -17 20z" />
<glyph unicode="L" horiz-adv-x="1126" d="M180 20l170 1393q4 20 23 21h37q10 0 15 -6.5t3 -14.5l-164 -1333q0 -8 6 -8h721q10 0 15.5 -6.5t3.5 -14.5l-4 -31q-4 -20 -23 -20h-786q-21 0 -17 20z" />
<glyph unicode="M" horiz-adv-x="1419" d="M180 20l170 1393q4 20 23 21h41q16 0 22 -15l320 -647q2 -2 6 -2t6 2l485 647q10 14 25 15h41q20 0 16 -21l-170 -1393q-4 -20 -22 -20h-39q-8 0 -13.5 6t-3.5 14l154 1252q0 6 -3 7t-7 -5l-443 -596q-10 -14 -26 -14h-19q-14 0 -22 14l-301 596q-2 6 -5 5t-5 -7 l-154 -1252q0 -8 -6 -14t-17 -6h-36q-21 0 -17 20z" />
<glyph unicode="N" horiz-adv-x="1351" d="M180 20l170 1393q4 20 23 21h39q16 0 22 -15l596 -1249q2 -6 5 -5t5 7l152 1241q4 20 22 21h39q20 0 17 -21l-170 -1393q-4 -20 -23 -20h-43q-12 0 -20 14l-594 1252q-2 6 -6 5t-4 -7l-154 -1244q0 -8 -6 -14t-17 -6h-36q-21 0 -17 20z" />
<glyph unicode="O" horiz-adv-x="1234" d="M176 371q0 20 4 69l70 551q16 135 84.5 239.5t177.5 162t242 57.5q184 0 292.5 -105.5t108.5 -283.5q0 -20 -4 -70l-68 -551q-16 -135 -85.5 -238.5t-179 -160.5t-245.5 -57q-182 0 -289.5 105.5t-107.5 281.5zM254 375q0 -145 89 -232.5t241 -87.5q168 0 284.5 104.5 t137.5 276.5l67 557q4 41 4 62q0 147 -89 235t-243 88q-168 0 -283.5 -105.5t-135.5 -279.5l-68 -557q-4 -41 -4 -61z" />
<glyph unicode="P" horiz-adv-x="1169" d="M164 20l172 1397q0 8 6 14.5t14 6.5h504q148 0 235 -87t87 -233q0 -18 -4 -63q-20 -172 -134 -275.5t-280 -103.5h-434q-6 0 -11 -8l-77 -648q-4 -20 -23 -20h-39q-20 0 -16 20zM332 748.5q2 -3.5 6 -3.5h432q96 0 172 46.5t119 128t43 186.5q0 119 -68.5 188.5 t-187.5 69.5h-434q-8 0 -8 -8l-74 -602q-2 -2 0 -5.5z" />
<glyph unicode="Q" horiz-adv-x="1128" d="M139 352q0 20 4 70l72 588q16 131 83 230t171 154.5t233 55.5q177 0 280 -100.5t103 -270.5q0 -20 -4 -69l-71 -588q-23 -184 -142.5 -302t-296.5 -134q-10 0 -10 -9l-24 -208q-2 -8 -8.5 -14.5t-14.5 -6.5h-39q-20 0 -16 21l24 208q4 8 -6 9q-158 14 -248 112.5 t-90 253.5zM217 362q0 -139 85 -223t228 -84q162 0 271.5 100.5t130.5 264.5l72 594q4 41 4 59q0 139 -85 222t-229 83q-160 0 -270.5 -100t-130.5 -264l-72 -594q-4 -37 -4 -58z" />
<glyph unicode="R" horiz-adv-x="1214" d="M180 20l170 1397q4 20 23 21h487q147 0 234.5 -87t87.5 -233q0 -168 -95.5 -284.5t-244.5 -139.5q-10 -4 -6 -10l227 -659l2 -9q0 -16 -18 -16h-35q-21 0 -23 14l-231 668q-2 6 -8 6h-404q-8 0 -8 -8l-82 -660q0 -8 -6 -14t-17 -6h-36q-20 0 -17 20zM348 766q0 -4 2 -6 t4 -2h420q94 0 169 45t118 125t43 180q0 117 -68.5 186.5t-187.5 69.5h-418q-6 0 -10 -8z" />
<glyph unicode="S" horiz-adv-x="1159" d="M129 299q0 31 2 47l10 72q0 8 6.5 14t16.5 6h33q18 0 18 -20l-8 -66q-2 -12 -2 -37q0 -119 95 -189.5t263 -70.5q186 0 292 87t106 235q0 100 -79 170.5t-276 163.5q-137 63 -206.5 104t-110.5 99.5t-41 144.5q0 12 4 49q20 166 139 254t316 88q199 0 305 -84t106 -231 q0 -14 -4 -52l-6 -49q-4 -20 -23 -20h-36q-18 0 -19 20l6 43q2 14 2 41q0 119 -89 189.5t-255 70.5q-176 0 -272 -78.5t-96 -228.5q0 -70 35.5 -117t100 -82.5t197.5 -95.5q197 -90 289 -175t92 -212q0 -29 -2 -45q-20 -164 -149 -262t-340 -98q-197 0 -308.5 85t-111.5 230 z" />
<glyph unicode="T" horiz-adv-x="1116" d="M229 1382l4 31q4 20 23 21h877q8 0 13 -6.5t3 -14.5l-4 -31q-4 -20 -23 -20h-399q-8 0 -8 -8l-164 -1334q-4 -20 -23 -20h-36q-10 0 -15.5 6t-3.5 14l164 1334q0 8 -6 8h-385q-8 0 -13.5 6t-3.5 14z" />
<glyph unicode="U" horiz-adv-x="1302" d="M209 360q0 23 4 68l121 985q4 20 22 21h39q8 0 13.5 -6.5t3.5 -14.5l-121 -991q-4 -37 -4 -55q0 -141 89 -226.5t242 -85.5q170 0 285 100.5t135 266.5l123 991q4 20 23 21h37q18 0 18 -21l-121 -985q-16 -131 -84.5 -232.5t-178.5 -156.5t-245 -55q-184 0 -292.5 102 t-108.5 274z" />
<glyph unicode="V" horiz-adv-x="1138" d="M213 1411v4q0 18 18 19h39q6 0 12.5 -4.5t8.5 -12.5l250 -1288q0 -4 5 -4t7 4l565 1288q6 16 25 17h37q23 0 12 -23l-617 -1395q-6 -16 -24 -16h-45q-17 0 -21 16z" />
<glyph unicode="W" horiz-adv-x="1742" d="M190 1411v4q0 8 6.5 13.5t14.5 5.5h39q14 0 20 -17l199 -1249q2 -4 5 -4t5 4l477 1247q8 18 25 19h41q16 0 20 -19l181 -1247q4 -10 10 0l508 1249q10 16 24 17h37q10 0 15.5 -6.5t1.5 -16.5l-570 -1395q-6 -16 -24 -16h-41q-18 0 -19 18l-176 1266q0 4 -3 4t-5 -4 l-483 -1266q-8 -18 -25 -18h-41q-14 0 -18 16z" />
<glyph unicode="X" horiz-adv-x="1130" d="M45 7q-2 7 6 18l514 686q6 6 2 12l-346 686q-2 4 -2 12q0 12 17 13h40q16 0 23 -15l317 -633q2 -2 6.5 -2t6.5 2l471 633q14 14 26 15h41q12 0 14.5 -7.5t-5.5 -17.5l-514 -688q-6 -6 -3 -12l347 -684q2 -4 2 -13q0 -12 -17 -12h-41q-14 0 -22 14l-316 631q-2 4 -6 4 t-6 -4l-473 -631q-10 -14 -27 -14h-41q-12 0 -14 7z" />
<glyph unicode="Y" horiz-adv-x="1081" d="M217 1419q0 14 19 15h36q16 0 23 -15l293 -657q2 -2 6 -2t6 2l455 657q10 14 24 15h39q10 0 14.5 -7.5t-4.5 -17.5l-505 -731q-2 -2 -2 -10l-80 -648q-4 -20 -23 -20h-35q-18 0 -18 20l80 648q0 2 1 5t-1 5l-326 731q-2 4 -2 10z" />
<glyph unicode="Z" horiz-adv-x="1083" d="M63 20l7 39q0 6 10 27l919 1266q4 4 2 7t-6 3h-747q-8 0 -13.5 6t-3.5 14l5 31q4 20 22 21h823q18 0 19 -21l-6 -39q0 -6 -11 -26l-919 -1266q-4 -4 -2 -7t6 -3h747q8 0 13.5 -6.5t3.5 -14.5l-4 -31q0 -8 -6.5 -14t-16.5 -6h-823q-19 0 -19 20z" />
<glyph unicode="[" horiz-adv-x="720" d="M-2 -203l215 1743q4 20 23 21h335q20 0 17 -21l-4 -31q0 -8 -6.5 -14t-14.5 -6h-270q-4 0 -7 -2t-3 -6l-199 -1624q0 -8 6 -9h272q18 0 19 -20l-4 -31q-4 -20 -23 -20h-338q-18 0 -18 20z" />
<glyph unicode="\" horiz-adv-x="628" d="M205 1411v4q0 18 20 19h37q16 0 21 -17l237 -1394v-5q0 -18 -22 -18h-35q-16 0 -23 16z" />
<glyph unicode="]" horiz-adv-x="720" d="M215 -203l4 31q4 20 23 20h272q8 0 8 9l201 1624q0 8 -8 8h-271q-20 0 -16 20l4 31q0 8 6 14.5t17 6.5h336q8 0 13 -6.5t3 -14.5l-213 -1743q-2 -8 -8 -14t-15 -6h-338q-10 0 -15 6t-3 14z" />
<glyph unicode="^" horiz-adv-x="874" d="M137 646q-4 7 2 18l389 753q6 16 23 17h43q16 0 18 -17l207 -753v-7q0 -8 -6 -13t-14 -5h-29q-18 0 -20 16l-183 686q0 6 -4 6.5t-6 -6.5l-352 -686q-6 -16 -23 -16h-30q-11 0 -15 7z" />
<glyph unicode="_" horiz-adv-x="925" d="M31 20l4 29q0 8 6 14.5t14 6.5h754q18 0 18 -21l-4 -29q-4 -20 -22 -20h-754q-20 0 -16 20z" />
<glyph unicode="`" horiz-adv-x="358" d="M217 1438q0 14 19 14h39q18 0 20 -14l94 -228l2 -8q0 -16 -18 -16h-29q-12 0 -22 14l-103 227q-2 4 -2 11z" />
<glyph unicode="a" d="M150 311q0 53 18 201q10 78 21.5 146.5t25.5 113.5q45 125 147.5 198.5t237.5 73.5q92 0 158.5 -40.5t101.5 -112.5q4 -4 7 -4t3 6l15 115q4 20 22 20h37q18 0 19 -20l-121 -988q-2 -8 -8.5 -14t-14.5 -6h-39q-20 0 -16 20l14 115q0 6 -3 6t-7 -4q-51 -72 -129 -112.5 t-168 -40.5q-135 0 -219 73.5t-98 196.5q-4 37 -4 57zM229 332q0 -20 4 -58q6 -96 75 -157.5t177 -61.5q106 0 183 62.5t108 156.5q15 35 24 78t21 160q16 137 17 188q0 37 -4 56q-6 94 -67.5 155.5t-166.5 61.5q-106 0 -189 -60.5t-116 -154.5q-16 -37 -25.5 -82 t-23.5 -160q-16 -131 -17 -184z" />
<glyph unicode="b" horiz-adv-x="1062" d="M147 20l172 1393q0 8 6.5 14.5t14.5 6.5h39q20 0 16 -21l-63 -516q0 -6 3 -6t7 4q51 72 127 110.5t168 38.5q135 0 220 -74.5t97 -197.5q2 -16 2 -53q0 -55 -18 -207q-10 -98 -20.5 -154.5t-28.5 -103.5q-43 -123 -145.5 -196.5t-237.5 -73.5q-88 0 -154.5 39.5 t-103.5 109.5q-2 4 -5 4t-5 -6l-13 -111q-4 -20 -22 -20h-37q-10 0 -15.5 6t-3.5 14zM268 324q0 -16 4 -50q8 -94 69.5 -156.5t168.5 -62.5q106 0 190 61.5t115 157.5q14 43 23.5 86t23.5 156q16 125 17 180q0 35 -7 62q-10 94 -77.5 154.5t-173.5 60.5q-104 0 -180 -61.5 t-107 -155.5q-16 -37 -25.5 -81t-23.5 -163q-16 -137 -17 -188z" />
<glyph unicode="c" horiz-adv-x="1017" d="M160 336q0 74 12 180q18 147 55 256q45 123 150.5 197.5t245.5 74.5q137 0 227 -72.5t104 -180.5q4 -18 4 -54q0 -18 -20 -22l-37 -4h-4q-14 0 -14 18l-2 29q-8 90 -81 152.5t-188 62.5q-117 0 -201.5 -63.5t-115.5 -168.5q-29 -90 -45 -227q-12 -96 -12 -182 q0 -125 67.5 -201t194.5 -76q115 0 205 62.5t114 154.5l4 11q6 20 27 16l33 -6q20 -4 14 -23q-6 -20 -10 -32q-37 -111 -146.5 -182.5t-246.5 -71.5q-140 0 -227 74.5t-103 199.5q-4 49 -4 78z" />
<glyph unicode="d" horiz-adv-x="1062" d="M152 311q0 53 18 201q10 78 21.5 146.5t25.5 113.5q45 125 147.5 198.5t237.5 73.5q92 0 157.5 -38.5t100.5 -110.5q4 -4 7 -4t3 6l64 516q4 21 22 21h39q8 0 13.5 -6.5t3.5 -14.5l-170 -1393q-2 -8 -8.5 -14t-14.5 -6h-39q-20 0 -16 20l12 111q2 6 -1 6t-7 -4 q-53 -72 -129 -110.5t-166 -38.5q-135 0 -219 73.5t-98 196.5q-4 37 -4 57zM231 332q0 -20 5 -58q6 -96 74.5 -157.5t176.5 -61.5q106 0 182 61.5t109 157.5q15 35 24 78t21 160q16 137 17 188q0 37 -4 56q-6 94 -67.5 155.5t-166.5 61.5q-106 0 -189 -60.5t-116 -154.5 q-16 -37 -25.5 -82t-23.5 -160q-16 -131 -17 -184z" />
<glyph unicode="e" horiz-adv-x="1048" d="M158 319q0 61 14 197q12 98 21.5 152.5t25.5 99.5q45 125 150.5 200.5t244.5 75.5q158 0 246 -91t88 -244q0 -39 -18 -193q-4 -23 -23 -22h-651q-8 0 -10 -9q-2 -15 -10 -89q-6 -51 -6 -82q0 -15 1 -25q8 -106 79 -170t190 -64q102 0 182 49.5t125 133.5q8 18 27 12 l24 -8q18 -6 10 -27q-53 -104 -153.5 -167.5t-227.5 -63.5q-137 0 -221 71.5t-104 192.5q-4 23 -4 71zM256 567q0 -8 8 -8h586q8 0 8 8q12 115 12 160v12q-10 106 -79.5 170t-184.5 64q-117 0 -202 -63.5t-115 -166.5q-16 -49 -33 -176z" />
<glyph unicode="f" horiz-adv-x="679" d="M156 975l4 33q4 20 22 20h129q8 0 8 8l9 66q20 174 92 253t235 79h47q20 0 17 -21l-2 -31q-4 -20 -23 -20h-45q-123 0 -175 -62.5t-68 -199.5l-9 -64q0 -8 6 -8h242q20 0 17 -20l-5 -33q0 -8 -6 -14.5t-16 -6.5h-240q-8 0 -8 -8l-115 -926q-4 -20 -22 -20h-37 q-18 0 -18 20l114 926q0 8 -8 8h-129q-8 0 -13 6.5t-3 14.5z" />
<glyph unicode="g" horiz-adv-x="1044" d="M150 336q0 55 14 176q23 174 55 264q45 121 147.5 194.5t233.5 73.5q94 0 160.5 -39.5t101.5 -109.5q2 -6 6 -5t4 7l15 111q4 20 22 20h37q18 0 19 -20l-123 -996q-53 -421 -509 -421q-17 0 -34 1q-18 0 -16 21l6 35q2 20 22 20h27q191 0 294 80q109 86 132 266l16 123 q0 6 -3 6t-7 -4q-51 -72 -127 -111.5t-172 -39.5q-131 0 -215 72.5t-100 197.5q-6 35 -6 78zM229 334q0 -33 2 -43q10 -102 79 -168t179 -66q115 0 194 66.5t108 165.5q8 30 15 77.5t19 147.5t16.5 145.5t4.5 81.5q-4 100 -68.5 166t-175.5 66t-192.5 -64.5t-122.5 -167.5 q-23 -66 -43 -225q-14 -121 -15 -182z" />
<glyph unicode="h" horiz-adv-x="1064" d="M145 20l172 1393q0 8 6.5 14.5t14.5 6.5h39q20 0 16 -21l-63 -516q0 -6 3 -7t5 3q53 72 132 110.5t179 38.5q135 0 216 -79.5t81 -212.5q0 -16 -4 -54l-84 -676q0 -8 -6 -14t-16 -6h-37q-18 0 -19 20l82 662q2 14 2 43q0 111 -65.5 178.5t-171.5 67.5q-129 0 -217 -79 t-105 -206l-82 -666q-4 -20 -22 -20h-37q-10 0 -15.5 6t-3.5 14z" />
<glyph unicode="i" horiz-adv-x="475" d="M162 20l121 988q4 20 22 20h37q10 0 15 -6t3 -14l-120 -988q-4 -20 -23 -20h-39q-20 0 -16 20zM283 1319q0 35 25.5 60.5t62.5 25.5q31 0 50 -18.5t19 -47.5q0 -37 -25.5 -61.5t-62.5 -24.5q-30 0 -49.5 18.5t-19.5 47.5z" />
<glyph unicode="j" horiz-adv-x="446" d="M-137 -410l4 31q0 8 6 14.5t16 6.5q102 4 165 63t75 164l139 1139q4 20 23 20h39q8 0 13 -6t3 -14l-139 -1137q-16 -143 -100 -220t-228 -81q-20 0 -16 20zM270 1317q0 41 24.5 64.5t61.5 23.5q33 0 52.5 -17.5t19.5 -46.5q0 -39 -24.5 -64.5t-65.5 -25.5 q-31 0 -49.5 17.5t-18.5 48.5z" />
<glyph unicode="k" horiz-adv-x="964" d="M145 20l172 1393q0 8 6.5 14.5t14.5 6.5h39q20 0 16 -21l-110 -901q0 -4 3 -6t7 2l551 510q10 10 24 10h52q14 0 14 -10q0 -6 -8 -14l-283 -269q-6 -6 -4 -10l219 -700v-7q0 -8 -6 -13t-14 -5h-39q-18 0 -21 16l-198 652q-4 8 -11 2l-295 -271q-6 -2 -6 -10l-45 -369 q-4 -20 -22 -20h-37q-10 0 -15.5 6t-3.5 14z" />
<glyph unicode="l" horiz-adv-x="444" d="M147 20l172 1393q0 8 6.5 14.5t14.5 6.5h39q20 0 16 -21l-170 -1393q-4 -20 -22 -20h-37q-10 0 -15.5 6t-3.5 14z" />
<glyph unicode="m" horiz-adv-x="1644" d="M145 20l121 988q4 20 23 20h39q8 0 13 -6t3 -14l-12 -103q-2 -6 1 -6t7 4q51 68 128 103.5t171 35.5q104 0 174 -48t94 -136q2 -4 4 -4t4 4q49 90 135.5 137t196.5 47q131 0 207 -73.5t76 -204.5q0 -18 -4 -55l-84 -689q-2 -8 -8.5 -14t-14.5 -6h-39q-20 0 -16 20l82 674 q2 16 2 45q0 109 -61.5 170.5t-165.5 61.5q-125 0 -208 -73t-100 -200l-82 -678q-4 -20 -22 -20h-39q-8 0 -13 6t-3 14l82 674q4 33 4 49q0 106 -61.5 167t-166.5 61q-125 0 -207.5 -73t-97.5 -200l-84 -678q-4 -20 -22 -20h-37q-10 0 -15.5 6t-3.5 14z" />
<glyph unicode="n" horiz-adv-x="1064" d="M145 20l121 988q4 20 23 20h39q8 0 13 -6t3 -14l-14 -111q0 -6 3 -7t5 3q53 72 132 110.5t179 38.5q135 0 216 -79.5t81 -212.5q0 -16 -4 -54l-84 -676q0 -8 -6 -14t-16 -6h-37q-18 0 -19 20l82 662q2 14 2 43q0 111 -65.5 178.5t-171.5 67.5q-129 0 -217 -79t-105 -206 l-82 -666q-4 -20 -22 -20h-37q-10 0 -15.5 6t-3.5 14z" />
<glyph unicode="o" d="M158 328q0 59 14 188q23 178 49 256q47 123 153.5 197.5t243.5 74.5q139 0 228.5 -74.5t101.5 -197.5q2 -16 2 -53q0 -76 -16 -203q-12 -102 -21.5 -157.5t-25.5 -100.5q-47 -125 -153.5 -199.5t-244.5 -74.5q-139 0 -225 74.5t-102 199.5q-4 20 -4 70zM231 315 q0 -117 71 -188.5t196 -71.5q114 0 200 64.5t119 169.5q16 49 39 225l6 49q2 25 10 87q4 37 4 61q0 17 -2 28q-8 104 -78.5 169t-187.5 65q-115 0 -199.5 -64.5t-119.5 -169.5q-18 -57 -39 -225q-18 -158 -19 -199z" />
<glyph unicode="p" horiz-adv-x="1079" d="M113 -385l172 1393q4 20 22 20h37q10 0 15.5 -6t2.5 -14l-14 -111q0 -6 3 -6t7 4q51 70 128 109.5t167 39.5q135 0 218 -73.5t98 -196.5q4 -36 4 -59q0 -51 -19 -199q-10 -98 -20 -155.5t-27 -104.5q-43 -123 -146.5 -197.5t-238.5 -74.5q-90 0 -156.5 39.5t-101.5 109.5 q-2 4 -5 4t-5 -6l-64 -516q0 -8 -6 -14.5t-16 -6.5h-37q-18 0 -18 21zM285 328q0 -37 4 -56q8 -94 69.5 -155.5t165.5 -61.5t187.5 60.5t115.5 154.5q17 37 27 82t23 160q16 131 16 184q0 20 -4 58q-6 96 -75 157.5t-177 61.5q-104 0 -181 -62.5t-110 -156.5 q-12 -35 -21.5 -79t-23.5 -159q-16 -137 -16 -188z" />
<glyph unicode="q" horiz-adv-x="1079" d="M152 299q0 59 18 217q12 102 22.5 157.5t28.5 100.5q43 123 145.5 196.5t235.5 73.5q90 0 156.5 -39.5t101.5 -109.5q4 -4 7 -4t3 6l15 111q4 20 22 20h37q18 0 19 -20l-172 -1393q0 -8 -6.5 -14.5t-16.5 -6.5h-37q-18 0 -18 21l63 516q2 6 -1 6t-7 -4 q-51 -70 -128 -109.5t-167 -39.5q-147 0 -234 87t-87 228zM231 332q0 -33 7 -62q10 -94 77.5 -154.5t173.5 -60.5q104 0 180 61.5t107 155.5q17 37 26 81t21 163q18 158 19 191q0 18 -4 47q-10 96 -70.5 157.5t-167.5 61.5q-109 0 -192.5 -61.5t-112.5 -157.5 q-14 -39 -23.5 -82t-23.5 -160q-16 -125 -17 -180z" />
<glyph unicode="r" horiz-adv-x="706" d="M145 20l121 988q4 20 23 20h39q8 0 13 -6t3 -14l-18 -154q-2 -6 2 -7t6 5q51 86 127 135t168 49h6q67 0 106 -22q14 -6 9 -27l-21 -41q-6 -20 -24 -10q-36 14 -85 14h-12q-117 0 -205 -92t-104 -223l-76 -615q-4 -20 -22 -20h-37q-10 0 -15.5 6t-3.5 14z" />
<glyph unicode="s" horiz-adv-x="942" d="M119 227q0 18 2 27l4 29q0 8 6 14t16 6h35q20 0 17 -20l-2 -27q-1 -9 -1 -18q0 -41 24 -78q28 -45 87.5 -73t138.5 -28q129 0 212 67t83 167q0 53 -33.5 87t-75.5 51.5t-147 53.5q-96 31 -156.5 59.5t-100.5 75t-40 117.5q0 133 105.5 216t269.5 83q143 0 228.5 -65.5 t85.5 -169.5q0 -18 -3 -29l-2 -6q-4 -20 -22 -21h-33q-10 0 -15 4.5t-3 10.5l2 12q1 11 1 21q0 69 -60 119q-68 56 -189 57q-127 0 -208 -60.5t-81 -156.5q0 -51 32 -85t79 -54.5t135 -51.5q104 -33 163.5 -58.5t102.5 -73.5t43 -122q0 -90 -48 -161.5t-134 -112.5t-197 -41 q-145 0 -233 67.5t-88 167.5z" />
<glyph unicode="t" horiz-adv-x="706" d="M164 979l4 29q0 8 6 14t16 6h121q8 0 8 8l29 232q4 20 23 20h35q10 0 15 -6t3 -14l-29 -232q0 -4 2 -6t4 -2h242q20 0 16 -20l-2 -29q-2 -8 -8 -14.5t-14 -6.5h-242q-8 0 -8 -8l-84 -680q-4 -33 -4 -47q0 -82 45 -115.5t139 -33.5h45q8 0 13.5 -6.5t3.5 -14.5l-4 -30 q0 -18 -21 -23h-51q-121 0 -184.5 44t-63.5 157q0 14 4 55l86 694q0 8 -6 8h-121q-10 0 -15 6.5t-3 14.5z" />
<glyph unicode="u" d="M164 272q0 33 2 52l84 684q2 8 8 14t14 6h39q20 0 17 -20l-82 -666q-2 -16 -2 -45q0 -111 63.5 -175.5t175.5 -64.5q129 0 216 79t104 206l82 666q4 20 22 20h37q18 0 19 -20l-121 -988q-2 -8 -8.5 -14t-14.5 -6h-39q-20 0 -16 20l12 109q2 6 -1 6t-7 -4 q-53 -72 -131 -108.5t-176 -36.5q-133 0 -215 76.5t-82 209.5z" />
<glyph unicode="v" horiz-adv-x="903" d="M160 1006v4q0 18 18 18h43q8 0 14.5 -4t8.5 -12l178 -883q0 -4 4 -4t6 4l397 883q10 16 27 16h43q23 0 12 -22l-450 -990q-10 -16 -27 -16h-45q-16 0 -22 16z" />
<glyph unicode="w" horiz-adv-x="1374" d="M158 1006v4q0 18 20 18h35q20 0 20 -16l132 -891q2 -4 6 -4t6 4l352 891q4 16 23 16h41q14 0 18 -16l135 -889q2 -4 6 -4t6 4l353 889q6 16 22 16h39q25 0 14 -22l-403 -990q-6 -16 -22 -16h-43q-14 0 -21 16l-137 861q-2 4 -6 4t-6 -4l-347 -861q-10 -16 -24 -16h-43 q-15 0 -21 16z" />
<glyph unicode="x" horiz-adv-x="894" d="M26 8q-3 8 5 17l393 483q2 4 2 12l-274 484l-5 10q0 14 19 14h39q18 0 22 -12l246 -432q2 -2 6 -2t6 2l344 432q10 12 27 12h43q12 0 15.5 -7t-7.5 -17l-391 -484q-2 -6 0 -12l272 -483q4 -8 5 -11q0 -14 -21 -14h-41q-18 0 -22 12l-240 432q0 4 -4 4.5t-6 -4.5 l-350 -432q-8 -12 -25 -12h-45q-10 0 -13 8z" />
<glyph unicode="y" horiz-adv-x="876" d="M20 -389l3 31q2 8 7 14t11 6h12q76 2 120 27.5t83 90t104 214.5q4 10 2 12l-221 1000v4q0 18 19 18h39q6 0 12 -4t8 -12l191 -893q2 -4 6 -4t6 4l401 893q10 16 27 16h37q20 0 14 -22l-518 -1121q-59 -129 -104.5 -190.5t-96.5 -83t-137 -21.5h-14q-15 1 -11 21z" />
<glyph unicode="z" horiz-adv-x="872" d="M39 20l4 39q4 18 10 27l721 858q4 4 2 7t-6 3h-592q-20 0 -16 21l4 33q4 20 22 20h674q8 0 13.5 -6t3.5 -14l-5 -39q-4 -18 -12 -27l-723 -858q-2 -2 -2 -6t4 -4h598q10 0 15.5 -6.5t3.5 -14.5l-4 -33q-4 -20 -23 -20h-676q-20 0 -16 20z" />
<glyph unicode="{" horiz-adv-x="534" d="M104 659l5 33q2 18 20 21q49 12 78 56t39 128l53 440q14 119 62.5 171.5t144.5 52.5h96q10 0 15.5 -6.5t3.5 -14.5l-5 -31q-4 -20 -22 -20h-84q-59 0 -92 -38t-43 -124l-51 -426q-12 -92 -40 -144t-75 -75q-8 -2 -2 -10q66 -41 65 -154q0 -18 -4 -67l-55 -441 q-2 -16 -2 -47q0 -59 23.5 -87t74.5 -28h84q20 0 17 -20l-4 -31q0 -8 -6.5 -14t-16.5 -6h-96q-80 0 -118 36.5t-38 118.5q0 43 4 68l55 455q4 45 5 61q0 55 -18.5 84t-55.5 39q-18 4 -17 20z" />
<glyph unicode="|" horiz-adv-x="296" d="M51 -143l207 1679q4 20 23 20h36q10 0 15.5 -6t3.5 -14l-207 -1679q-4 -20 -23 -21h-36q-19 1 -19 21z" />
<glyph unicode="}" horiz-adv-x="534" d="M-2 -203l4 31q4 20 23 20h84q59 0 91.5 38t43.5 124l53 441q12 90 40 142t75 79q10 8 2 10q-66 37 -66 149q0 20 4 70l54 426q4 37 4 49q0 59 -25 86t-76 27h-82q-10 0 -15 6t-3 14l4 31q4 20 23 21h96q82 0 118.5 -37t36.5 -119q0 -43 -4 -68l-53 -440q-4 -45 -4 -59 q0 -106 74 -125q18 -4 16 -21l-4 -33q-2 -18 -20 -20q-49 -10 -78 -54t-39 -130l-56 -455q-14 -119 -62 -171t-144 -52h-97q-18 0 -18 20z" />
<glyph unicode="~" horiz-adv-x="962" d="M127 573q37 59 95.5 93t127.5 34q51 0 88 -14t80 -41q8 -4 41 -24.5t70 -31.5t78 -11q45 0 75.5 20t71.5 64q12 14 29 4l20 -15q12 -12 2 -28q-43 -57 -93 -88t-114 -31q-63 0 -104 17.5t-105 56.5q-41 25 -72.5 37t-72.5 12q-104 0 -170 -86q-12 -20 -27 -6l-16 12 q-16 10 -4 26z" />
<glyph unicode="&#xa1;" horiz-adv-x="620" d="M236 45l118 936q3 20 23 20h31q18 0 16 -20l-111 -936q-4 -20 -22 -20h-37q-10 0 -15.5 6t-2.5 14zM334 1341q0 45 32.5 77t75.5 32q37 0 61.5 -24.5t24.5 -63.5q0 -43 -33.5 -75t-76.5 -32q-35 0 -59.5 25t-24.5 61z" />
<glyph unicode="&#xa2;" horiz-adv-x="1017" d="M182 528q0 72 13 172q18 147 55 256q41 106 126 177t199 90q8 2 9 10l16 143q4 20 23 21h30q10 0 15.5 -6.5t3.5 -14.5l-17 -139q-4 -8 7 -8q133 -6 218 -77t97 -177q4 -18 4 -53q0 -18 -20 -23l-37 -4h-4q-14 0 -15 18l-2 29q-8 92 -80.5 153.5t-187.5 61.5 q-117 0 -202 -63.5t-116 -167.5q-29 -90 -45 -228q-12 -96 -12 -182q0 -125 67.5 -200.5t194.5 -75.5q115 0 205 62.5t117 154.5l2 10q6 20 26 16l33 -6q20 -4 15 -22q-6 -20 -11 -33q-35 -106 -139 -177t-240 -77q-8 0 -8 -8l-16 -140q-4 -20 -23 -20h-32q-20 0 -17 20 l19 144q2 8 -7 10q-109 18 -176 90t-82 178q-6 41 -6 86z" />
<glyph unicode="&#xa3;" horiz-adv-x="1200" d="M238 20l4 33q0 14 16 25q53 29 94 103.5t54 168.5l34 293q0 8 -6 8h-158q-20 0 -16 21l2 26q4 20 23 21h157q8 0 9 8l43 342q20 178 134.5 279.5t293.5 101.5q119 0 191.5 -62.5t96.5 -183.5v-4q0 -14 -16 -20l-39 -11l-6 -2q-12 0 -16 17q-20 102 -77 149t-151 47 q-141 0 -229 -81.5t-107 -229.5l-41 -342q0 -8 7 -8h387q10 0 15 -6t3 -15l-4 -26q0 -8 -6 -14.5t-17 -6.5h-387q-8 0 -8 -8l-35 -289q-10 -86 -45 -156.5t-84 -117.5q-4 -4 -3 -7t5 -3h719q18 0 19 -21l-4 -29q-4 -20 -23 -20h-813q-20 0 -16 20z" />
<glyph unicode="&#xa4;" horiz-adv-x="987" d="M66 205q-14 14 0 28l137 123q6 6 2 13q-63 90 -64 200q0 78 32 152t85 135q4 8 0 12l-111 131q-4 4 -4 11q0 10 9 18l26 21q6 6 15 6q6 0 14 -8l106 -127q6 -6 13 -2q111 84 243 83q68 0 126.5 -23.5t103.5 -66.5q6 -6 12 0l147 136q16 14 29 2l21 -21q14 -14 0 -29 l-156 -139q-6 -4 -2 -12q51 -80 51 -184q0 -80 -29.5 -154t-85.5 -133q-4 -6 2 -12l111 -132q4 -8 4 -10q0 -10 -10 -18l-27 -21q-14 -12 -26 2l-111 127q-4 4 -10 2q-113 -84 -244 -84q-125 0 -215 78q-6 4 -12 -2l-133 -121q-18 -16 -29 -2zM215 575q0 -116 77 -194 t191 -78q88 0 169 48t129 129t48 173q0 117 -76.5 197t-191.5 80q-88 0 -168 -49.5t-129 -131t-49 -174.5z" />
<glyph unicode="&#xa5;" horiz-adv-x="1368" d="M342 393l2 19q4 20 23 20h286q8 0 9 8l24 193q0 8 -8 8h-285q-10 0 -15 6t-3 15l2 18q4 20 22 20h267q8 0 8 11l-309 698q-2 4 -3 10q0 14 19 15h37q16 0 22 -15l293 -657q2 -2 6 -2t6 2l455 657q10 14 25 15h39q10 0 14 -7.5t-4 -17.5l-481 -698q-2 -4 -1 -7.5t5 -3.5 h256q10 0 15 -6t3 -14l-2 -18q-4 -20 -22 -21h-277q-8 0 -8 -8l-25 -193q0 -4 2 -6t4 -2h277q10 0 15 -6t3 -14l-2 -19q-4 -20 -22 -20h-277q-8 0 -8 -8l-43 -345q-4 -20 -22 -20h-35q-10 0 -15.5 6t-3.5 14l43 345q0 8 -8 8h-285q-10 0 -15 6t-3 14z" />
<glyph unicode="&#xa6;" horiz-adv-x="296" d="M51 -143l88 704q0 8 6.5 14.5t16.5 6.5h37q20 0 16 -21l-86 -704q-4 -20 -23 -21h-36q-19 1 -19 21zM172 831l86 705q4 20 23 20h36q10 0 15.5 -6t3.5 -14l-86 -705q-4 -20 -23 -20h-39q-20 0 -16 20z" />
<glyph unicode="&#xa7;" horiz-adv-x="874" d="M100 -158q0 18 4 64v31q2 8 8.5 14t14.5 6h39q20 0 16 -20l-2 -25q-2 -16 -2 -47q0 -102 49 -160.5t135 -58.5q68 0 124.5 39t89 105.5t32.5 141.5q0 100 -62.5 148.5t-164.5 81.5q-78 25 -130 60.5t-81 101.5q-23 51 -23 120q0 143 80 254q74 96 189 125q6 2 6 4t-6 4 q-76 31 -123 104t-47 163t44 171t120.5 130t171.5 49q117 0 185.5 -75t68.5 -195q0 -27 -2 -41l-5 -27q-4 -20 -22 -20h-37q-18 0 -18 20l4 23q2 12 2 36q0 92 -50.5 150.5t-132.5 58.5q-72 0 -129 -41t-89.5 -107.5t-32.5 -137.5q0 -86 58 -141.5t165 -92.5 q61 -20 109.5 -49t82.5 -82q39 -63 39 -152q0 -147 -78 -260q-33 -49 -79 -81.5t-97 -40.5q-10 -2 0 -7q76 -35 120 -98t44 -154q0 -98 -45 -181t-122 -130t-171 -47q-117 0 -183.5 70.5t-66.5 195.5zM225 449q0 -59 21 -99q55 -109 182 -108q137 0 213 106q57 90 57 205 q0 84 -30 129q-61 92 -172 92q-61 0 -119 -36t-94 -91q-57 -86 -58 -198z" />
<glyph unicode="&#xa8;" horiz-adv-x="591" d="M192 1321q0 33 24.5 56.5t59.5 23.5q29 0 45.5 -18.5t16.5 -45.5q0 -35 -24 -58.5t-54 -23.5q-33 0 -50.5 18.5t-17.5 47.5zM508 1317q0 35 23.5 59.5t57.5 24.5q27 0 44.5 -17.5t17.5 -44.5q0 -35 -23.5 -59.5t-56.5 -24.5q-29 0 -46 17.5t-17 44.5z" />
<glyph unicode="&#xa9;" horiz-adv-x="1771" d="M209 612q0 49 6 101q25 209 138.5 376.5t289.5 264t381 96.5q188 0 332.5 -82t224.5 -226.5t80 -326.5q0 -49 -6 -102q-25 -205 -138.5 -372t-290.5 -262t-382 -95q-187 0 -331 80.5t-224 224t-80 323.5zM268 618q0 -166 73 -297t206 -204.5t305 -73.5q188 0 349 88 t264.5 240.5t125.5 341.5q6 49 6 96q0 168 -71.5 301t-203.5 207t-304 74q-190 0 -351 -88.5t-265.5 -243t-127.5 -346.5q-6 -45 -6 -95zM707 516q0 20 2 31l41 340q12 90 74.5 144t156.5 54q84 0 134 -45t50 -122q0 -18 -2 -29v-4q-2 -18 -22 -19l-19 2q-20 0 -18 13l2 12 q6 61 -30 99t-101 38q-68 0 -113 -38t-53 -99l-43 -356q-8 -59 28.5 -97.5t102.5 -38.5t111 38t53 98l2 6q0 10 7 16t15 6h19q20 0 18 -8v-12q-10 -88 -74.5 -143.5t-156.5 -55.5q-86 0 -135 46t-49 124z" />
<glyph unicode="&#xaa;" horiz-adv-x="638" d="M84 549l2 24q5 21 23 21h469q20 0 16 -21l-2 -24q-4 -20 -23 -21h-469q-20 0 -16 21zM129 907q0 113 82 178.5t217 65.5h152q4 0 7 2t3 6l6 62q2 10 2 32q0 66 -38 104t-116 38q-68 0 -115.5 -29t-64.5 -76q-10 -18 -26 -16l-19 4q-23 4 -14 22q23 68 90 109t160 41 q100 0 153.5 -51t53.5 -137q0 -25 -3 -37l-55 -445q-4 -20 -22 -20h-21q-10 0 -15 6t-3 14l6 51q0 10 -8 3q-37 -41 -93.5 -62.5t-123.5 -21.5q-86 0 -140.5 38.5t-54.5 118.5zM186 920q0 -59 42 -88t110 -29q86 0 152.5 43t74.5 123l15 118q2 2 0 5.5t-7 3.5h-151 q-104 0 -170 -45t-66 -131z" />
<glyph unicode="&#xab;" horiz-adv-x="1099" d="M246 573q0 10 8 17l313 330q12 12 27 12h33q12 0 14 -7t-6 -18l-311 -325q-2 -4 -2 -13l231 -325l4 -11q0 -14 -18 -14h-33q-16 0 -23 12l-233 330q-4 8 -4 12zM547 571q0 10 8 19l315 330q10 12 25 12h35q10 0 12 -8.5t-6 -16.5l-309 -325q-6 -6 -2 -13l229 -325 q4 -9 4 -13t-4 -8t-12 -4h-35q-12 0 -23 12l-233 330q-4 8 -4 10z" />
<glyph unicode="&#xac;" horiz-adv-x="1007" d="M127 639l2 29q5 20 23 20h792q18 0 19 -20l-35 -283q-4 -20 -23 -20h-33q-8 0 -13 6t-3 14l27 225q2 2 0 5t-6 3h-734q-20 0 -16 21z" />
<glyph unicode="&#xad;" horiz-adv-x="770" d="M125 635l4 31q4 20 23 20h557q20 0 16 -20l-4 -31q0 -8 -6 -14.5t-17 -6.5h-555q-18 1 -18 21z" />
<glyph unicode="&#xae;" horiz-adv-x="901" d="M158 1024q0 117 60.5 218t160.5 161.5t213 60.5q96 0 174 -45t121 -122.5t43 -174.5q0 -119 -60.5 -220t-161 -161.5t-212.5 -60.5q-96 0 -174 45t-121 124t-43 175zM209 1032q0 -127 84 -213t209 -86q98 0 184 52.5t138.5 140.5t52.5 190q0 125 -83 210t-210 85 q-96 0 -182.5 -52t-139.5 -139t-53 -188zM428 909l39 322q4 20 22 20h97q41 0 63.5 -25.5t22.5 -66.5q0 -37 -18.5 -64.5t-49.5 -39.5q-6 -2 -4 -11l39 -131v-6q0 -8 -5 -13t-13 -5h-11q-18 0 -20 16l-39 135q-2 6 -8 7h-43q-8 0 -8 -9l-17 -129q-4 -20 -22 -20h-9 q-20 0 -16 20zM498 1094q0 -4 2 -6.5t4 -2.5h57q29 0 46.5 19.5t17.5 52.5q0 25 -13.5 38t-36.5 13h-55q-6 0 -10 -8z" />
<glyph unicode="&#xaf;" horiz-adv-x="509" d="M115 1251l2 25q4 20 22 20h471q20 0 17 -20l-2 -25q-4 -20 -23 -20h-471q-20 0 -16 20z" />
<glyph unicode="&#xb0;" horiz-adv-x="761" d="M190 1290q0 98 48.5 182t130.5 133.5t174 49.5q121 0 198.5 -79t77.5 -200q0 -98 -48 -182t-130 -133t-176 -49q-121 0 -198 78.5t-77 199.5zM254 1298q0 -96 61.5 -159.5t155.5 -63.5q76 0 141.5 40t104.5 107.5t39 145.5q0 96 -62.5 159.5t-158.5 63.5 q-74 0 -138.5 -40t-103.5 -106.5t-39 -146.5z" />
<glyph unicode="&#xb1;" horiz-adv-x="1007" d="M127 21l2 29q4 20 23 20h792q18 0 19 -20l-5 -29q-4 -20 -22 -21h-793q-20 1 -16 21zM127 668l2 29q4 20 23 20h354q8 0 8 8l47 375q0 8 6 14.5t17 6.5h26q18 0 19 -21l-47 -375q0 -8 8 -8h354q19 0 19 -20l-5 -29q-4 -20 -22 -21h-356q-2 0 -5.5 -2t-3.5 -6l-43 -356 q-4 -20 -22 -21h-29q-20 0 -16 21l43 356q0 8 -6 8h-355q-20 0 -16 21z" />
<glyph unicode="&#xb2;" horiz-adv-x="630" d="M39 950l2 23q4 16 12 25l117 131q131 147 195 221q72 84 108.5 146.5t36.5 111.5q0 59 -41 96t-109 37q-74 0 -124 -43t-56 -113l-4 -32q-4 -20 -22 -21h-27q-20 0 -16 21l4 41q14 94 83.5 150t168.5 56q96 0 151 -51t55 -133q0 -115 -147 -287q-131 -154 -293 -331 q-2 -4 -2 -7.5t4 -3.5h371q20 0 16 -20l-2 -17q0 -8 -6 -14t-16 -6h-443q-20 0 -16 20z" />
<glyph unicode="&#xb3;" horiz-adv-x="636" d="M76 1122l2 41q2 20 22 21h27q16 0 16 -16q0 -14 -2 -34t0 -30q4 -57 42 -92t100 -35q98 0 149 82q35 59 43 127q2 16 2 47q0 59 -16 94q-14 39 -47 60.5t-80 21.5q-18 0 -29 -4h-8q-10 0 -16 8l-11 13q-4 8 -4 10q0 10 8 18l240 264q2 2 2 6.5t-4 4.5h-340q-10 0 -15 6 t-3 14l2 17q4 20 22 20h410q20 0 16 -20l-2 -23q-2 -14 -10 -25l-221 -249q-4 -2 -3 -6.5t5 -4.5q113 -8 153 -106q19 -46 19 -109q0 -16 -4 -57q-12 -90 -49 -152q-35 -57 -91.5 -87.5t-126.5 -30.5q-80 0 -130 45t-64 121q-4 29 -4 40z" />
<glyph unicode="&#xb4;" horiz-adv-x="358" d="M181.5 1193q-3.5 7 3.5 17l149 228q8 14 27 14h37q12 0 15 -7t-5 -18l-158 -227q-14 -14 -27 -14h-26q-12 0 -15.5 7z" />
<glyph unicode="&#xb5;" horiz-adv-x="1079" d="M96 -389l170 1397q4 20 23 20h39q8 0 13 -6t3 -14l-82 -666q-2 -16 -2 -47q0 -111 63.5 -174.5t176.5 -63.5q129 0 216 79t103 206l82 666q0 8 6 14t17 6h37q18 0 18 -20l-123 -988q0 -8 -6 -14t-16 -6h-37q-18 0 -19 20l15 109q0 6 -3.5 6t-5.5 -4q-53 -72 -131 -108.5 t-176 -36.5q-156 0 -235 98q-8 6 -13 -4l-57 -469q0 -8 -6 -14.5t-16 -6.5h-37q-20 0 -17 21z" />
<glyph unicode="&#xb6;" horiz-adv-x="1101" d="M158 905q0 23 4 68q14 127 81.5 232.5t168 167t213.5 61.5h379q10 0 15 -6.5t3 -14.5l-221 -1802q-4 -20 -23 -21h-24q-20 0 -17 21l215 1749q0 8 -8 8h-278q-4 0 -7.5 -2t-3.5 -6l-215 -1749q0 -8 -6 -14.5t-16 -6.5h-27q-18 0 -18 21l110 893q0 8 -6 8 q-92 4 -164.5 57.5t-113.5 140.5t-41 195z" />
<glyph unicode="&#xb7;" horiz-adv-x="192" d="M-78 96q0 43 34 76t75 33q37 0 62.5 -24.5t25.5 -61.5q0 -43 -35 -76t-78 -33q-36 0 -60 24.5t-24 61.5z" />
<glyph unicode="&#xb8;" horiz-adv-x="251" d="M-78 -344l6 16q8 18 27 17q25 -6 45 -6q41 0 72.5 20.5t44.5 63.5q6 20 6 43q0 82 -80 165q-8 8 -8 15q0 10 14 10h19q16 0 24 -8q96 -84 96 -182q0 -31 -10 -66q-20 -63 -70.5 -91t-111.5 -28q-31 0 -62 6q-18 5 -12 25z" />
<glyph unicode="&#xb9;" horiz-adv-x="358" d="M139 1714l2 13q4 16 19 22l82 35q12 6 24 6h35q8 0 13 -6t3 -14l-100 -820q-4 -20 -22 -20h-27q-8 0 -13 6t-3 14l94 760q0 4 -3 7.5t-5 0.5l-78 -22l-6 -2q-14 0 -15 20z" />
<glyph unicode="&#xba;" horiz-adv-x="669" d="M102 549l4 24q4 20 23 21h481q8 0 13.5 -6t3.5 -15l-2 -24q-2 -8 -8.5 -14.5t-14.5 -6.5h-481q-19 1 -19 21zM174 981q0 61 8 121q18 123 33 168q31 82 100.5 131t159.5 49q100 0 158.5 -60.5t58.5 -160.5q0 -45 -10 -127q-12 -117 -33 -170q-31 -82 -100.5 -131 t-157.5 -49q-90 0 -145.5 48t-69.5 132q-2 16 -2 49zM236 983q0 -80 41.5 -127t119.5 -47q68 0 120 40t75 107q12 29 26 146q12 102 13 121l-2 22q-8 68 -50 108t-112 40t-120 -40t-75 -108q-12 -37 -26 -143q-10 -82 -10 -119z" />
<glyph unicode="&#xbb;" horiz-adv-x="1099" d="M221 229q0 6 8 15l310 325q4 8 2 13l-232 325l-4 11q0 14 19 14h32q16 0 23 -12l233 -330q4 -4 4 -12q0 -10 -8 -17l-313 -330q-12 -12 -27 -12h-32q-15 0 -15 10zM532 229q0 6 8 15l310 325q4 8 2 13l-232 325l-4 11q0 14 19 14h32q16 0 23 -12l233 -330q4 -4 4 -12 q0 -10 -8 -17l-313 -330q-12 -12 -27 -12h-32q-15 0 -15 10z" />
<glyph unicode="&#xbc;" horiz-adv-x="1556" d="M139 1357l2 13q4 16 19 22l82 35q12 6 24 6h35q8 0 13 -6t3 -14l-100 -820q-4 -20 -22 -20h-27q-8 0 -13 6t-3 14l94 760q0 4 -3 7.5t-5 0.5l-78 -22l-6 -2q-14 0 -15 20zM188 25l1042 1394q10 14 25 15h29q12 0 14 -7.5t-6 -17.5l-1043 -1395q-14 -14 -26 -14h-25 q-24 0 -10 25zM997 260l2 21q4 12 11 24l313 541q6 14 22 14h25q10 0 13 -7t-3 -17l-303 -525q-2 -4 0 -7t4 -3h283q6 0 10 8l23 197q4 20 22 20h27q20 0 16 -20l-22 -197q-2 -2 0 -5t6 -3h37q10 0 15 -6t3 -14l-2 -21q-4 -20 -22 -20h-39q-8 0 -9 -9l-26 -211q0 -8 -6 -14 t-17 -6h-24q-18 0 -19 20l27 211q0 4 -2 6.5t-4 2.5h-342q-10 0 -15.5 6t-3.5 14z" />
<glyph unicode="&#xbd;" horiz-adv-x="1546" d="M139 1357l2 13q4 16 19 22l82 35q12 6 24 6h35q8 0 13 -6t3 -14l-100 -820q-4 -20 -22 -20h-27q-8 0 -13 6t-3 14l94 760q0 4 -3 7.5t-5 0.5l-78 -22l-6 -2q-14 0 -15 20zM188 25l1042 1394q10 14 25 15h29q12 0 14 -7.5t-6 -17.5l-1043 -1395q-14 -14 -26 -14h-25 q-24 0 -10 25zM981 20l2 23q4 16 12 25l117 131q131 147 195 221q72 84 108.5 146.5t36.5 111.5q0 59 -41 96t-109 37q-74 0 -124 -43t-56 -113l-4 -32q-4 -20 -22 -21h-27q-20 0 -16 21l4 41q14 94 83.5 150t168.5 56q96 0 151 -51t55 -133q0 -115 -147 -287 q-131 -154 -293 -331q-2 -4 -2 -7.5t4 -3.5h371q20 0 16 -20l-2 -17q0 -8 -6 -14t-16 -6h-443q-20 0 -16 20z" />
<glyph unicode="&#xbe;" horiz-adv-x="1759" d="M76 786l2 41q2 20 22 21h27q16 0 16 -16q0 -14 -2 -34t0 -30q4 -57 42 -92t100 -35q98 0 149 82q35 59 43 127q2 16 2 47q0 59 -16 94q-14 39 -47 60.5t-80 21.5q-18 0 -29 -4h-8q-10 0 -16 8l-11 13q-4 8 -4 10q0 10 8 18l240 264q2 2 2 6.5t-4 4.5h-340q-10 0 -15 6 t-3 14l2 17q4 20 22 20h410q20 0 16 -20l-2 -23q-2 -14 -10 -25l-221 -249q-4 -2 -3 -6.5t5 -4.5q113 -8 153 -106q19 -46 19 -109q0 -16 -4 -57q-12 -90 -49 -152q-35 -57 -91.5 -87.5t-126.5 -30.5q-80 0 -130 45t-64 121q-4 29 -4 40zM399 25l1042 1394q10 14 25 15h29 q12 0 14 -7.5t-6 -17.5l-1043 -1395q-14 -14 -26 -14h-25q-24 0 -10 25zM1208 260l2 21q4 12 11 24l313 541q6 14 22 14h25q10 0 13 -7t-3 -17l-303 -525q-2 -4 0 -7t4 -3h283q6 0 10 8l23 197q4 20 22 20h27q20 0 16 -20l-22 -197q-2 -2 0 -5t6 -3h37q10 0 15 -6t3 -14 l-2 -21q-4 -20 -22 -20h-39q-8 0 -9 -9l-26 -211q0 -8 -6 -14t-17 -6h-24q-18 0 -19 20l27 211q0 4 -2 6.5t-4 2.5h-342q-10 0 -15.5 6t-3.5 14z" />
<glyph unicode="&#xbf;" horiz-adv-x="860" d="M41 -139q0 16 4 53q12 90 48 155.5t81 108.5t113 94q74 57 111.5 99.5t45.5 101.5l17 141q4 20 22 21h41q11 0 16 -6t3 -15l-19 -143q-10 -84 -54 -136t-134 -120q-68 -53 -105.5 -88t-68.5 -89t-39 -126q-2 -14 -2 -43q0 -102 61.5 -162.5t165.5 -60.5q117 0 198 72.5 t97 191.5l8 76q4 20 23 20l39 -2q8 0 13 -6t3 -14l-8 -74q-18 -150 -125 -244t-258 -94q-137 0 -217 78t-80 211zM438 909q0 43 33 75t76 32q35 0 58.5 -23.5t23.5 -58.5q0 -43 -33 -75t-74 -32q-35 0 -59.5 23.5t-24.5 58.5z" />
<glyph unicode="&#xc0;" horiz-adv-x="1148" d="M43 23l614 1394q6 16 25 17h53q6 0 12.5 -4.5t8.5 -12.5l276 -1394v-5q0 -18 -18 -18h-41q-17 0 -21 16l-55 283q-2 6 -8 6h-639q-6 0 -8 -6l-123 -283q-2 -8 -10.5 -12t-14.5 -4h-39q-23 0 -12 23zM276 383q-2 -4 1.5 -7t7.5 -3h589q4 0 7.5 3t1.5 7l-183 938q-2 4 -5 4 t-7 -4zM536 1844q0 14 19 14h39q18 0 20 -14l94 -228l2 -8q0 -16 -18 -16h-29q-12 0 -22 14l-103 227q-2 4 -2 11z" />
<glyph unicode="&#xc1;" horiz-adv-x="1148" d="M43 23l614 1394q6 16 25 17h53q6 0 12.5 -4.5t8.5 -12.5l276 -1394v-5q0 -18 -18 -18h-41q-17 0 -21 16l-55 283q-2 6 -8 6h-639q-6 0 -8 -6l-123 -283q-2 -8 -10.5 -12t-14.5 -4h-39q-23 0 -12 23zM276 383q-2 -4 1.5 -7t7.5 -3h589q4 0 7.5 3t1.5 7l-183 938q-2 4 -5 4 t-7 -4zM629.5 1599q-3.5 7 3.5 17l149 228q8 14 27 14h37q12 0 15 -7t-5 -18l-158 -227q-14 -14 -27 -14h-26q-12 0 -15.5 7z" />
<glyph unicode="&#xc2;" horiz-adv-x="1148" d="M43 23l614 1394q6 16 25 17h53q6 0 12.5 -4.5t8.5 -12.5l276 -1394v-5q0 -18 -18 -18h-41q-17 0 -21 16l-55 283q-2 6 -8 6h-639q-6 0 -8 -6l-123 -283q-2 -8 -10.5 -12t-14.5 -4h-39q-23 0 -12 23zM276 383q-2 -4 1.5 -7t7.5 -3h589q4 0 7.5 3t1.5 7l-183 938q-2 4 -5 4 t-7 -4zM470 1581.5q-3 8.5 7 16.5l193 221q8 12 26 12h41q20 0 25 -12l137 -221q4 -4 4 -10q0 -14 -18 -15h-29q-20 0 -25 13l-114 186q-2 4 -6 4t-6 -4l-162 -186q-8 -12 -27 -13h-31q-12 0 -15 8.5z" />
<glyph unicode="&#xc3;" horiz-adv-x="1148" d="M43 23l614 1394q6 16 25 17h53q6 0 12.5 -4.5t8.5 -12.5l276 -1394v-5q0 -18 -18 -18h-41q-17 0 -21 16l-55 283q-2 6 -8 6h-639q-6 0 -8 -6l-123 -283q-2 -8 -10.5 -12t-14.5 -4h-39q-23 0 -12 23zM276 383q-2 -4 1.5 -7t7.5 -3h589q4 0 7.5 3t1.5 7l-183 938q-2 4 -5 4 t-7 -4zM460 1702q70 90 162 90q33 0 54.5 -11t58.5 -36q29 -23 48 -34t42 -11q31 0 58.5 13.5t58.5 50.5q10 16 26 6l10 -6q8 -2 9 -15q0 -14 -11 -26q-35 -45 -77.5 -66.5t-79.5 -21.5q-35 0 -60.5 13t-52.5 36q-31 25 -47 34t-43 9q-33 0 -57.5 -11.5t-55.5 -45.5 q-12 -16 -28 -7l-13 11q-12 12 -2 28z" />
<glyph unicode="&#xc4;" horiz-adv-x="1148" d="M43 23l614 1394q6 16 25 17h53q6 0 12.5 -4.5t8.5 -12.5l276 -1394v-5q0 -18 -18 -18h-41q-17 0 -21 16l-55 283q-2 6 -8 6h-639q-6 0 -8 -6l-123 -283q-2 -8 -10.5 -12t-14.5 -4h-39q-23 0 -12 23zM276 383q-2 -4 1.5 -7t7.5 -3h589q4 0 7.5 3t1.5 7l-183 938q-2 4 -5 4 t-7 -4zM477 1727q0 33 24.5 56.5t59.5 23.5q29 0 45.5 -18.5t16.5 -45.5q0 -35 -24 -58.5t-54 -23.5q-33 0 -50.5 18.5t-17.5 47.5zM793 1723q0 35 23.5 59.5t57.5 24.5q27 0 44.5 -17.5t17.5 -44.5q0 -35 -23.5 -59.5t-56.5 -24.5q-29 0 -46 17.5t-17 44.5z" />
<glyph unicode="&#xc5;" horiz-adv-x="1148" d="M43 23l614 1394q6 16 25 17h53q6 0 12.5 -4.5t8.5 -12.5l276 -1394v-5q0 -18 -18 -18h-41q-17 0 -21 16l-55 283q-2 6 -8 6h-639q-6 0 -8 -6l-123 -283q-2 -8 -10.5 -12t-14.5 -4h-39q-23 0 -12 23zM276 383q-2 -4 1.5 -7t7.5 -3h589q4 0 7.5 3t1.5 7l-183 938q-2 4 -5 4 t-7 -4zM510 1756q0 61 31.5 113.5t84 84t111.5 31.5q78 0 128 -50t50 -126q0 -61 -31.5 -113.5t-84 -84t-111.5 -31.5q-76 0 -127 50t-51 126zM565 1764q0 -57 37 -93t92 -36q65 0 115.5 49t50.5 117q0 57 -37 93t-92 36q-66 0 -116 -49.5t-50 -116.5z" />
<glyph unicode="&#xc6;" horiz-adv-x="1794" d="M43 7q-4 7 4 18l895 1394q8 14 27 15h809q20 0 16 -21l-4 -31q0 -8 -6 -14t-17 -6h-694q-8 0 -8 -8l-74 -590q0 -8 8 -8h478q10 0 15 -6.5t3 -14.5l-4 -33q-4 -20 -23 -20h-479q-8 0 -8 -8l-74 -594q0 -8 8 -8h695q18 0 18 -21l-4 -31q-4 -20 -22 -20h-762q-20 0 -17 20 l33 277q2 2 0 5t-6 3h-531q-6 0 -10 -6l-180 -285q-8 -14 -27 -14h-43q-12 0 -16 7zM365 383q-4 -10 2 -10h491q8 0 8 8l119 956q0 6 -3 6t-7 -4z" />
<glyph unicode="&#xc7;" horiz-adv-x="1204" d="M174 350q0 20 4 66l74 604q25 195 161 312.5t337 117.5q180 0 287.5 -99.5t107.5 -267.5q0 -20 -4 -61l-2 -10q0 -4 -6.5 -8.5t-14.5 -4.5l-39 -2q-18 0 -18 13l2 12q4 37 4 53q0 139 -88 221t-238 82q-166 0 -278.5 -98t-132.5 -258l-74 -610q-4 -37 -4 -56 q0 -137 88 -220t240 -83q162 0 275.5 99.5t133.5 259.5v4q4 18 23 18l37 -2q18 0 18 -8l-2 -10q-14 -127 -82 -225.5t-175.5 -152.5t-238.5 -54h-24q-12 0 -4 -9q82 -80 82 -170q0 -39 -11 -67q-20 -63 -69 -91t-111 -28q-31 0 -61 6q-20 2 -13 25l7 16q8 18 26 17 q25 -6 45 -7q41 0 73 20.5t44 63.5q6 20 6 43q0 82 -80 166q-25 25 -20 25l-27 8q-121 33 -189.5 125t-68.5 225z" />
<glyph unicode="&#xc8;" horiz-adv-x="1222" d="M180 20l170 1393q4 20 23 21h831q10 0 15.5 -6.5t3.5 -14.5l-4 -31q-5 -20 -23 -20h-766q-6 0 -10 -8l-72 -590q0 -8 6 -8h549q18 0 19 -21l-4 -33q-2 -8 -8.5 -14t-14.5 -6h-549q-8 0 -8 -8l-74 -594q0 -8 6 -8h768q20 0 17 -21l-4 -31q0 -8 -6.5 -14t-16.5 -6h-831 q-20 0 -17 20zM608 1864q0 14 19 14h39q18 0 20 -14l94 -228l2 -8q0 -16 -18 -16h-29q-12 0 -22 14l-103 227q-2 4 -2 11z" />
<glyph unicode="&#xc9;" horiz-adv-x="1222" d="M180 20l170 1393q4 20 23 21h831q10 0 15.5 -6.5t3.5 -14.5l-4 -31q-5 -20 -23 -20h-766q-6 0 -10 -8l-72 -590q0 -8 6 -8h549q18 0 19 -21l-4 -33q-2 -8 -8.5 -14t-14.5 -6h-549q-8 0 -8 -8l-74 -594q0 -8 6 -8h768q20 0 17 -21l-4 -31q0 -8 -6.5 -14t-16.5 -6h-831 q-20 0 -17 20zM701.5 1619q-3.5 7 3.5 17l149 228q8 14 27 14h37q12 0 15 -7t-5 -18l-158 -227q-14 -14 -27 -14h-26q-12 0 -15.5 7z" />
<glyph unicode="&#xca;" horiz-adv-x="1222" d="M180 20l170 1393q4 20 23 21h831q10 0 15.5 -6.5t3.5 -14.5l-4 -31q-5 -20 -23 -20h-766q-6 0 -10 -8l-72 -590q0 -8 6 -8h549q18 0 19 -21l-4 -33q-2 -8 -8.5 -14t-14.5 -6h-549q-8 0 -8 -8l-74 -594q0 -8 6 -8h768q20 0 17 -21l-4 -31q0 -8 -6.5 -14t-16.5 -6h-831 q-20 0 -17 20zM542 1601.5q-3 8.5 7 16.5l193 221q8 12 26 12h41q20 0 25 -12l137 -221q4 -4 4 -10q0 -14 -18 -15h-29q-20 0 -25 13l-114 186q-2 4 -6 4t-6 -4l-162 -186q-8 -12 -27 -13h-31q-12 0 -15 8.5z" />
<glyph unicode="&#xcb;" horiz-adv-x="1222" d="M180 20l170 1393q4 20 23 21h831q10 0 15.5 -6.5t3.5 -14.5l-4 -31q-5 -20 -23 -20h-766q-6 0 -10 -8l-72 -590q0 -8 6 -8h549q18 0 19 -21l-4 -33q-2 -8 -8.5 -14t-14.5 -6h-549q-8 0 -8 -8l-74 -594q0 -8 6 -8h768q20 0 17 -21l-4 -31q0 -8 -6.5 -14t-16.5 -6h-831 q-20 0 -17 20zM549 1747q0 33 24.5 56.5t59.5 23.5q29 0 45.5 -18.5t16.5 -45.5q0 -35 -24 -58.5t-54 -23.5q-33 0 -50.5 18.5t-17.5 47.5zM865 1743q0 35 23.5 59.5t57.5 24.5q27 0 44.5 -17.5t17.5 -44.5q0 -35 -23.5 -59.5t-56.5 -24.5q-29 0 -46 17.5t-17 44.5z" />
<glyph unicode="&#xcc;" horiz-adv-x="509" d="M180 20l170 1393q4 20 23 21h37q10 0 15 -6.5t3 -14.5l-172 -1393q0 -8 -6 -14t-17 -6h-36q-21 0 -17 20zM211 1864q0 14 19 14h39q18 0 20 -14l94 -228l2 -8q0 -16 -18 -16h-29q-12 0 -22 14l-103 227q-2 4 -2 11z" />
<glyph unicode="&#xcd;" horiz-adv-x="509" d="M180 20l170 1393q4 20 23 21h37q10 0 15 -6.5t3 -14.5l-172 -1393q0 -8 -6 -14t-17 -6h-36q-21 0 -17 20zM304.5 1619q-3.5 7 3.5 17l149 228q8 14 27 14h37q12 0 15 -7t-5 -18l-158 -227q-14 -14 -27 -14h-26q-12 0 -15.5 7z" />
<glyph unicode="&#xce;" horiz-adv-x="509" d="M144 1601.5q-3 8.5 7 16.5l193 221q8 12 26 12h41q20 0 25 -12l137 -221q4 -4 4 -10q0 -14 -18 -15h-29q-20 0 -25 13l-114 186q-2 4 -6 4t-6 -4l-162 -186q-8 -12 -27 -13h-31q-12 0 -15 8.5zM180 20l170 1393q4 20 23 21h37q10 0 15 -6.5t3 -14.5l-172 -1393 q0 -8 -6 -14t-17 -6h-36q-21 0 -17 20z" />
<glyph unicode="&#xcf;" horiz-adv-x="509" d="M151 1747q0 33 24.5 56.5t59.5 23.5q29 0 45.5 -18.5t16.5 -45.5q0 -35 -24 -58.5t-54 -23.5q-33 0 -50.5 18.5t-17.5 47.5zM180 20l170 1393q4 20 23 21h37q10 0 15 -6.5t3 -14.5l-172 -1393q0 -8 -6 -14t-17 -6h-36q-21 0 -17 20zM467 1743q0 35 23.5 59.5t57.5 24.5 q27 0 44.5 -17.5t17.5 -44.5q0 -35 -23.5 -59.5t-56.5 -24.5q-29 0 -46 17.5t-17 44.5z" />
<glyph unicode="&#xd0;" horiz-adv-x="1370" d="M268 737l2 25q4 20 23 20h115q6 0 10 9l76 622q4 20 22 21h455q166 0 260 -84t94 -234q0 -20 -4 -61l-82 -676q-20 -176 -140 -277.5t-304 -101.5h-455q-18 0 -18 20l86 689q0 8 -9 8h-114q-20 0 -17 20zM408 80q0 -8 6 -8h393q145 0 241.5 84t112.5 227l82 666 q4 37 4 53q0 123 -73.5 191.5t-206.5 68.5h-394q-4 0 -7 -2t-3 -6l-69 -563q0 -8 8 -9h268q20 0 16 -20l-2 -25q-4 -20 -22 -20h-268q-6 0 -11 -8z" />
<glyph unicode="&#xd1;" horiz-adv-x="1351" d="M180 20l170 1393q4 20 23 21h39q16 0 22 -15l596 -1249q2 -6 5 -5t5 7l152 1241q4 20 22 21h39q20 0 17 -21l-170 -1393q-4 -20 -23 -20h-43q-12 0 -20 14l-594 1252q-2 6 -6 5t-4 -7l-154 -1244q0 -8 -6 -14t-17 -6h-36q-21 0 -17 20zM569 1722q70 90 162 90 q33 0 54.5 -11t58.5 -36q29 -23 48 -34t42 -11q31 0 58.5 13.5t58.5 50.5q10 16 26 6l10 -6q8 -2 9 -15q0 -14 -11 -26q-35 -45 -77.5 -66.5t-79.5 -21.5q-35 0 -60.5 13t-52.5 36q-31 25 -47 34t-43 9q-33 0 -57.5 -11.5t-55.5 -45.5q-12 -16 -28 -7l-13 11q-12 12 -2 28z " />
<glyph unicode="&#xd2;" horiz-adv-x="1234" d="M176 371q0 20 4 69l70 551q16 135 84.5 239.5t177.5 162t242 57.5q184 0 292.5 -105.5t108.5 -283.5q0 -20 -4 -70l-68 -551q-16 -135 -85.5 -238.5t-179 -160.5t-245.5 -57q-182 0 -289.5 105.5t-107.5 281.5zM254 375q0 -145 89 -232.5t241 -87.5q168 0 284.5 104.5 t137.5 276.5l67 557q4 41 4 62q0 147 -89 235t-243 88q-168 0 -283.5 -105.5t-135.5 -279.5l-68 -557q-4 -41 -4 -61zM581 1860q0 14 19 14h39q18 0 20 -14l94 -228l2 -8q0 -16 -18 -16h-29q-12 0 -22 14l-103 227q-2 4 -2 11z" />
<glyph unicode="&#xd3;" horiz-adv-x="1234" d="M176 371q0 20 4 69l70 551q16 135 84.5 239.5t177.5 162t242 57.5q184 0 292.5 -105.5t108.5 -283.5q0 -20 -4 -70l-68 -551q-16 -135 -85.5 -238.5t-179 -160.5t-245.5 -57q-182 0 -289.5 105.5t-107.5 281.5zM254 375q0 -145 89 -232.5t241 -87.5q168 0 284.5 104.5 t137.5 276.5l67 557q4 41 4 62q0 147 -89 235t-243 88q-168 0 -283.5 -105.5t-135.5 -279.5l-68 -557q-4 -41 -4 -61zM674.5 1615q-3.5 7 3.5 17l149 228q8 14 27 14h37q12 0 15 -7t-5 -18l-158 -227q-14 -14 -27 -14h-26q-12 0 -15.5 7z" />
<glyph unicode="&#xd4;" horiz-adv-x="1234" d="M176 371q0 20 4 69l70 551q16 135 84.5 239.5t177.5 162t242 57.5q184 0 292.5 -105.5t108.5 -283.5q0 -20 -4 -70l-68 -551q-16 -135 -85.5 -238.5t-179 -160.5t-245.5 -57q-182 0 -289.5 105.5t-107.5 281.5zM254 375q0 -145 89 -232.5t241 -87.5q168 0 284.5 104.5 t137.5 276.5l67 557q4 41 4 62q0 147 -89 235t-243 88q-168 0 -283.5 -105.5t-135.5 -279.5l-68 -557q-4 -41 -4 -61zM515 1597.5q-3 8.5 7 16.5l193 221q8 12 26 12h41q20 0 25 -12l137 -221q4 -4 4 -10q0 -14 -18 -15h-29q-20 0 -25 13l-114 186q-2 4 -6 4t-6 -4 l-162 -186q-8 -12 -27 -13h-31q-12 0 -15 8.5z" />
<glyph unicode="&#xd5;" horiz-adv-x="1234" d="M176 371q0 20 4 69l70 551q16 135 84.5 239.5t177.5 162t242 57.5q184 0 292.5 -105.5t108.5 -283.5q0 -20 -4 -70l-68 -551q-16 -135 -85.5 -238.5t-179 -160.5t-245.5 -57q-182 0 -289.5 105.5t-107.5 281.5zM254 375q0 -145 89 -232.5t241 -87.5q168 0 284.5 104.5 t137.5 276.5l67 557q4 41 4 62q0 147 -89 235t-243 88q-168 0 -283.5 -105.5t-135.5 -279.5l-68 -557q-4 -41 -4 -61zM506 1718q70 90 162 90q33 0 54.5 -11t58.5 -36q29 -23 48 -34t42 -11q31 0 58.5 13.5t58.5 50.5q10 16 26 6l10 -6q8 -2 9 -15q0 -14 -11 -26 q-35 -45 -77.5 -66.5t-79.5 -21.5q-35 0 -60.5 13t-52.5 36q-31 25 -47 34t-43 9q-33 0 -57.5 -11.5t-55.5 -45.5q-12 -16 -28 -7l-13 11q-12 12 -2 28z" />
<glyph unicode="&#xd6;" horiz-adv-x="1234" d="M176 371q0 20 4 69l70 551q16 135 84.5 239.5t177.5 162t242 57.5q184 0 292.5 -105.5t108.5 -283.5q0 -20 -4 -70l-68 -551q-16 -135 -85.5 -238.5t-179 -160.5t-245.5 -57q-182 0 -289.5 105.5t-107.5 281.5zM254 375q0 -145 89 -232.5t241 -87.5q168 0 284.5 104.5 t137.5 276.5l67 557q4 41 4 62q0 147 -89 235t-243 88q-168 0 -283.5 -105.5t-135.5 -279.5l-68 -557q-4 -41 -4 -61zM522 1743q0 33 24.5 56.5t59.5 23.5q29 0 45.5 -18.5t16.5 -45.5q0 -35 -24 -58.5t-54 -23.5q-33 0 -50.5 18.5t-17.5 47.5zM838 1739q0 35 23.5 59.5 t57.5 24.5q27 0 44.5 -17.5t17.5 -44.5q0 -35 -23.5 -59.5t-56.5 -24.5q-29 0 -46 17.5t-17 44.5z" />
<glyph unicode="&#xd7;" horiz-adv-x="817" d="M111 377q0 10 8 16l278 256q8 8 2 13l-223 266q-6 6 -6 12q0 8 8 16l23 21q8 6 16 6t12 -6l226 -264q6 -6 12 0l283 258q6 6 14 6t12 -6l19 -21q4 -8 4 -10q0 -10 -8 -18l-283 -258q-6 -6 0 -13l211 -252q4 -8 4 -12q0 -8 -8 -16l-23 -23q-6 -6 -14 -6t-14 6l-213 252 q-2 6 -13 0l-278 -256q-16 -12 -29 0l-16 21q-4 4 -4 12z" />
<glyph unicode="&#xd8;" horiz-adv-x="1239" d="M168 -60.5q-4 7.5 2 17.5l88 156q4 8 -2 10q-76 100 -76 250q0 23 4 67l68 551q16 135 86 239.5t178.5 162t241.5 57.5q123 0 207 -45q10 -4 12 4l51 92q8 16 25 17h28q10 0 15.5 -7.5t-0.5 -17.5l-68 -119q-2 -8 2 -10q61 -51 95 -129t34 -176q0 -23 -4 -68l-68 -551 q-16 -135 -85.5 -238.5t-179 -160.5t-244.5 -57q-158 0 -267 82q-4 6 -12 -3l-63 -114q-6 -16 -23 -17h-31q-10 0 -14 7.5zM258 377q0 -98 41 -170q6 -10 10 0l621 1118q4 10 -2 12q-76 41 -178 41q-168 0 -284 -105.5t-136 -279.5l-68 -557q-4 -41 -4 -59zM348 150 q-2 -8 2 -11q90 -84 238 -84q168 0 284.5 104.5t137.5 276.5l67 557q4 45 4 64q0 145 -88 233q-8 6 -12 -2z" />
<glyph unicode="&#xd9;" horiz-adv-x="1302" d="M209 360q0 23 4 68l121 985q4 20 22 21h39q8 0 13.5 -6.5t3.5 -14.5l-121 -991q-4 -37 -4 -55q0 -141 89 -226.5t242 -85.5q170 0 285 100.5t135 266.5l123 991q4 20 23 21h37q18 0 18 -21l-121 -985q-16 -131 -84.5 -232.5t-178.5 -156.5t-245 -55q-184 0 -292.5 102 t-108.5 274zM618 1868q0 14 19 14h39q18 0 20 -14l94 -228l2 -8q0 -16 -18 -16h-29q-12 0 -22 14l-103 227q-2 4 -2 11z" />
<glyph unicode="&#xda;" horiz-adv-x="1302" d="M209 360q0 23 4 68l121 985q4 20 22 21h39q8 0 13.5 -6.5t3.5 -14.5l-121 -991q-4 -37 -4 -55q0 -141 89 -226.5t242 -85.5q170 0 285 100.5t135 266.5l123 991q4 20 23 21h37q18 0 18 -21l-121 -985q-16 -131 -84.5 -232.5t-178.5 -156.5t-245 -55q-184 0 -292.5 102 t-108.5 274zM711.5 1623q-3.5 7 3.5 17l149 228q8 14 27 14h37q12 0 15 -7t-5 -18l-158 -227q-14 -14 -27 -14h-26q-12 0 -15.5 7z" />
<glyph unicode="&#xdb;" horiz-adv-x="1302" d="M209 360q0 23 4 68l121 985q4 20 22 21h39q8 0 13.5 -6.5t3.5 -14.5l-121 -991q-4 -37 -4 -55q0 -141 89 -226.5t242 -85.5q170 0 285 100.5t135 266.5l123 991q4 20 23 21h37q18 0 18 -21l-121 -985q-16 -131 -84.5 -232.5t-178.5 -156.5t-245 -55q-184 0 -292.5 102 t-108.5 274zM552 1605.5q-3 8.5 7 16.5l193 221q8 12 26 12h41q20 0 25 -12l137 -221q4 -4 4 -10q0 -14 -18 -15h-29q-20 0 -25 13l-114 186q-2 4 -6 4t-6 -4l-162 -186q-8 -12 -27 -13h-31q-12 0 -15 8.5z" />
<glyph unicode="&#xdc;" horiz-adv-x="1302" d="M209 360q0 23 4 68l121 985q4 20 22 21h39q8 0 13.5 -6.5t3.5 -14.5l-121 -991q-4 -37 -4 -55q0 -141 89 -226.5t242 -85.5q170 0 285 100.5t135 266.5l123 991q4 20 23 21h37q18 0 18 -21l-121 -985q-16 -131 -84.5 -232.5t-178.5 -156.5t-245 -55q-184 0 -292.5 102 t-108.5 274zM559 1751q0 33 24.5 56.5t59.5 23.5q29 0 45.5 -18.5t16.5 -45.5q0 -35 -24 -58.5t-54 -23.5q-33 0 -50.5 18.5t-17.5 47.5zM875 1747q0 35 23.5 59.5t57.5 24.5q27 0 44.5 -17.5t17.5 -44.5q0 -35 -23.5 -59.5t-56.5 -24.5q-29 0 -46 17.5t-17 44.5z" />
<glyph unicode="&#xdd;" horiz-adv-x="1081" d="M217 1419q0 14 19 15h36q16 0 23 -15l293 -657q2 -2 6 -2t6 2l455 657q10 14 24 15h39q10 0 14.5 -7.5t-4.5 -17.5l-505 -731q-2 -2 -2 -10l-80 -648q-4 -20 -23 -20h-35q-18 0 -18 20l80 648q0 2 1 5t-1 5l-326 731q-2 4 -2 10zM597.5 1596q-3.5 7 3.5 17l149 228 q8 14 27 14h37q12 0 15 -7t-5 -18l-158 -227q-14 -14 -27 -14h-26q-12 0 -15.5 7z" />
<glyph unicode="&#xde;" horiz-adv-x="1114" d="M164 20l170 1393q4 20 22 21h39q8 0 13.5 -6.5t3.5 -14.5l-37 -309q-2 -2 0 -5t6 -3h381q149 0 236 -87t87 -235q0 -18 -4 -59q-20 -172 -133.5 -274.5t-279.5 -102.5h-379q-4 0 -7 -2t-3 -6l-37 -310q-4 -20 -23 -20h-39q-20 0 -16 20zM289 416q0 -8 8 -8h377 q94 0 170 45t120 125.5t44 185.5q0 119 -70 189.5t-188 70.5h-377q-6 0 -11 -8z" />
<glyph unicode="&#xdf;" horiz-adv-x="1153" d="M147 20l129 1049q20 176 143.5 279.5t295.5 103.5q182 0 277 -83t95 -234q0 -137 -62 -235.5t-169 -135.5q-4 -2 -4 -4t4 -4q76 -35 118 -110t42 -183q0 -49 -4 -74q-25 -184 -150 -286.5t-348 -102.5h-164q-18 0 -18 20l4 29q4 20 22 21h170q184 0 285.5 84t120.5 239 q4 25 4 70q0 256 -279 262h-159q-20 0 -17 20l2 27q4 20 23 21h164q154 0 237.5 74.5t98.5 215.5q2 14 2 41q0 125 -75 191.5t-226 66.5q-137 0 -236.5 -82.5t-118.5 -226.5l-129 -1053q-4 -20 -22 -20h-37q-10 0 -15.5 6t-3.5 14z" />
<glyph unicode="&#xe0;" d="M150 311q0 53 18 201q10 78 21.5 146.5t25.5 113.5q45 125 147.5 198.5t237.5 73.5q92 0 158.5 -40.5t101.5 -112.5q4 -4 7 -4t3 6l15 115q4 20 22 20h37q18 0 19 -20l-121 -988q-2 -8 -8.5 -14t-14.5 -6h-39q-20 0 -16 20l14 115q0 6 -3 6t-7 -4q-51 -72 -129 -112.5 t-168 -40.5q-135 0 -219 73.5t-98 196.5q-4 37 -4 57zM229 332q0 -20 4 -58q6 -96 75 -157.5t177 -61.5q106 0 183 62.5t108 156.5q15 35 24 78t21 160q16 137 17 188q0 37 -4 56q-6 94 -67.5 155.5t-166.5 61.5q-106 0 -189 -60.5t-116 -154.5q-16 -37 -25.5 -82 t-23.5 -160q-16 -131 -17 -184zM493 1438q0 14 19 14h39q18 0 20 -14l94 -228l2 -8q0 -16 -18 -16h-29q-12 0 -22 14l-103 227q-2 4 -2 11z" />
<glyph unicode="&#xe1;" d="M150 311q0 53 18 201q10 78 21.5 146.5t25.5 113.5q45 125 147.5 198.5t237.5 73.5q92 0 158.5 -40.5t101.5 -112.5q4 -4 7 -4t3 6l15 115q4 20 22 20h37q18 0 19 -20l-121 -988q-2 -8 -8.5 -14t-14.5 -6h-39q-20 0 -16 20l14 115q0 6 -3 6t-7 -4q-51 -72 -129 -112.5 t-168 -40.5q-135 0 -219 73.5t-98 196.5q-4 37 -4 57zM229 332q0 -20 4 -58q6 -96 75 -157.5t177 -61.5q106 0 183 62.5t108 156.5q15 35 24 78t21 160q16 137 17 188q0 37 -4 56q-6 94 -67.5 155.5t-166.5 61.5q-106 0 -189 -60.5t-116 -154.5q-16 -37 -25.5 -82 t-23.5 -160q-16 -131 -17 -184zM586.5 1193q-3.5 7 3.5 17l149 228q8 14 27 14h37q12 0 15 -7t-5 -18l-158 -227q-14 -14 -27 -14h-26q-12 0 -15.5 7z" />
<glyph unicode="&#xe2;" d="M150 311q0 53 18 201q10 78 21.5 146.5t25.5 113.5q45 125 147.5 198.5t237.5 73.5q92 0 158.5 -40.5t101.5 -112.5q4 -4 7 -4t3 6l15 115q4 20 22 20h37q18 0 19 -20l-121 -988q-2 -8 -8.5 -14t-14.5 -6h-39q-20 0 -16 20l14 115q0 6 -3 6t-7 -4q-51 -72 -129 -112.5 t-168 -40.5q-135 0 -219 73.5t-98 196.5q-4 37 -4 57zM229 332q0 -20 4 -58q6 -96 75 -157.5t177 -61.5q106 0 183 62.5t108 156.5q15 35 24 78t21 160q16 137 17 188q0 37 -4 56q-6 94 -67.5 155.5t-166.5 61.5q-106 0 -189 -60.5t-116 -154.5q-16 -37 -25.5 -82 t-23.5 -160q-16 -131 -17 -184zM427 1175.5q-3 8.5 7 16.5l193 221q8 12 26 12h41q20 0 25 -12l137 -221q4 -4 4 -10q0 -14 -18 -15h-29q-20 0 -25 13l-114 186q-2 4 -6 4t-6 -4l-162 -186q-8 -12 -27 -13h-31q-12 0 -15 8.5z" />
<glyph unicode="&#xe3;" d="M150 311q0 53 18 201q10 78 21.5 146.5t25.5 113.5q45 125 147.5 198.5t237.5 73.5q92 0 158.5 -40.5t101.5 -112.5q4 -4 7 -4t3 6l15 115q4 20 22 20h37q18 0 19 -20l-121 -988q-2 -8 -8.5 -14t-14.5 -6h-39q-20 0 -16 20l14 115q0 6 -3 6t-7 -4q-51 -72 -129 -112.5 t-168 -40.5q-135 0 -219 73.5t-98 196.5q-4 37 -4 57zM229 332q0 -20 4 -58q6 -96 75 -157.5t177 -61.5q106 0 183 62.5t108 156.5q15 35 24 78t21 160q16 137 17 188q0 37 -4 56q-6 94 -67.5 155.5t-166.5 61.5q-106 0 -189 -60.5t-116 -154.5q-16 -37 -25.5 -82 t-23.5 -160q-16 -131 -17 -184zM417 1296q70 90 162 90q33 0 54.5 -11t58.5 -36q29 -23 48 -34t42 -11q31 0 58.5 13.5t58.5 50.5q10 16 26 6l10 -6q8 -2 9 -15q0 -14 -11 -26q-35 -45 -77.5 -66.5t-79.5 -21.5q-35 0 -60.5 13t-52.5 36q-31 25 -47 34t-43 9 q-33 0 -57.5 -11.5t-55.5 -45.5q-12 -16 -28 -7l-13 11q-12 12 -2 28z" />
<glyph unicode="&#xe4;" d="M150 311q0 53 18 201q10 78 21.5 146.5t25.5 113.5q45 125 147.5 198.5t237.5 73.5q92 0 158.5 -40.5t101.5 -112.5q4 -4 7 -4t3 6l15 115q4 20 22 20h37q18 0 19 -20l-121 -988q-2 -8 -8.5 -14t-14.5 -6h-39q-20 0 -16 20l14 115q0 6 -3 6t-7 -4q-51 -72 -129 -112.5 t-168 -40.5q-135 0 -219 73.5t-98 196.5q-4 37 -4 57zM229 332q0 -20 4 -58q6 -96 75 -157.5t177 -61.5q106 0 183 62.5t108 156.5q15 35 24 78t21 160q16 137 17 188q0 37 -4 56q-6 94 -67.5 155.5t-166.5 61.5q-106 0 -189 -60.5t-116 -154.5q-16 -37 -25.5 -82 t-23.5 -160q-16 -131 -17 -184zM434 1321q0 33 24.5 56.5t59.5 23.5q29 0 45.5 -18.5t16.5 -45.5q0 -35 -24 -58.5t-54 -23.5q-33 0 -50.5 18.5t-17.5 47.5zM750 1317q0 35 23.5 59.5t57.5 24.5q27 0 44.5 -17.5t17.5 -44.5q0 -35 -23.5 -59.5t-56.5 -24.5q-29 0 -46 17.5 t-17 44.5z" />
<glyph unicode="&#xe5;" d="M150 311q0 53 18 201q10 78 21.5 146.5t25.5 113.5q45 125 147.5 198.5t237.5 73.5q92 0 158.5 -40.5t101.5 -112.5q4 -4 7 -4t3 6l15 115q4 20 22 20h37q18 0 19 -20l-121 -988q-2 -8 -8.5 -14t-14.5 -6h-39q-20 0 -16 20l14 115q0 6 -3 6t-7 -4q-51 -72 -129 -112.5 t-168 -40.5q-135 0 -219 73.5t-98 196.5q-4 37 -4 57zM229 332q0 -20 4 -58q6 -96 75 -157.5t177 -61.5q106 0 183 62.5t108 156.5q15 35 24 78t21 160q16 137 17 188q0 37 -4 56q-6 94 -67.5 155.5t-166.5 61.5q-106 0 -189 -60.5t-116 -154.5q-16 -37 -25.5 -82 t-23.5 -160q-16 -131 -17 -184zM467 1350q0 61 31.5 113.5t84 84t111.5 31.5q78 0 128 -50t50 -126q0 -61 -31.5 -113.5t-84 -84t-111.5 -31.5q-76 0 -127 50t-51 126zM522 1358q0 -57 37 -93t92 -36q65 0 115.5 49t50.5 117q0 57 -37 93t-92 36q-66 0 -116 -49.5 t-50 -116.5z" />
<glyph unicode="&#xe6;" horiz-adv-x="1648" d="M100 221q0 168 121 261t328 93h244q8 0 8 9l14 116q4 33 4 50q0 102 -59.5 162.5t-184.5 60.5q-106 0 -182 -46t-102 -124q-8 -20 -25 -17l-37 7q-10 2 -14 8t0 14q35 104 136.5 166.5t238.5 62.5q123 0 195.5 -52t93.5 -142q4 -10 10 0q47 86 138 140t200 54 q133 0 220 -74.5t99 -197.5q4 -37 4 -51q0 -39 -20 -195q0 -10 -6 -16t-17 -6h-628q-8 0 -9 -8l-24 -191l-2 -29q0 -104 75.5 -160.5t192.5 -56.5q100 0 178 48.5t121 132.5q6 18 25 12l26 -8q18 -6 11 -27q-49 -104 -149.5 -168.5t-227.5 -64.5q-119 0 -198 49t-101 139 q-2 4 -4 5t-5 -3q-47 -90 -155.5 -140t-233.5 -50q-129 0 -214 57t-85 180zM178 238q0 -90 63.5 -137.5t170.5 -47.5q131 0 235.5 64.5t118.5 185.5l25 193q0 8 -9 8h-239q-162 0 -263.5 -67.5t-101.5 -198.5zM881 584q-2 -9 6 -9h567q8 0 8 9q8 106 8 137 q0 111 -68.5 181.5t-184.5 70.5q-111 0 -195 -64.5t-115 -169.5q-14 -43 -26 -155z" />
<glyph unicode="&#xe7;" horiz-adv-x="1017" d="M160 336q0 74 12 180q18 147 55 256q45 123 150.5 197.5t245.5 74.5q137 0 227 -72.5t104 -180.5q4 -18 4 -54q0 -18 -20 -22l-37 -4h-4q-14 0 -14 18l-2 29q-8 90 -81 152.5t-188 62.5q-117 0 -201.5 -63.5t-115.5 -168.5q-29 -90 -45 -227q-12 -96 -12 -182 q0 -125 67.5 -201t194.5 -76q115 0 205 62.5t114 154.5l4 11q6 20 27 16l33 -6q20 -4 14 -23q-6 -20 -10 -32q-35 -106 -138.5 -177t-236.5 -77q-10 0 -4 -11q84 -76 84 -168q0 -31 -10 -67q-20 -63 -69.5 -91t-111.5 -28q-31 0 -61 6q-18 2 -14 25l6 16q8 18 28 17 q20 -6 46 -7q53 0 87.5 32t34.5 97q0 88 -98 179q0 4 -8 4q-109 18 -175.5 90t-82.5 180q-4 49 -4 78z" />
<glyph unicode="&#xe8;" horiz-adv-x="1048" d="M158 319q0 61 14 197q12 98 21.5 152.5t25.5 99.5q45 125 150.5 200.5t244.5 75.5q158 0 246 -91t88 -244q0 -39 -18 -193q-4 -23 -23 -22h-651q-8 0 -10 -9q-2 -14 -10.5 -88.5t-4.5 -107.5q8 -106 79 -170t190 -64q102 0 182 49.5t125 133.5q8 18 27 12l24 -8 q18 -6 10 -27q-53 -104 -153.5 -167.5t-227.5 -63.5q-137 0 -221 71.5t-104 192.5q-4 23 -4 71zM256 567q0 -8 8 -8h586q8 0 8 8q14 131 12 172q-10 106 -79.5 170t-184.5 64q-117 0 -202 -63.5t-115 -166.5q-16 -49 -33 -176zM487 1454q0 14 19 14h39q18 0 20 -14l94 -228 l2 -8q0 -16 -18 -16h-29q-12 0 -22 14l-103 227q-2 4 -2 11z" />
<glyph unicode="&#xe9;" horiz-adv-x="1048" d="M158 319q0 61 14 197q12 98 21.5 152.5t25.5 99.5q45 125 150.5 200.5t244.5 75.5q158 0 246 -91t88 -244q0 -39 -18 -193q-4 -23 -23 -22h-651q-8 0 -10 -9q-2 -14 -10.5 -88.5t-4.5 -107.5q8 -106 79 -170t190 -64q102 0 182 49.5t125 133.5q8 18 27 12l24 -8 q18 -6 10 -27q-53 -104 -153.5 -167.5t-227.5 -63.5q-137 0 -221 71.5t-104 192.5q-4 23 -4 71zM256 567q0 -8 8 -8h586q8 0 8 8q14 131 12 172q-10 106 -79.5 170t-184.5 64q-117 0 -202 -63.5t-115 -166.5q-16 -49 -33 -176zM580.5 1209q-3.5 7 3.5 17l149 228q8 14 27 14 h37q12 0 15 -7t-5 -18l-158 -227q-14 -14 -27 -14h-26q-12 0 -15.5 7z" />
<glyph unicode="&#xea;" horiz-adv-x="1048" d="M158 319q0 61 14 197q12 98 21.5 152.5t25.5 99.5q45 125 150.5 200.5t244.5 75.5q158 0 246 -91t88 -244q0 -39 -18 -193q-4 -23 -23 -22h-651q-8 0 -10 -9q-2 -14 -10.5 -88.5t-4.5 -107.5q8 -106 79 -170t190 -64q102 0 182 49.5t125 133.5q8 18 27 12l24 -8 q18 -6 10 -27q-53 -104 -153.5 -167.5t-227.5 -63.5q-137 0 -221 71.5t-104 192.5q-4 23 -4 71zM256 567q0 -8 8 -8h586q8 0 8 8q14 131 12 172q-10 106 -79.5 170t-184.5 64q-117 0 -202 -63.5t-115 -166.5q-16 -49 -33 -176zM421 1191.5q-3 8.5 7 16.5l193 221q8 12 26 12 h41q20 0 25 -12l137 -221q4 -4 4 -10q0 -14 -18 -15h-29q-20 0 -25 13l-114 186q-2 4 -6 4t-6 -4l-162 -186q-8 -12 -27 -13h-31q-12 0 -15 8.5z" />
<glyph unicode="&#xeb;" horiz-adv-x="1048" d="M158 319q0 61 14 197q12 98 21.5 152.5t25.5 99.5q45 125 150.5 200.5t244.5 75.5q158 0 246 -91t88 -244q0 -39 -18 -193q-4 -23 -23 -22h-651q-8 0 -10 -9q-2 -14 -10.5 -88.5t-4.5 -107.5q8 -106 79 -170t190 -64q102 0 182 49.5t125 133.5q8 18 27 12l24 -8 q18 -6 10 -27q-53 -104 -153.5 -167.5t-227.5 -63.5q-137 0 -221 71.5t-104 192.5q-4 23 -4 71zM256 567q0 -8 8 -8h586q8 0 8 8q14 131 12 172q-10 106 -79.5 170t-184.5 64q-117 0 -202 -63.5t-115 -166.5q-16 -49 -33 -176zM428 1337q0 33 24.5 56.5t59.5 23.5 q29 0 45.5 -18.5t16.5 -45.5q0 -35 -24 -58.5t-54 -23.5q-33 0 -50.5 18.5t-17.5 47.5zM744 1333q0 35 23.5 59.5t57.5 24.5q27 0 44.5 -17.5t17.5 -44.5q0 -35 -23.5 -59.5t-56.5 -24.5q-29 0 -46 17.5t-17 44.5z" />
<glyph unicode="&#xec;" horiz-adv-x="421" d="M131 20l121 988q2 8 8 14t14 6h39q20 0 17 -20l-121 -988q-4 -20 -23 -20h-36q-19 0 -19 20zM160 1456q0 14 19 14h39q18 0 20 -14l94 -228l2 -8q0 -16 -18 -16h-29q-12 0 -22 14l-103 227q-2 4 -2 11z" />
<glyph unicode="&#xed;" horiz-adv-x="421" d="M131 20l121 988q2 8 8 14t14 6h39q20 0 17 -20l-121 -988q-4 -20 -23 -20h-36q-19 0 -19 20zM252.5 1211q-3.5 7 3.5 17l149 228q8 14 27 14h37q12 0 15 -7t-5 -18l-158 -227q-14 -14 -27 -14h-26q-12 0 -15.5 7z" />
<glyph unicode="&#xee;" horiz-adv-x="421" d="M93 1193.5q-3 8.5 7 16.5l193 221q8 12 26 12h41q20 0 25 -12l137 -221q4 -4 4 -10q0 -14 -18 -15h-29q-20 0 -25 13l-114 186q-2 4 -6 4t-6 -4l-162 -186q-8 -12 -27 -13h-31q-12 0 -15 8.5zM131 20l121 988q2 8 8 14t14 6h39q20 0 17 -20l-121 -988q-4 -20 -23 -20h-36 q-19 0 -19 20z" />
<glyph unicode="&#xef;" horiz-adv-x="585" d="M188 1339q0 33 24.5 56.5t59.5 23.5q29 0 45.5 -18.5t16.5 -45.5q0 -35 -24 -58.5t-54 -23.5q-33 0 -50.5 18.5t-17.5 47.5zM225 20l121 988q2 8 8 14t14 6h39q20 0 17 -20l-121 -988q-4 -20 -23 -20h-36q-19 0 -19 20zM504 1335q0 35 23.5 59.5t57.5 24.5 q27 0 44.5 -17.5t17.5 -44.5q0 -35 -23.5 -59.5t-56.5 -24.5q-29 0 -46 17.5t-17 44.5z" />
<glyph unicode="&#xf0;" horiz-adv-x="1032" d="M150 301q0 53 18 209q14 109 22.5 158t24.5 94q39 115 133 185.5t217 72.5q82 6 155 -19.5t114 -76.5q2 -4 4 -3t2 5q-25 141 -127 280q-4 8 -11 4l-172 -57l-8 -2q-10 0 -16 16v17l-2 8q0 10 16 16l142 45q4 2 6 6.5t-2 6.5q-61 72 -136 143q-6 6 -6 12q0 4 5.5 8.5 t13.5 4.5h47q12 0 22 -11q96 -92 133 -135q4 -4 11 -2l145 47l8 2q10 0 17 -16l2 -16v-5q0 -14 -17 -20l-114 -37q-10 -6 -9 -8q137 -193 138 -449q0 -43 -2 -65q-1 -59 -19 -211q-12 -100 -21.5 -154.5t-23.5 -99.5q-43 -121 -148.5 -195.5t-240.5 -74.5q-147 0 -234 88 t-87 229zM227 301q0 -113 67.5 -181.5t184.5 -68.5q111 0 195 63.5t117 168.5q12 39 22 121.5t12 101.5l9 67q12 111 12 129t-2 27q-6 102 -74 167t-180 65q-111 0 -193 -63.5t-114 -168.5q-10 -27 -18.5 -80t-12.5 -91t-6 -52q-18 -141 -19 -205z" />
<glyph unicode="&#xf1;" horiz-adv-x="1064" d="M145 20l121 988q4 20 23 20h39q8 0 13 -6t3 -14l-14 -111q0 -6 3 -7t5 3q53 72 132 110.5t179 38.5q135 0 216 -79.5t81 -212.5q0 -16 -4 -54l-84 -676q0 -8 -6 -14t-16 -6h-37q-18 0 -19 20l82 662q2 14 2 43q0 111 -65.5 178.5t-171.5 67.5q-129 0 -217 -79t-105 -206 l-82 -666q-4 -20 -22 -20h-37q-10 0 -15.5 6t-3.5 14zM420 1296q70 90 162 90q33 0 54.5 -11t58.5 -36q29 -23 48 -34t42 -11q31 0 58.5 13.5t58.5 50.5q10 16 26 6l10 -6q8 -2 9 -15q0 -14 -11 -26q-35 -45 -77.5 -66.5t-79.5 -21.5q-35 0 -60.5 13t-52.5 36q-31 25 -47 34 t-43 9q-33 0 -57.5 -11.5t-55.5 -45.5q-12 -16 -28 -7l-13 11q-12 12 -2 28z" />
<glyph unicode="&#xf2;" d="M158 328q0 59 14 188q23 178 49 256q47 123 153.5 197.5t243.5 74.5q139 0 228.5 -74.5t101.5 -197.5q2 -16 2 -53q0 -76 -16 -203q-12 -102 -21.5 -157.5t-25.5 -100.5q-47 -125 -153.5 -199.5t-244.5 -74.5q-139 0 -225 74.5t-102 199.5q-4 20 -4 70zM231 315 q0 -117 71 -188.5t196 -71.5q114 0 200 64.5t119 169.5q16 49 39 225l6 49q2 25 9.5 86.5t2.5 89.5q-8 104 -78.5 169t-187.5 65q-115 0 -199.5 -64.5t-119.5 -169.5q-18 -57 -39 -225q-18 -158 -19 -199zM491 1454q0 14 19 14h39q18 0 20 -14l94 -228l2 -8q0 -16 -18 -16 h-29q-12 0 -22 14l-103 227q-2 4 -2 11z" />
<glyph unicode="&#xf3;" d="M158 328q0 59 14 188q23 178 49 256q47 123 153.5 197.5t243.5 74.5q139 0 228.5 -74.5t101.5 -197.5q2 -16 2 -53q0 -76 -16 -203q-12 -102 -21.5 -157.5t-25.5 -100.5q-47 -125 -153.5 -199.5t-244.5 -74.5q-139 0 -225 74.5t-102 199.5q-4 20 -4 70zM231 315 q0 -117 71 -188.5t196 -71.5q114 0 200 64.5t119 169.5q16 49 39 225l6 49q2 25 9.5 86.5t2.5 89.5q-8 104 -78.5 169t-187.5 65q-115 0 -199.5 -64.5t-119.5 -169.5q-18 -57 -39 -225q-18 -158 -19 -199zM584.5 1209q-3.5 7 3.5 17l149 228q8 14 27 14h37q12 0 15 -7 t-5 -18l-158 -227q-14 -14 -27 -14h-26q-12 0 -15.5 7z" />
<glyph unicode="&#xf4;" d="M158 328q0 59 14 188q23 178 49 256q47 123 153.5 197.5t243.5 74.5q139 0 228.5 -74.5t101.5 -197.5q2 -16 2 -53q0 -76 -16 -203q-12 -102 -21.5 -157.5t-25.5 -100.5q-47 -125 -153.5 -199.5t-244.5 -74.5q-139 0 -225 74.5t-102 199.5q-4 20 -4 70zM231 315 q0 -117 71 -188.5t196 -71.5q114 0 200 64.5t119 169.5q16 49 39 225l6 49q2 25 9.5 86.5t2.5 89.5q-8 104 -78.5 169t-187.5 65q-115 0 -199.5 -64.5t-119.5 -169.5q-18 -57 -39 -225q-18 -158 -19 -199zM425 1191.5q-3 8.5 7 16.5l193 221q8 12 26 12h41q20 0 25 -12 l137 -221q4 -4 4 -10q0 -14 -18 -15h-29q-20 0 -25 13l-114 186q-2 4 -6 4t-6 -4l-162 -186q-8 -12 -27 -13h-31q-12 0 -15 8.5z" />
<glyph unicode="&#xf5;" d="M158 328q0 59 14 188q23 178 49 256q47 123 153.5 197.5t243.5 74.5q139 0 228.5 -74.5t101.5 -197.5q2 -16 2 -53q0 -76 -16 -203q-12 -102 -21.5 -157.5t-25.5 -100.5q-47 -125 -153.5 -199.5t-244.5 -74.5q-139 0 -225 74.5t-102 199.5q-4 20 -4 70zM231 315 q0 -117 71 -188.5t196 -71.5q114 0 200 64.5t119 169.5q16 49 39 225l6 49q2 25 9.5 86.5t2.5 89.5q-8 104 -78.5 169t-187.5 65q-115 0 -199.5 -64.5t-119.5 -169.5q-18 -57 -39 -225q-18 -158 -19 -199zM415 1312q70 90 162 90q33 0 54.5 -11t58.5 -36q29 -23 48 -34 t42 -11q31 0 58.5 13.5t58.5 50.5q10 16 26 6l10 -6q8 -2 9 -15q0 -14 -11 -26q-35 -45 -77.5 -66.5t-79.5 -21.5q-35 0 -60.5 13t-52.5 36q-31 25 -47 34t-43 9q-33 0 -57.5 -11.5t-55.5 -45.5q-12 -16 -28 -7l-13 11q-12 12 -2 28z" />
<glyph unicode="&#xf6;" d="M158 328q0 59 14 188q23 178 49 256q47 123 153.5 197.5t243.5 74.5q139 0 228.5 -74.5t101.5 -197.5q2 -16 2 -53q0 -76 -16 -203q-12 -102 -21.5 -157.5t-25.5 -100.5q-47 -125 -153.5 -199.5t-244.5 -74.5q-139 0 -225 74.5t-102 199.5q-4 20 -4 70zM231 315 q0 -117 71 -188.5t196 -71.5q114 0 200 64.5t119 169.5q16 49 39 225l6 49q2 25 9.5 86.5t2.5 89.5q-8 104 -78.5 169t-187.5 65q-115 0 -199.5 -64.5t-119.5 -169.5q-18 -57 -39 -225q-18 -158 -19 -199zM432 1337q0 33 24.5 56.5t59.5 23.5q29 0 45.5 -18.5t16.5 -45.5 q0 -35 -24 -58.5t-54 -23.5q-33 0 -50.5 18.5t-17.5 47.5zM748 1333q0 35 23.5 59.5t57.5 24.5q27 0 44.5 -17.5t17.5 -44.5q0 -35 -23.5 -59.5t-56.5 -24.5q-29 0 -46 17.5t-17 44.5z" />
<glyph unicode="&#xf7;" horiz-adv-x="1007" d="M129 666l4 28q4 20 23 21h792q20 0 17 -21l-2 -28q-4 -20 -23 -21h-793q-10 0 -15 6t-3 15zM418 373q0 41 30.5 71.5t71.5 30.5q35 0 57.5 -22.5t22.5 -57.5q0 -41 -30.5 -71.5t-71.5 -30.5q-35 0 -57.5 22.5t-22.5 57.5zM496 1001q0 43 30.5 73t69.5 30q35 0 58.5 -21.5 t23.5 -54.5q0 -43 -32 -74.5t-73 -31.5q-32 0 -54.5 22.5t-22.5 56.5z" />
<glyph unicode="&#xf8;" horiz-adv-x="1067" d="M119 2l90 119q6 6 2 12q-33 51 -43 125q-4 37 -4 59q0 43 16 199q23 178 49 256q47 123 153.5 197.5t244.5 74.5q125 0 219 -67q4 -4 10 2l66 88q14 18 26 6l25 -16q12 -12 2 -29l-74 -96q-2 -6 0 -12q47 -68 55 -148q2 -16 2 -53q0 -76 -16 -203q-12 -102 -22.5 -157.5 t-26.5 -100.5q-45 -125 -151.5 -199.5t-245.5 -74.5q-145 0 -236 84q-2 2 -5 2t-5 -4l-78 -103q-4 -8 -12 -10t-17 4l-20 16q-14 12 -4 29zM242 289q4 -47 18 -84q4 -8 12 0l525 698q4 8 -2 10q-66 59 -179 60q-115 0 -199.5 -64.5t-119.5 -169.5q-18 -57 -39 -225 q-23 -164 -16 -225zM307 133q72 -78 199 -78q113 0 200 64.5t119 169.5q16 49 39 225q18 156 19 195q0 23 -2 30q-2 59 -29 111q-2 2 -6 3t-6 -3l-533 -707q-4 -6 0 -10z" />
<glyph unicode="&#xf9;" d="M164 272q0 33 2 52l84 684q2 8 8 14t14 6h39q20 0 17 -20l-82 -666q-2 -16 -2 -45q0 -111 63.5 -175.5t175.5 -64.5q129 0 216 79t104 206l82 666q4 20 22 20h37q18 0 19 -20l-121 -988q-2 -8 -8.5 -14t-14.5 -6h-39q-20 0 -16 20l12 109q2 6 -1 6t-7 -4 q-53 -72 -131 -108.5t-176 -36.5q-133 0 -215 76.5t-82 209.5zM493 1438q0 14 19 14h39q18 0 20 -14l94 -228l2 -8q0 -16 -18 -16h-29q-12 0 -22 14l-103 227q-2 4 -2 11z" />
<glyph unicode="&#xfa;" d="M164 272q0 33 2 52l84 684q2 8 8 14t14 6h39q20 0 17 -20l-82 -666q-2 -16 -2 -45q0 -111 63.5 -175.5t175.5 -64.5q129 0 216 79t104 206l82 666q4 20 22 20h37q18 0 19 -20l-121 -988q-2 -8 -8.5 -14t-14.5 -6h-39q-20 0 -16 20l12 109q2 6 -1 6t-7 -4 q-53 -72 -131 -108.5t-176 -36.5q-133 0 -215 76.5t-82 209.5zM586.5 1193q-3.5 7 3.5 17l149 228q8 14 27 14h37q12 0 15 -7t-5 -18l-158 -227q-14 -14 -27 -14h-26q-12 0 -15.5 7z" />
<glyph unicode="&#xfb;" d="M164 272q0 33 2 52l84 684q2 8 8 14t14 6h39q20 0 17 -20l-82 -666q-2 -16 -2 -45q0 -111 63.5 -175.5t175.5 -64.5q129 0 216 79t104 206l82 666q4 20 22 20h37q18 0 19 -20l-121 -988q-2 -8 -8.5 -14t-14.5 -6h-39q-20 0 -16 20l12 109q2 6 -1 6t-7 -4 q-53 -72 -131 -108.5t-176 -36.5q-133 0 -215 76.5t-82 209.5zM427 1175.5q-3 8.5 7 16.5l193 221q8 12 26 12h41q20 0 25 -12l137 -221q4 -4 4 -10q0 -14 -18 -15h-29q-20 0 -25 13l-114 186q-2 4 -6 4t-6 -4l-162 -186q-8 -12 -27 -13h-31q-12 0 -15 8.5z" />
<glyph unicode="&#xfc;" d="M164 272q0 33 2 52l84 684q2 8 8 14t14 6h39q20 0 17 -20l-82 -666q-2 -16 -2 -45q0 -111 63.5 -175.5t175.5 -64.5q129 0 216 79t104 206l82 666q4 20 22 20h37q18 0 19 -20l-121 -988q-2 -8 -8.5 -14t-14.5 -6h-39q-20 0 -16 20l12 109q2 6 -1 6t-7 -4 q-53 -72 -131 -108.5t-176 -36.5q-133 0 -215 76.5t-82 209.5zM434 1321q0 33 24.5 56.5t59.5 23.5q29 0 45.5 -18.5t16.5 -45.5q0 -35 -24 -58.5t-54 -23.5q-33 0 -50.5 18.5t-17.5 47.5zM750 1317q0 35 23.5 59.5t57.5 24.5q27 0 44.5 -17.5t17.5 -44.5q0 -35 -23.5 -59.5 t-56.5 -24.5q-29 0 -46 17.5t-17 44.5z" />
<glyph unicode="&#xfd;" horiz-adv-x="876" d="M20 -389l3 31q2 8 7 14t11 6h12q76 2 120 27.5t83 90t104 214.5q4 10 2 12l-221 1000v4q0 18 19 18h39q6 0 12 -4t8 -12l191 -893q2 -4 6 -4t6 4l401 893q10 16 27 16h37q20 0 14 -22l-518 -1121q-59 -129 -104.5 -190.5t-96.5 -83t-137 -21.5h-14q-15 1 -11 21z M490.5 1195q-3.5 7 3.5 17l149 228q8 14 27 14h37q12 0 15 -7t-5 -18l-158 -227q-14 -14 -27 -14h-26q-12 0 -15.5 7z" />
<glyph unicode="&#xfe;" horiz-adv-x="1058" d="M96 -389l223 1802q0 8 6.5 14.5t14.5 6.5h39q20 0 16 -21l-61 -510q-2 -6 2 -7t6 5q51 68 126 105.5t165 37.5q135 0 220 -74.5t97 -197.5q2 -16 2 -53q0 -72 -16 -207q-12 -102 -22.5 -157.5t-28.5 -100.5q-43 -123 -145.5 -196.5t-237.5 -73.5q-88 0 -153.5 37.5 t-100.5 105.5q-2 6 -5 5t-5 -7l-64 -514q0 -8 -6 -14.5t-16 -6.5h-37q-18 0 -19 21zM264 322q0 -18 4 -48q8 -94 69.5 -156.5t168.5 -62.5q106 0 190 61.5t115 157.5q14 43 23.5 86t23.5 156q16 125 16 180q0 35 -6 62q-10 94 -77.5 154.5t-174.5 60.5q-104 0 -180 -61.5 t-106 -155.5q-18 -41 -23 -74l-43 -340v-20z" />
<glyph unicode="&#xff;" horiz-adv-x="876" d="M20 -389l3 31q2 8 7 14t11 6h12q76 2 120 27.5t83 90t104 214.5q4 10 2 12l-221 1000v4q0 18 19 18h39q6 0 12 -4t8 -12l191 -893q2 -4 6 -4t6 4l401 893q10 16 27 16h37q20 0 14 -22l-518 -1121q-59 -129 -104.5 -190.5t-96.5 -83t-137 -21.5h-14q-15 1 -11 21z M338 1323q0 33 24.5 56.5t59.5 23.5q29 0 45.5 -18.5t16.5 -45.5q0 -35 -24 -58.5t-54 -23.5q-33 0 -50.5 18.5t-17.5 47.5zM654 1319q0 35 23.5 59.5t57.5 24.5q27 0 44.5 -17.5t17.5 -44.5q0 -35 -23.5 -59.5t-56.5 -24.5q-29 0 -46 17.5t-17 44.5z" />
<glyph unicode="&#x152;" horiz-adv-x="1818" d="M172 342q0 20 4 61l78 625q14 121 76.5 217t161 150.5t217.5 54.5q109 0 191.5 -46t125.5 -128q2 -4 6 -2t4 6l17 133q2 8 8 14.5t14 6.5h725q10 0 15.5 -6.5t3.5 -14.5l-4 -31q-5 -20 -23 -20h-659q-8 0 -9 -8l-73 -590q0 -8 8 -8h442q18 0 19 -21l-4 -33 q-2 -8 -8.5 -14t-14.5 -6h-444q-8 0 -9 -8l-73 -594q0 -8 8 -8h659q20 0 17 -21l-4 -31q0 -8 -6.5 -14t-16.5 -6h-725q-8 0 -13 6t-3 14l16 134q0 4 -3 6t-5 -2q-66 -82 -160 -128t-203 -46q-162 0 -259 99t-97 259zM250 348q0 -129 81 -211t216 -82q151 0 257.5 97.5 t125.5 246.5l76 631q4 33 4 51q0 131 -82 214t-219 83q-98 0 -180.5 -46t-134.5 -125t-62 -177l-78 -631q-4 -37 -4 -51z" />
<glyph unicode="&#x153;" horiz-adv-x="1689" d="M156 311q0 37 12 164l4 41q12 100 21.5 155.5t25.5 100.5q45 123 148.5 197.5t236.5 74.5q111 0 190.5 -55t110.5 -145q6 -8 13 0q55 92 147 146t201 54q150 0 237.5 -90t87.5 -233q0 -61 -18 -201q0 -10 -6 -16t-17 -6h-632q-8 0 -9 -9q-8 -68 -13 -122t-3 -78 q8 -106 75.5 -170t184.5 -64q96 0 175 49.5t122 131.5q6 18 25 12l24 -8q18 -6 10 -27q-51 -104 -149 -166.5t-221 -62.5q-113 0 -191 54t-108 146q-6 10 -13 0q-55 -90 -148 -145t-204 -55q-150 0 -234.5 91t-84.5 236zM231 307q0 -113 68 -182.5t184 -69.5q111 0 196 64.5 t116 169.5q14 43 28 182l6 43q10 76 16.5 137.5t4.5 87.5q-6 104 -74.5 169t-179.5 65t-194 -64.5t-115 -169.5q-16 -59 -37 -225q-18 -143 -19 -207zM918 565q0 -8 6 -8h569q8 0 8 8q14 131 12 174q-10 104 -77.5 169t-178.5 65q-112 0 -195 -64.5t-114 -169.5 q-12 -33 -30 -174z" />
<glyph unicode="&#x178;" horiz-adv-x="1081" d="M217 1419q0 14 19 15h36q16 0 23 -15l293 -657q2 -2 6 -2t6 2l455 657q10 14 24 15h39q10 0 14.5 -7.5t-4.5 -17.5l-505 -731q-2 -2 -2 -10l-80 -648q-4 -20 -23 -20h-35q-18 0 -18 20l80 648q0 2 1 5t-1 5l-326 731q-2 4 -2 10zM444 1724q0 33 24.5 56.5t59.5 23.5 q29 0 45.5 -18.5t16.5 -45.5q0 -35 -24 -58.5t-54 -23.5q-33 0 -50.5 18.5t-17.5 47.5zM760 1720q0 35 23.5 59.5t57.5 24.5q27 0 44.5 -17.5t17.5 -44.5q0 -35 -23.5 -59.5t-56.5 -24.5q-29 0 -46 17.5t-17 44.5z" />
<glyph unicode="&#x2c6;" horiz-adv-x="458" d="M118 1175.5q-3 8.5 7 16.5l193 221q8 12 26 12h41q20 0 25 -12l137 -221q4 -4 4 -10q0 -14 -18 -15h-29q-20 0 -25 13l-114 186q-2 4 -6 4t-6 -4l-162 -186q-8 -12 -27 -13h-31q-12 0 -15 8.5z" />
<glyph unicode="&#x2dc;" horiz-adv-x="671" d="M198 1296q70 90 162 90q33 0 54.5 -11t58.5 -36q29 -23 48 -34t42 -11q31 0 58.5 13.5t58.5 50.5q10 16 26 6l10 -6q8 -2 9 -15q0 -14 -11 -26q-35 -45 -77.5 -66.5t-79.5 -21.5q-35 0 -60.5 13t-52.5 36q-31 25 -47 34t-43 9q-33 0 -57.5 -11.5t-55.5 -45.5 q-12 -16 -28 -7l-13 11q-12 12 -2 28z" />
<glyph unicode="&#x2000;" horiz-adv-x="992" />
<glyph unicode="&#x2001;" horiz-adv-x="1985" />
<glyph unicode="&#x2002;" horiz-adv-x="992" />
<glyph unicode="&#x2003;" horiz-adv-x="1985" />
<glyph unicode="&#x2004;" horiz-adv-x="661" />
<glyph unicode="&#x2005;" horiz-adv-x="496" />
<glyph unicode="&#x2006;" horiz-adv-x="330" />
<glyph unicode="&#x2007;" horiz-adv-x="330" />
<glyph unicode="&#x2008;" horiz-adv-x="248" />
<glyph unicode="&#x2009;" horiz-adv-x="397" />
<glyph unicode="&#x200a;" horiz-adv-x="110" />
<glyph unicode="&#x2010;" horiz-adv-x="770" d="M125 635l4 31q4 20 23 20h557q20 0 16 -20l-4 -31q0 -8 -6 -14.5t-17 -6.5h-555q-18 1 -18 21z" />
<glyph unicode="&#x2011;" horiz-adv-x="770" d="M125 635l4 31q4 20 23 20h557q20 0 16 -20l-4 -31q0 -8 -6 -14.5t-17 -6.5h-555q-18 1 -18 21z" />
<glyph unicode="&#x2012;" horiz-adv-x="770" d="M125 635l4 31q4 20 23 20h557q20 0 16 -20l-4 -31q0 -8 -6 -14.5t-17 -6.5h-555q-18 1 -18 21z" />
<glyph unicode="&#x2013;" horiz-adv-x="870" d="M117 561l4 31q4 20 22 20h658q20 0 16 -20l-4 -31q0 -8 -6 -14t-16 -6h-658q-8 0 -13 6t-3 14z" />
<glyph unicode="&#x2014;" horiz-adv-x="1386" d="M117 561l4 31q4 20 22 20h1172q20 0 16 -20l-2 -31q-4 -20 -22 -20h-1174q-8 0 -13 6t-3 14z" />
<glyph unicode="&#x2018;" horiz-adv-x="221" d="M97 1041.5q-3 7.5 3 17.5l183 358q8 16 24 17h27q10 0 13 -6.5t-1 -16.5l-166 -360q-2 -8 -10 -12.5t-14 -4.5h-45q-11 0 -14 7.5z" />
<glyph unicode="&#x2019;" horiz-adv-x="221" d="M98 1057l166 360q6 16 25 17h45q10 0 13 -7.5t-3 -17.5l-182 -358q-8 -16 -25 -17h-26q-23 0 -13 23z" />
<glyph unicode="&#x201a;" horiz-adv-x="1191" d="M103 -139q-3 6 1 16l148 420q2 8 8 13t14 5h33q25 0 15 -22l-156 -420q-6 -18 -25 -18h-24q-11 0 -14 6z" />
<glyph unicode="&#x201c;" horiz-adv-x="440" d="M97 1041.5q-3 7.5 3 17.5l181 358q8 16 24 17h25q10 0 13 -6.5t-1 -16.5l-164 -360q-2 -8 -10 -12.5t-14 -4.5h-43q-11 0 -14 7.5zM325 1041.5q-3 7.5 3 17.5l178 358q8 16 24 17h23q20 0 14 -23l-164 -360q-10 -16 -26 -17h-39q-10 0 -13 7.5z" />
<glyph unicode="&#x201d;" horiz-adv-x="440" d="M98 1057l164 360q6 16 25 17h41q10 0 13 -7.5t-3 -17.5l-178 -358q-8 -16 -25 -17h-24q-23 0 -13 23zM322 1057l163 360q10 16 27 17h41q10 0 13 -7.5t-1 -17.5l-182 -358q-8 -16 -25 -17h-22q-20 0 -14 23z" />
<glyph unicode="&#x201e;" horiz-adv-x="446" d="M98 -117l164 360q6 16 25 17h41q10 0 13 -7.5t-3 -17.5l-178 -358q-8 -16 -25 -17h-24q-23 0 -13 23zM322 -117l163 360q10 16 27 17h41q10 0 13 -7.5t-1 -17.5l-182 -358q-8 -16 -25 -17h-22q-20 0 -14 23z" />
<glyph unicode="&#x2022;" horiz-adv-x="606" d="M113 508q0 68 33.5 125t90 92t121.5 35q82 0 135.5 -55.5t53.5 -139.5q0 -66 -35 -123t-91 -92t-118 -35q-82 0 -136 55.5t-54 137.5z" />
<glyph unicode="&#x2026;" horiz-adv-x="1517" d="M145 96q0 43 34 76t75 33q37 0 62.5 -24.5t25.5 -61.5q0 -43 -35 -76t-78 -33q-36 0 -60 24.5t-24 61.5zM651 96q0 43 34 76t75 33q37 0 62.5 -24.5t25.5 -61.5q0 -43 -35 -76t-78 -33q-36 0 -60 24.5t-24 61.5zM1144 96q0 43 34 76t75 33q37 0 62.5 -24.5t25.5 -61.5 q0 -43 -35 -76t-78 -33q-36 0 -60 24.5t-24 61.5z" />
<glyph unicode="&#x202f;" horiz-adv-x="397" />
<glyph unicode="&#x2039;" horiz-adv-x="747" d="M190 573q0 8 9 17l315 330q8 12 25 12h34q14 0 15 -10q0 -6 -8 -15l-310 -325q-4 -8 -2 -13l232 -325l4 -11q0 -14 -19 -14h-32q-16 0 -23 12l-233 330q-6 6 -7 12z" />
<glyph unicode="&#x203a;" horiz-adv-x="806" d="M221 229q0 6 8 15l310 325q4 8 2 13l-232 325l-4 11q0 14 19 14h32q16 0 23 -12l233 -330q4 -4 4 -12q0 -10 -8 -17l-313 -330q-12 -12 -27 -12h-32q-15 0 -15 10z" />
<glyph unicode="&#x205f;" horiz-adv-x="496" />
<glyph unicode="&#x20ac;" horiz-adv-x="1265" d="M199 588l2 16q4 20 22 21h139q6 0 11 8l18 162q0 8 -6 8h-139q-18 0 -19 20l2 17q2 8 8.5 14t14.5 6h139q6 0 10 8l23 193q23 174 143.5 281.5t296.5 107.5q160 0 253 -90t93 -240q0 -25 -20 -26l-39 -7h-4q-16 0 -17 19q4 125 -70.5 198.5t-205.5 73.5 q-139 0 -237.5 -87t-114.5 -228l-25 -195q0 -8 8 -8h516q10 0 14.5 -7t-1.5 -17l-10 -17q-6 -16 -23 -16h-504q-8 0 -8 -8l-20 -162q0 -8 8 -8h448q10 0 14.5 -7.5t-1.5 -17.5l-11 -16q-6 -16 -22 -17h-436q-8 0 -9 -8l-22 -188q-4 -33 -4 -49q0 -121 75.5 -195t202.5 -74 q129 0 221.5 73t120.5 196q6 18 25 16l37 -6q20 -4 14 -23q-39 -150 -153.5 -238.5t-272.5 -88.5q-160 0 -254 90t-94 243q0 18 4 60l22 184q0 8 -6 8h-139q-18 0 -18 21z" />
<glyph unicode="&#x2122;" horiz-adv-x="1294" d="M182 1399l2 14q0 8 6.5 14.5t14.5 6.5h438q20 0 16 -21v-14q-2 -8 -8 -14.5t-14 -6.5h-188q-8 0 -9 -8l-78 -635q-4 -20 -22 -20h-21q-8 0 -13 6t-3 14l78 635q0 4 -2 6t-4 2h-176q-21 1 -17 21zM739 735l84 678q4 20 23 21h22q14 0 21 -15l143 -282q0 -2 4 -2t6 2 l211 282q11 15 25 15h25q20 0 16 -21l-82 -678q-4 -20 -23 -20h-20q-20 0 -16 20l69 574q2 6 -2 8t-8 -4l-184 -246q-10 -14 -25 -14q-14 0 -22 14l-125 246q-2 6 -6.5 4t-4.5 -8l-71 -574q0 -8 -6.5 -14t-16.5 -6h-18q-18 0 -19 20z" />
<glyph unicode="&#x25fc;" horiz-adv-x="1024" d="M0 0v1024h1024v-1024h-1024z" />
</font>
</defs>
</svg>
