<?xml version="1.0" standalone="no"?>
<!DOCTYPE svg PUBLIC "-//W3C//DTD SVG 1.1//EN" "http://www.w3.org/Graphics/SVG/1.1/DTD/svg11.dtd" >
<svg xmlns="http://www.w3.org/2000/svg" xmlns:xlink="http://www.w3.org/1999/xlink" version="1.1">
<metadata></metadata>
<defs>
<font id="barlowthin" horiz-adv-x="1024" >
<font-face units-per-em="2048" ascent="1638" descent="-410" />
<missing-glyph horiz-adv-x="409" />
<glyph horiz-adv-x="0" />
<glyph unicode="&#xd;" horiz-adv-x="409" />
<glyph unicode=" "  horiz-adv-x="409" />
<glyph unicode="&#x09;" horiz-adv-x="409" />
<glyph unicode="&#xa0;" horiz-adv-x="409" />
<glyph unicode="!" horiz-adv-x="632" d="M219 100q0 37 26.5 62.5t63.5 25.5t65.5 -25.5t28.5 -62.5t-28.5 -63.5t-65.5 -26.5q-39 0 -64.5 25.5t-25.5 64.5zM285 1417q0 16 16 17h29q16 0 16 -17l-2 -948q0 -16 -16 -16h-25q-16 0 -16 16z" />
<glyph unicode="&#x22;" horiz-adv-x="423" d="M78 1401q0 16 16 16h37q16 0 16 -16l-8 -365q0 -16 -16 -16h-21q-16 0 -16 16zM276 1401q0 16 17 16h37q16 0 16 -16l-8 -365q0 -16 -16 -16h-21q-16 0 -16 16z" />
<glyph unicode="#" horiz-adv-x="1316" d="M178 455l2 24q0 16 17 17h151q2 0 4 2t2 4l64 401q0 6 -4 6h-146q-16 0 -16 17l2 24q0 16 16 17h152q2 0 4 2t2 4l64 397q2 14 18 14l29 -2q16 0 14 -16l-61 -393q0 -6 4 -6h399q2 0 4 2t2 4l64 397q2 14 18 14l29 -2q16 0 14 -16l-61 -393q0 -6 6 -6h151q16 0 17 -17 l-2 -24q-1 -17 -17 -17h-159q-2 0 -4.5 -2t-2.5 -4l-61 -401q0 -6 4 -6h152q16 0 16 -17l-2 -24q0 -16 -16 -17h-158q-2 0 -4 -2t-2 -4l-64 -395q-2 -14 -18 -14l-29 2q-16 0 -14 16l61 391q0 6 -6 6h-399q-2 0 -4 -2t-2 -4l-64 -395q-2 -14 -18 -14l-29 2q-16 0 -14 16 l61 391q0 6 -4 6h-145q-16 0 -17 17zM418 502q0 -6 4 -6h401q2 0 4 2t2 4l62 401q0 6 -4 6h-400q-2 0 -4 -2t-2 -4z" />
<glyph unicode="$" horiz-adv-x="1110" d="M139 338v80q0 16 17 16h24q16 0 17 -16v-72q0 -139 99 -222t273 -83q168 0 258.5 78t90.5 215q0 84 -41 145.5t-124 117.5t-233 130q-139 68 -209.5 113t-109.5 108.5t-39 163.5q0 154 87 240t251 96q6 0 6 6v150q0 16 16 16h19q16 0 16 -16v-148q0 -6 6 -6 q193 -2 298.5 -98.5t105.5 -257.5v-58q0 -16 -17 -16h-28q-16 0 -17 16v49q0 139 -95 223.5t-267 84.5q-154 0 -237 -70t-83 -205q0 -90 39 -145t104.5 -94t217.5 -109q209 -98 302 -193.5t93 -238.5q0 -158 -104.5 -255t-296.5 -99q-6 0 -7 -7v-139q0 -16 -16 -16h-23 q-16 0 -16 16v142q0 6 -6 6q-172 14 -271.5 108t-99.5 244z" />
<glyph unicode="%" horiz-adv-x="1763" d="M231 1182q0 74 37 136t100.5 99t139.5 37q74 0 137.5 -37t100 -99.5t36.5 -135.5q0 -74 -36.5 -137.5t-100 -100.5t-137.5 -37q-76 0 -139.5 37t-100.5 100.5t-37 137.5zM285 1182q0 -94 64.5 -159t158.5 -65q92 0 156.5 66t64.5 158t-64.5 156.5t-156.5 64.5 q-94 0 -158.5 -64.5t-64.5 -156.5zM465 6q-4 6 0 14l780 1401q6 12 19 13h20q10 0 13 -6.5t-1 -14.5l-780 -1401q-6 -12 -18 -12h-21q-8 0 -12 6zM983 254q0 74 37 136.5t100.5 99t139.5 36.5q74 0 137 -36.5t100 -99t37 -136.5t-37 -137.5t-100.5 -100t-136.5 -36.5 q-76 0 -139.5 36.5t-100.5 100t-37 137.5zM1036 254q0 -94 64.5 -158.5t159.5 -64.5q92 0 156.5 65.5t64.5 157.5t-64.5 156.5t-156.5 64.5q-94 0 -159 -64.5t-65 -156.5z" />
<glyph unicode="&#x26;" horiz-adv-x="1304" d="M139 299q0 145 84 249.5t240 215.5q4 4 0 10q-129 162 -170 236.5t-41 150.5q0 131 82 210t219 79t223 -76t86 -200q0 -123 -77.5 -216.5t-225.5 -199.5q-6 -4 -2 -8q76 -92 102 -125l103 -123l168 -205q2 -2 4 -2t4 2q59 68 145 186q10 14 23 4l22 -14q12 -10 5 -24 q-94 -129 -156 -203q-2 -2 0 -8l180 -218q4 -8 4 -10q0 -10 -14 -10h-35q-12 0 -20 10l-152 183q-4 6 -8 2q-102 -115 -195.5 -163t-220.5 -48q-174 0 -275.5 81.5t-101.5 233.5zM201 301q0 -123 85 -191.5t230 -68.5q113 0 196 45t181 156q4 4 0 8q-106 127 -131 162 q-31 37 -41 47l-211 258q-2 6 -8 0q-145 -104 -223 -198.5t-78 -217.5zM313 1161q0 -63 37 -130.5t160 -223.5q4 -4 8 0q94 72 151.5 122t94.5 111.5t37 133.5q0 98 -67.5 157.5t-178.5 59.5q-109 0 -175.5 -61.5t-66.5 -168.5z" />
<glyph unicode="'" horiz-adv-x="225" d="M78 1411q0 16 16 16h37q16 0 16 -16l-8 -360q0 -16 -16 -17h-21q-16 1 -16 17z" />
<glyph unicode="(" horiz-adv-x="430" d="M-14 657q0 254 56 500t148 402q6 10 19 10h24q10 0 13.5 -5t-0.5 -14q-84 -156 -136.5 -398.5t-52.5 -489.5q0 -248 51.5 -484.5t137.5 -388.5q2 -2 2 -8q0 -10 -15 -10h-30q-13 0 -19 10q-88 152 -143 390.5t-55 485.5z" />
<glyph unicode=")" horiz-adv-x="430" d="M182 1559q0 10 15 10h24q12 0 19 -10q92 -156 148 -402t56 -500q0 -248 -55 -486.5t-143 -389.5q-7 -10 -19 -10h-30q-10 0 -13.5 5t0.5 13q86 152 137.5 388.5t51.5 484.5t-52.5 490.5t-136.5 397.5q-2 2 -2 9z" />
<glyph unicode="*" horiz-adv-x="811" d="M80 991q-6 14 6 23l258 149q2 2 2 4t-2 4l-258 150q-12 8 -6 22l8 17q6 14 23 6l260 -152q2 -2 5 0.5t3 4.5v294q0 16 16 17h21q16 0 16 -17v-294q0 -2 3 -4.5t5 -0.5l260 152q6 4 13.5 2t9.5 -8l8 -17q6 -14 -6 -22l-258 -150q-2 -2 -2 -4t2 -4l258 -149q12 -8 6 -23 l-8 -16q-6 -14 -23 -6l-260 151q-2 2 -5 0t-3 -4v-295q0 -16 -16 -16h-21q-16 0 -16 16v295q0 2 -3 4t-5 0l-260 -151q-6 -4 -13.5 -2t-9.5 8z" />
<glyph unicode="+" horiz-adv-x="1040" d="M92 645v23q0 16 17 16h378q6 0 7 6v389q0 16 16 17h22q16 0 17 -17v-389q0 -6 6 -6h379q16 0 16 -16v-23q0 -16 -16 -16h-379q-6 0 -6 -6v-369q0 -16 -17 -16h-22q-16 0 -16 16v369q0 6 -7 6h-378q-16 0 -17 16z" />
<glyph unicode="," horiz-adv-x="540" d="M168 -121l104 420q4 14 19 14h26q18 0 15 -18l-109 -420q-4 -14 -18 -14h-23q-8 0 -12 5t-2 13z" />
<glyph unicode="-" horiz-adv-x="790" d="M92 643v25q0 16 17 16h573q16 0 16 -16v-25q0 -16 -16 -16h-573q-17 0 -17 16z" />
<glyph unicode="." horiz-adv-x="567" d="M186 102q0 37 28 62.5t65 25.5t64.5 -25.5t27.5 -62.5t-28 -63.5t-64 -26.5q-39 0 -66 27t-27 63z" />
<glyph unicode="/" horiz-adv-x="626" d="M78 18l411 1401q4 14 19 15h29q8 0 11 -5.5t1 -13.5l-412 -1401q-4 -14 -18 -14h-29q-8 0 -11 5t-1 13z" />
<glyph unicode="0" horiz-adv-x="1150" d="M174 362v709q0 172 108.5 276.5t288.5 104.5q182 0 293 -104.5t111 -276.5v-709q0 -172 -110.5 -276t-293.5 -104q-180 0 -288.5 104t-108.5 276zM236 358q0 -143 92 -231t243 -88q156 0 249 87t93 232v717q0 145 -93 232.5t-249 87.5q-152 0 -243.5 -88t-91.5 -232v-717 z" />
<glyph unicode="1" horiz-adv-x="710" d="M139 1239v18q0 12 11 19l253 151q9 7 21 7h35q16 0 16 -17v-1401q0 -16 -16 -16h-29q-16 0 -16 16v1332q0 2 -3 4t-5 0l-248 -125q-2 -2 -8 -2q-10 0 -11 14z" />
<glyph unicode="2" horiz-adv-x="1069" d="M137 16v27q0 12 6 20l475 625q197 266 197 420q0 129 -86 207t-227 78q-137 0 -221 -78t-82 -207v-72q0 -16 -17 -16h-28q-16 0 -17 16v76q2 152 102.5 245t262.5 93q168 0 271.5 -94t103.5 -246q0 -180 -203 -448l-152 -199l-303 -397q-2 -2 -1 -5.5t5 -3.5h692 q16 0 17 -16v-25q0 -16 -17 -16h-761q-17 0 -17 16z" />
<glyph unicode="3" horiz-adv-x="1026" d="M123 401q0 16 16 17h29q16 0 16 -17q0 -66 11 -120q20 -109 100 -174.5t199 -65.5q109 0 181.5 50t102.5 149q25 78 25 184q0 137 -37 225q-70 178 -272 178q-33 0 -58 -6q-14 -4 -20 6l-13 17q-10 10 -2 22l381 502q2 2 0 5t-4 3h-637q-16 0 -16 17v24q0 16 16 17h705 q16 0 16 -17v-28q0 -10 -6 -21l-360 -485q-4 -8 4 -9q242 0 323 -202q41 -101 41 -248q0 -113 -24 -197q-37 -121 -124 -182t-222 -61q-137 0 -230.5 73.5t-124.5 196.5q-16 59 -16 147z" />
<glyph unicode="4" horiz-adv-x="1062" d="M119 428v27q0 8 4 20l450 946q6 12 21 13h27q8 0 12 -5.5t0 -13.5l-445 -940q-2 -2 0 -5t5 -3h548q6 0 7 6v379q0 16 16 16h29q16 0 16 -16v-379q0 -6 6 -6h92q17 0 17 -16v-23q0 -16 -17 -16h-92q-6 0 -6 -6v-390q0 -16 -16 -16h-29q-16 0 -16 16v390q0 6 -7 6h-606 q-16 0 -16 16z" />
<glyph unicode="5" d="M160 330q0 16 16 16h31q16 0 16 -16q0 -8 1 -20.5t5 -28.5q23 -109 102 -174.5t197 -65.5q121 0 202 69.5t101 190.5q8 43 9 131q0 68 -9 150q-14 119 -96 180t-207 61q-111 0 -192.5 -49t-108.5 -135q-6 -14 -18 -14h-33q-16 0 -16 16v776q0 16 16 17h645q16 0 17 -17 v-24q0 -16 -17 -17h-594q-6 0 -6 -6v-616q0 -2 3 -3t5 1q47 59 127 94t174 35q143 0 240.5 -70t118.5 -201q12 -86 12 -178q0 -94 -12 -160q-29 -133 -125 -210.5t-236 -77.5q-137 0 -230 73.5t-124 194.5q-12 59 -14 78z" />
<glyph unicode="6" horiz-adv-x="1028" d="M160 434v656q0 166 102.5 263t261.5 97q158 0 253 -93t95 -249v-14q0 -16 -16 -17h-29q-16 0 -16 17v18q0 125 -80 203t-207 78q-133 0 -218 -81t-85 -220v-383q0 -4 3 -5.5t5 3.5q47 94 123 133t180 39q145 0 230.5 -68t122.5 -195q20 -55 20 -186q0 -123 -18 -178 q-80 -268 -348 -268q-141 0 -236.5 71.5t-126.5 196.5q-16 66 -16 182zM221 430q0 -90 10 -151q18 -102 98.5 -170t202.5 -68q111 0 193 60.5t104 179.5q15 57 15 151q0 98 -15 156q-20 102 -99 168.5t-200 66.5q-119 0 -198.5 -66.5t-98.5 -170.5q-12 -57 -12 -156z" />
<glyph unicode="7" horiz-adv-x="942" d="M94 1276v141q0 16 17 17h759q16 0 17 -17v-31q0 -4 -4 -20l-488 -1354q-2 -12 -18 -12h-35q-8 0 -13 5t-1 13l491 1352q4 6 -6 6h-655q-6 0 -6 -6v-94q0 -16 -17 -16h-24q-16 0 -17 16z" />
<glyph unicode="8" horiz-adv-x="1036" d="M143 393q0 111 39 201q57 127 176 174q4 2 4 4t-4 4q-88 37 -143 111q-35 41 -53.5 96t-18.5 115q0 100 50 182q49 80 133 125t188 45q115 0 197 -44t127 -128q47 -84 47 -182q0 -119 -70 -211q-57 -74 -139 -109q-4 -2 -4 -4t4 -4q121 -49 176 -180q33 -84 33 -197 q0 -154 -64 -256q-47 -74 -125 -112.5t-182 -38.5q-106 0 -186 43t-127 123q-57 102 -58 243zM205 391q0 -129 51 -219q78 -131 258 -131q172 0 254 125q55 90 55 227q0 92 -26 166q-31 88 -101.5 136t-177.5 50h-6q-102 0 -172 -46t-102 -128q-33 -74 -33 -180zM205 1094 q0 -100 53 -172q41 -58 107.5 -90.5t146.5 -32.5q86 0 153.5 34.5t108.5 94.5q49 72 49 168q0 84 -39 151q-41 70 -109.5 109t-162.5 39q-90 0 -160.5 -41t-109.5 -111q-37 -70 -37 -149z" />
<glyph unicode="9" horiz-adv-x="1056" d="M152 1004q0 123 18 178q80 268 348 268q141 0 236.5 -71.5t126.5 -196.5q16 -66 16 -183v-655q0 -166 -102.5 -263t-262.5 -97q-158 0 -253 93t-95 249v14q0 16 17 16h28q16 0 17 -16v-18q0 -125 80 -203t206 -78q133 0 218.5 81t85.5 220v383q0 4 -3.5 5t-5.5 -3 q-47 -94 -122.5 -133t-180.5 -39q-145 0 -230 67.5t-122 194.5q-20 55 -20 187zM213 1001q0 -98 14 -155q20 -102 99.5 -169t199.5 -67q119 0 199 66.5t98 171.5q12 59 13 156q0 90 -11 151q-18 102 -98 170t-203 68q-111 0 -192.5 -60.5t-104.5 -179.5q-14 -57 -14 -152z " />
<glyph unicode=":" horiz-adv-x="663" d="M240 129q0 37 27.5 62.5t64.5 25.5t64.5 -25.5t27.5 -62.5t-27.5 -63.5t-64.5 -26.5q-39 0 -65.5 25.5t-26.5 64.5zM240 829q0 37 27.5 63t64.5 26t64.5 -26t27.5 -63t-27.5 -63.5t-64.5 -26.5q-39 0 -65.5 26t-26.5 64z" />
<glyph unicode=";" horiz-adv-x="630" d="M231 840q0 37 27 62.5t64 25.5t65.5 -25.5t28.5 -62.5t-29 -63.5t-65 -26.5q-39 0 -65 26.5t-26 63.5zM233 -109l64 398q4 14 16 14h31q18 0 14 -18l-71 -398q-4 -14 -17 -14h-20q-19 0 -17 18z" />
<glyph unicode="&#x3c;" horiz-adv-x="1040" d="M90 530v35q0 14 12 21l828 395q2 2 8 2q10 0 10 -14v-31q0 -14 -12 -20l-778 -367q-2 -2 -2 -4t2 -4l778 -365q12 -6 12 -20v-31q0 -8 -5 -12t-13 0l-828 395q-12 6 -12 20z" />
<glyph unicode="=" horiz-adv-x="1040" d="M92 436v23q0 16 17 16h825q16 0 16 -16v-23q0 -16 -16 -16h-825q-17 0 -17 16zM92 883v23q0 16 17 16h825q16 0 16 -16v-23q0 -16 -16 -16h-825q-17 0 -17 16z" />
<glyph unicode="&#x3e;" horiz-adv-x="1040" d="M92 127v31q0 14 12 20l779 365q2 2 2 4t-2 4l-779 367q-12 6 -12 20v31q0 8 5 12t14 0l827 -395q12 -6 12 -21v-35q0 -14 -12 -20l-827 -395l-9 -2q-10 0 -10 14z" />
<glyph unicode="?" horiz-adv-x="870" d="M96 1038v82q0 150 93.5 241t244.5 91q152 0 243 -92t91 -246q0 -90 -28.5 -155.5t-67.5 -107.5t-105 -97q-72 -57 -104.5 -98.5t-32.5 -102.5v-154q0 -16 -16 -16h-31q-16 0 -16 16v156q0 80 38.5 132t118.5 120q61 51 96 88t61 92t26 131q0 125 -75 201t-198 76 q-125 0 -200.5 -76t-75.5 -199v-82q0 -16 -17 -16h-28q-16 0 -17 16zM313 98q0 37 27 62.5t63 25.5q37 0 65 -25.5t28 -62.5t-28 -62.5t-65 -25.5q-38 0 -64 25.5t-26 62.5z" />
<glyph unicode="@" horiz-adv-x="1708" d="M160 469q0 242 114.5 411t294 253t367.5 84q180 0 319.5 -76t216 -209t76.5 -303q0 -35 -8 -105q-25 -178 -114 -280.5t-214 -102.5q-72 0 -126 35t-74 98q0 4 -2 4.5t-4 -2.5q-35 -63 -94.5 -98t-141.5 -35q-104 0 -166.5 52.5t-71.5 138.5q-4 51 13 178q16 133 35 182 q29 86 102.5 138.5t167.5 52.5q63 0 113.5 -24.5t78.5 -69.5q2 -2 5.5 -2.5t3.5 4.5l6 65q0 16 18 16h21q18 0 16 -16l-57 -459q-2 -10 -2 -30q0 -78 46 -127t120 -49q98 0 169.5 87t94.5 242q8 49 8 105q0 160 -72.5 281.5t-202 188t-288.5 66.5q-172 0 -336 -77.5 t-270.5 -236.5t-106.5 -392q0 -172 62.5 -306.5t187.5 -212t301 -77.5q104 0 205.5 24.5t150.5 63.5q14 10 23 -4l10 -17q10 -14 -2 -22q-61 -45 -172 -72t-221 -27q-193 0 -328 86.5t-203.5 236t-68.5 339.5zM588 356q2 -72 53 -116.5t133 -44.5q80 0 137.5 46t77.5 115 q12 43 21 101l16 149q4 35 4 68q-2 68 -49 115t-127 47t-139.5 -46.5t-85.5 -113.5q-10 -20 -16.5 -55t-14.5 -105t-10 -102.5t0 -57.5z" />
<glyph unicode="A" horiz-adv-x="1165" d="M82 18l463 1401q4 14 18 15h37q14 0 18 -15l465 -1401l2 -6q0 -4 -5 -8t-11 -4h-27q-14 0 -18 14l-96 293q0 2 -3 3t-5 1h-672q-2 0 -5 -1t-3 -3l-97 -293q-4 -14 -18 -14h-29q-8 0 -12 5t-2 13zM260 373q-2 -6 6 -6h633q10 0 6 6l-319 973q-2 2 -4 2t-4 -2z" />
<glyph unicode="B" horiz-adv-x="1292" d="M231 16v1401q0 16 17 17h463q178 0 285.5 -99.5t107.5 -265.5q0 -117 -60.5 -201t-166.5 -123q-3 -2 -3 -4t3 -4q115 -41 178 -133t63 -221q0 -174 -108.5 -278.5t-286.5 -104.5h-475q-16 0 -17 16zM293 66q0 -6 6 -7h424q151 0 242.5 89.5t91.5 236.5q0 150 -94.5 239 t-249.5 89h-414q-6 0 -6 -6v-641zM293 776q0 -6 6 -6h412q150 0 240.5 82t90.5 215q0 139 -91 224t-240 85h-412q-6 0 -6 -6v-594z" />
<glyph unicode="C" horiz-adv-x="1241" d="M178 412v614q0 125 56.5 221t159 149.5t237.5 53.5q133 0 235.5 -53.5t158.5 -149.5t56 -221v-6q0 -16 -16 -16l-29 -3q-16 0 -16 15v12q0 164 -106.5 264.5t-282.5 100.5t-283.5 -100.5t-107.5 -264.5v-622q0 -164 107.5 -265.5t283.5 -101.5q174 0 281.5 101.5 t107.5 265.5v8q0 16 16 16l29 -2q16 0 16 -8v-10q0 -127 -56 -224.5t-158.5 -150.5t-235.5 -53q-135 0 -237.5 53t-159 151.5t-56.5 225.5z" />
<glyph unicode="D" horiz-adv-x="1265" d="M231 16v1401q0 16 17 17h469q186 0 293.5 -99.5t107.5 -273.5v-688q0 -174 -107.5 -273.5t-293.5 -99.5h-469q-17 0 -17 16zM293 63q0 -6 6 -6h422q156 0 246 85t90 233v682q0 150 -90 234.5t-246 84.5h-422q-6 0 -6 -6v-1307z" />
<glyph unicode="E" horiz-adv-x="1265" d="M231 16v1401q0 16 17 17h858q16 0 16 -17v-24q0 -17 -16 -17h-807q-6 0 -6 -6v-616q0 -6 6 -6h584q16 0 16 -17v-24q0 -16 -16 -17h-584q-6 0 -6 -6v-621q0 -6 6 -6h807q16 0 16 -16v-25q0 -16 -16 -16h-858q-16 0 -17 16z" />
<glyph unicode="F" horiz-adv-x="1173" d="M231 16v1401q0 16 17 17h856q16 0 16 -17v-24q0 -17 -16 -17h-805q-6 0 -6 -6v-616q0 -6 6 -6h582q16 0 16 -17v-24q0 -16 -16 -17h-582q-6 0 -6 -6v-668q0 -16 -17 -16h-28q-16 0 -17 16z" />
<glyph unicode="G" horiz-adv-x="1239" d="M178 403v627q0 125 56.5 220.5t159 147.5t237.5 52q133 0 235.5 -52t157.5 -147.5t55 -218.5v-35q0 -16 -16 -16h-29q-16 0 -16 16v37q0 162 -106.5 260.5t-280.5 98.5q-176 0 -283.5 -99.5t-107.5 -261.5v-631q0 -162 107.5 -261t283.5 -99q174 0 280.5 97.5 t106.5 258.5v238q0 6 -6 6h-348q-16 0 -17 16v23q0 16 17 16h399q16 0 16 -16v-274q0 -127 -55 -222.5t-157.5 -147.5t-235.5 -52q-135 0 -237.5 52t-159 147.5t-56.5 219.5z" />
<glyph unicode="H" horiz-adv-x="1370" d="M231 16v1401q0 16 17 17h28q16 0 17 -17v-663q0 -6 6 -6h772q6 0 6 6v663q1 17 17 17h28q16 0 17 -17v-1401q0 -16 -17 -16h-28q-16 0 -17 16v668q0 6 -6 6h-772q-6 0 -6 -6v-668q0 -16 -17 -16h-28q-16 0 -17 16z" />
<glyph unicode="I" horiz-adv-x="524" d="M231 16v1401q0 16 17 17h28q16 0 17 -17v-1401q0 -16 -17 -16h-28q-17 0 -17 16z" />
<glyph unicode="J" horiz-adv-x="1175" d="M72 389v111q0 16 16 16h29q16 0 16 -16v-113q0 -156 103.5 -251t271.5 -95t271.5 95t103.5 251v1030q0 16 16 17h29q16 0 16 -17v-1028q0 -121 -54 -213t-153.5 -142t-228.5 -50t-228.5 50t-153.5 142t-54 213z" />
<glyph unicode="K" horiz-adv-x="1232" d="M231 16v1401q0 16 17 17h28q16 0 17 -17v-768q0 -2 3 -3t5 1l752 778q8 8 20 9h31q10 0 14 -6.5t-4 -14.5l-530 -561q-2 -2 0 -8l581 -824l4 -10q0 -10 -14 -10h-39q-12 0 -18 6l-4 6l-553 783q-4 6 -9 2l-235 -232l-4 -8v-541q0 -16 -17 -16h-28q-17 0 -17 16z" />
<glyph unicode="L" horiz-adv-x="1159" d="M231 16v1401q0 16 17 17h28q16 0 17 -17v-1354q0 -6 6 -6h758q16 0 16 -16v-25q0 -16 -16 -16h-809q-17 0 -17 16z" />
<glyph unicode="M" horiz-adv-x="1464" d="M231 16v1401q0 16 17 17h33q14 0 18 -11l428 -667q2 -2 4 -2t4 2l430 667q6 10 19 11h33q16 0 16 -17v-1401q0 -16 -16 -16h-29q-16 0 -17 16v1291q0 4 -3 5t-5 -3l-399 -625q-4 -10 -19 -10h-22q-12 0 -18 10l-404 625q-2 4 -5 3t-3 -5v-1291q0 -16 -17 -16h-28 q-17 0 -17 16z" />
<glyph unicode="N" horiz-adv-x="1396" d="M231 16v1401q0 16 17 17h33q14 0 18 -11l797 -1294q2 -4 5 -3t3 5v1286q0 16 16 17h29q16 0 16 -17v-1401q0 -16 -16 -16h-31q-12 0 -18 10l-799 1295q-2 4 -5 3t-3 -5v-1287q0 -16 -17 -16h-28q-17 0 -17 16z" />
<glyph unicode="O" horiz-adv-x="1273" d="M178 434v563q0 133 57.5 236.5t161 160t238.5 56.5q137 0 241.5 -56.5t162 -160t57.5 -236.5v-563q0 -133 -57.5 -234.5t-162 -157.5t-241.5 -56q-135 0 -238.5 56t-161 157.5t-57.5 234.5zM240 432q0 -176 108.5 -283.5t286.5 -107.5q180 0 289.5 107.5t109.5 283.5v567 q0 176 -109.5 285t-289.5 109q-178 0 -286.5 -108.5t-108.5 -285.5v-567z" />
<glyph unicode="P" horiz-adv-x="1206" d="M215 16v1405q0 16 16 17h517q167 0 268.5 -103.5t101.5 -273.5t-102.5 -272.5t-267.5 -102.5h-465q-6 0 -7 -6v-664q0 -16 -16 -16h-29q-16 0 -16 16zM276 750q0 -6 7 -7h465q139 0 224 87.5t85 228.5q0 145 -85 233t-224 88h-465q-6 0 -7 -6v-624z" />
<glyph unicode="Q" horiz-adv-x="1159" d="M139 416v600q0 129 55.5 227t155 152.5t230.5 54.5t230 -54.5t154.5 -152.5t55.5 -227v-600q0 -184 -110.5 -302t-293.5 -130q-6 0 -6 -7v-217q0 -16 -16 -16h-29q-16 0 -16 16v217q0 6 -6 7q-182 12 -293 129.5t-111 302.5zM201 414q0 -168 104.5 -270.5t274.5 -102.5 t274 102.5t104 270.5v606q0 168 -104 270.5t-274 102.5t-274.5 -102.5t-104.5 -270.5v-606z" />
<glyph unicode="R" horiz-adv-x="1251" d="M231 16v1405q0 16 17 17h500q166 0 267 -103.5t101 -269.5q0 -150 -83 -248t-222 -117q-6 0 -4 -6l326 -676q4 -8 0.5 -13t-11.5 -5h-26q-15 0 -21 12l-332 680q-4 4 -6 4h-438q-6 0 -6 -6v-674q0 -16 -17 -16h-28q-16 0 -17 16zM293 758q0 -6 6 -6h449q137 0 222 87 t85 226q0 141 -85 228t-222 87h-449q-6 0 -6 -6v-616z" />
<glyph unicode="S" horiz-adv-x="1191" d="M139 342v76q0 16 17 16h24q16 0 17 -16v-72q0 -139 111.5 -222t305.5 -83q184 0 284.5 78t100.5 215q0 84 -40.5 145.5t-130 116.5t-250.5 125q-164 72 -243 116t-124 109.5t-45 167.5q0 164 108.5 250t311.5 86q221 0 341 -97.5t120 -262.5v-54q0 -16 -17 -16h-29 q-16 0 -16 16v49q0 139 -105.5 223.5t-297.5 84.5q-172 0 -264.5 -70t-92.5 -205q0 -88 41 -144t116 -96t234 -106q233 -98 339 -192.5t106 -241.5q0 -160 -118 -257t-335 -97t-343 97t-126 261z" />
<glyph unicode="T" horiz-adv-x="1146" d="M106 1393v24q0 16 17 17h901q16 -1 16 -17v-24q0 -16 -16 -17h-424q-6 0 -6 -6v-1354q0 -16 -16 -16h-29q-16 0 -17 16v1354q0 6 -6 6h-403q-16 0 -17 17z" />
<glyph unicode="U" horiz-adv-x="1349" d="M213 424v993q0 16 16 17h29q16 0 16 -17v-999q0 -170 110 -273.5t290 -103.5t289.5 103.5t109.5 273.5v999q0 16 17 17h28q16 0 17 -17v-993q0 -131 -57.5 -230.5t-162 -154.5t-241.5 -55t-241.5 55t-162 154.5t-57.5 230.5z" />
<glyph unicode="V" horiz-adv-x="1165" d="M80 1421q0 4 5 8.5t11 4.5h29q14 0 18 -15l435 -1317q2 -2 4 -2t4 2l438 1317q4 14 18 15h27q8 0 12 -5.5t2 -13.5l-467 -1401q-4 -14 -18 -14h-33q-14 0 -18 14l-465 1401z" />
<glyph unicode="W" horiz-adv-x="1798" d="M59 1421q0 12 15 13h30q14 0 19 -15l379 -1292q2 -2 4 -2t4 2l348 1292q4 14 19 15h32q14 0 19 -15l356 -1292q2 -2 4 -2t4 2l385 1292q4 14 19 15h28q8 0 11.5 -5.5t1.5 -13.5l-416 -1401q-4 -14 -18 -14h-33q-14 0 -19 14l-352 1307q-2 2 -4 2t-4 -2l-352 -1307 q-4 -14 -19 -14h-31q-14 0 -18 14l-410 1401z" />
<glyph unicode="X" horiz-adv-x="1155" d="M86 1421q0 4 4 8.5t10 4.5h33q14 0 19 -11l421 -653q2 -2 4.5 -2t4.5 2l422 653q6 10 18 11h33q10 0 13 -6.5t-1 -14.5l-455 -694q-2 -4 0 -8l455 -691q2 -2 2 -8q0 -4 -4 -8t-10 -4h-33q-12 0 -18 10l-422 652q-2 2 -4.5 2t-4.5 -2l-421 -652q-4 -10 -19 -10h-33 q-8 0 -12 6t0 14l455 693q2 4 0 8l-455 692q-2 2 -2 8z" />
<glyph unicode="Y" horiz-adv-x="1101" d="M86 1421q0 12 12 13h29q12 0 18 -11l402 -675q2 -2 4 -2.5t4 2.5l401 675q6 10 19 11h29q8 0 11 -6.5t-1 -14.5l-430 -725l-2 -8v-664q0 -16 -17 -16h-28q-17 0 -17 16v664l-2 8l-430 725z" />
<glyph unicode="Z" horiz-adv-x="1114" d="M109 16v31q0 8 6 21l803 1300q2 2 -0.5 5t-4.5 3h-788q-16 0 -16 17v24q0 16 16 17h848q16 0 16 -17v-31q0 -8 -6 -20l-803 -1300q-2 -2 0 -5.5t4 -3.5h789q16 0 16 -16v-25q0 -16 -16 -16h-848q-16 0 -16 16z" />
<glyph unicode="[" horiz-adv-x="733" d="M63 -201v1739q0 16 17 16h344q16 0 16 -16v-25q0 -16 -16 -16h-293q-6 0 -6 -6v-1645q0 -6 6 -6h295q16 0 16 -16v-25q0 -16 -16 -16h-346q-17 0 -17 16z" />
<glyph unicode="\" horiz-adv-x="626" d="M76 1421q0 12 14 13h29q14 0 18 -15l412 -1401l2 -6q0 -12 -14 -12h-29q-14 0 -19 14l-411 1401z" />
<glyph unicode="]" horiz-adv-x="733" d="M291 -176q0 16 16 16h295q6 0 6 6v1645q0 6 -6 6h-293q-16 0 -16 16v25q0 16 16 16h344q16 0 17 -16v-1739q-1 -16 -17 -16h-346q-16 0 -16 16v25z" />
<glyph unicode="^" horiz-adv-x="894" d="M100 646q-4 5 0 13l310 762q4 12 20 13h33q16 0 20 -13l312 -762q2 -2 2 -8q0 -10 -15 -10h-24q-16 0 -21 12l-286 711q-2 2 -4.5 2t-4.5 -2l-286 -711q-4 -12 -21 -12h-22q-9 0 -13 5z" />
<glyph unicode="_" horiz-adv-x="944" d="M72 16v25q0 16 16 16h770q16 0 16 -16v-25q0 -16 -16 -16h-770q-16 0 -16 16z" />
<glyph unicode="`" horiz-adv-x="356" d="M82 1442q0 12 13 12h30q10 0 19 -12l133 -234q2 -2 2 -8q0 -4 -4 -8t-10 -4h-25q-12 0 -18 10l-138 236z" />
<glyph unicode="a" d="M119 266q0 147 111.5 232.5t308.5 85.5h256q6 0 6 6v117q0 127 -69.5 202.5t-219.5 75.5q-115 0 -190.5 -48t-92.5 -132q-4 -16 -18 -14l-31 6q-16 4 -14 14q20 104 114.5 167.5t237.5 63.5q174 0 259 -91t85 -249v-686q0 -16 -16 -16h-29q-16 0 -16 16v113q0 4 -3 4 t-5 -2q-51 -72 -142.5 -109.5t-199.5 -37.5q-139 0 -235.5 68.5t-96.5 213.5zM180 268q0 -113 77 -171t198 -58q139 0 242.5 67.5t103.5 190.5v225q0 6 -6 6h-258q-160 0 -258.5 -68.5t-98.5 -191.5z" />
<glyph unicode="b" horiz-adv-x="1091" d="M197 16v1401q0 16 16 17h29q16 0 16 -17v-540q0 -4 2 -5.5t4 2.5q45 80 121 124t178 44q137 0 233.5 -74.5t123.5 -195.5q10 -45 12 -100.5t2 -161.5q0 -104 -2 -157.5t-12 -98.5q-31 -123 -125.5 -196.5t-231.5 -73.5q-100 0 -178 44t-121 122q-2 4 -4 3t-2 -6v-131 q0 -16 -16 -16h-29q-16 0 -16 16zM258 512q0 -119 3 -161t9 -77q20 -100 95 -166.5t192 -66.5q119 0 203 65.5t100 167.5q6 39 9 81t3 159q0 121 -3 162t-11 76q-20 100 -102 166.5t-199 66.5q-115 0 -190.5 -66.5t-94.5 -166.5q-8 -37 -11 -79t-3 -161z" />
<glyph unicode="c" horiz-adv-x="1044" d="M160 516q0 158 24 256q31 123 127.5 196.5t237.5 73.5q139 0 240.5 -71.5t128.5 -177.5l10 -56v-4q0 -10 -15 -14l-28 -2h-4q-10 0 -15 14l-6 33q-18 94 -103 157.5t-208 63.5q-125 0 -208 -66.5t-103 -175.5q-16 -86 -17 -229q0 -145 17 -231q23 -111 104.5 -176.5 t206.5 -65.5q123 0 210 64.5t103 158.5l2 4v13q2 10 19 10l26 -2q14 -2 15 -15v-6q0 -10 -6 -35q-23 -109 -125.5 -179t-243.5 -70q-139 0 -236.5 73.5t-128.5 196.5q-24 87 -24 249v13z" />
<glyph unicode="d" horiz-adv-x="1091" d="M158 510q0 106 2 161.5t12 100.5q27 121 123 195.5t233 74.5q102 0 178 -44t121 -124q2 -4 4.5 -3t2.5 6v540q0 17 16 17h29q16 0 16 -17v-1401q0 -16 -16 -16h-29q-16 0 -16 16v131q0 4 -2.5 5.5t-4.5 -2.5q-43 -78 -120.5 -122t-178.5 -44q-137 0 -231 73.5t-125 196.5 q-10 45 -12 98.5t-2 157.5zM219 514q0 -117 3 -159t9 -81q16 -102 100.5 -167.5t203.5 -65.5q117 0 191.5 66.5t94.5 166.5q6 35 9.5 77t3.5 161t-3.5 161t-11.5 79q-18 100 -94 166.5t-190 66.5q-117 0 -199 -66.5t-103 -166.5q-8 -35 -11 -76t-3 -162z" />
<glyph unicode="e" horiz-adv-x="1077" d="M160 516q0 96 3 152.5t13 101.5q29 123 126 197.5t239 74.5q147 0 245.5 -76.5t124.5 -205.5q8 -37 10.5 -93.5t2.5 -150.5q0 -16 -17 -16h-680q-6 0 -6 -6q0 -72 2 -128.5t8 -82.5q20 -109 103.5 -175.5t208.5 -66.5q110 0 190 51t113 137l4 9q4 6 10 6h10l21 -4 q16 -4 10 -21q-39 -106 -134 -170.5t-226 -64.5q-139 0 -234.5 72.5t-128.5 193.5q-12 47 -15 103.5t-3 162.5zM221 559q0 -6 6 -6h629q6 0 6 6q0 139 -10 184q-23 109 -105.5 175.5t-205.5 66.5q-125 0 -207 -66.5t-103 -173.5q-10 -49 -10 -186z" />
<glyph unicode="f" horiz-adv-x="692" d="M80 985v25q0 16 16 16h140q6 0 6 6v72q0 168 61.5 249t222.5 81h52q16 0 16 -17v-24q0 -16 -16 -17h-50q-133 0 -180 -65.5t-47 -208.5v-70q0 -6 6 -6h260q16 0 17 -16v-25q0 -16 -17 -16h-260q-6 0 -6 -6v-947q0 -16 -16 -16h-27q-16 0 -16 16v947q0 6 -6 6h-140 q-16 0 -16 16z" />
<glyph unicode="g" horiz-adv-x="1071" d="M152 510q0 182 22 264q31 119 125 193.5t229 74.5q102 0 179 -43t120 -120q2 -2 5.5 -2t3.5 4v129q0 16 16 16h29q16 0 16 -16v-1004q0 -213 -123 -318q-114 -99 -337 -99q-17 0 -34 1q-16 0 -16 17l2 26q0 16 17 17h27q201 0 299 84q104 90 104 272v144q0 4 -3.5 4 t-5.5 -2q-43 -78 -118.5 -122t-178.5 -44q-135 0 -230 72.5t-126 195.5q-22 79 -22 242v14zM213 516q0 -168 18 -233q23 -104 105 -173t201 -69q121 0 197.5 69.5t92.5 172.5q4 32 6.5 79.5t2.5 149.5t-2.5 149.5t-6.5 81.5q-16 104 -94 173t-196 69q-117 0 -198 -67.5 t-108 -174.5q-18 -74 -18 -227z" />
<glyph unicode="h" horiz-adv-x="1095" d="M197 16v1401q0 16 16 17h29q16 0 16 -17v-530q0 -4 2 -6t4 2q45 76 124 116.5t183 40.5q154 0 250.5 -95t96.5 -249v-680q0 -16 -17 -16h-29q-16 0 -16 16v670q0 131 -82 214t-211 83q-137 0 -221 -81t-84 -212v-674q0 -16 -16 -16h-29q-16 0 -16 16z" />
<glyph unicode="i" horiz-adv-x="485" d="M170 1331q0 27 21.5 46.5t52.5 19.5t51 -18.5t20 -47.5t-20.5 -49t-50.5 -20q-31 0 -52.5 20.5t-21.5 48.5zM213 16v994q0 16 16 16h29q16 0 16 -16v-994q0 -16 -16 -16h-29q-16 0 -16 16z" />
<glyph unicode="j" horiz-adv-x="454" d="M-43 -391q0 16 16 16q106 4 165 65.5t59 168.5v1151q0 16 16 16h29q16 0 16 -16v-1151q0 -133 -73.5 -210t-211.5 -81q-16 0 -16 16v25zM158 1331q0 31 19.5 48.5t49.5 17.5q35 0 55.5 -17.5t20.5 -48.5q0 -33 -20.5 -51t-55.5 -18q-30 0 -49.5 18t-19.5 51z" />
<glyph unicode="k" horiz-adv-x="987" d="M197 16v1401q0 16 16 17h29q16 0 16 -17v-928q0 -2 3 -3t5 1l527 531q8 8 20 8h39q10 0 13 -6t-5 -14l-262 -267q-4 -6 -2 -8l317 -713q2 -2 2 -8q0 -10 -14 -10h-31q-16 0 -20 12l-297 676q-2 6 -8 0l-283 -285l-4 -8v-379q0 -16 -16 -16h-29q-16 0 -16 16z" />
<glyph unicode="l" horiz-adv-x="454" d="M197 16v1401q0 16 16 17h29q16 0 16 -17v-1401q0 -16 -16 -16h-29q-16 0 -16 16z" />
<glyph unicode="m" horiz-adv-x="1695" d="M197 16v994q0 16 16 16h29q16 0 16 -16v-115q0 -4 2 -4t4 2q43 72 119 109.5t176 37.5q111 0 190.5 -50t112.5 -142q2 -4 4 -4t4 4q37 94 120 143t198 49q147 0 238.5 -89t91.5 -240v-695q0 -16 -17 -16h-28q-16 0 -17 16v684q0 131 -76.5 207t-201.5 76 q-133 0 -212 -74.5t-79 -203.5v-689q0 -16 -17 -16h-28q-16 0 -17 16v684q0 131 -75.5 207t-200.5 76q-135 0 -213 -74.5t-78 -203.5v-689q0 -16 -16 -16h-29q-16 0 -16 16z" />
<glyph unicode="n" horiz-adv-x="1095" d="M197 16v994q0 16 16 16h29q16 0 16 -16v-123q0 -4 2 -6t4 2q45 76 124 116.5t183 40.5q154 0 250.5 -95t96.5 -249v-680q0 -16 -17 -16h-29q-16 0 -16 16v670q0 131 -82 214t-211 83q-137 0 -221 -81t-84 -212v-674q0 -16 -16 -16h-29q-16 0 -16 16z" />
<glyph unicode="o" horiz-adv-x="1085" d="M160 516q0 96 3 153.5t13 102.5q29 123 127 196.5t240 73.5q141 0 241.5 -74.5t126.5 -195.5q14 -61 15 -197v-61v-65q0 -133 -15 -195q-29 -121 -128 -195.5t-240 -74.5q-142 0 -239 73.5t-128 196.5q-10 45 -13 101.5t-3 160.5zM221 514q0 -178 10 -231 q20 -109 103.5 -175.5t208.5 -66.5q123 0 207 66.5t106 175.5q8 45 8 231t-8 229q-20 106 -105 174t-208 68t-207 -66.5t-105 -175.5q-10 -55 -10 -229z" />
<glyph unicode="p" horiz-adv-x="1107" d="M215 -391v1401q0 16 16 16h29q16 0 16 -16v-131q0 -4 2.5 -5.5t4.5 3.5q43 78 120.5 121.5t178.5 43.5q137 0 231 -73.5t125 -196.5q10 -45 12 -98t2 -158q0 -106 -2 -161.5t-12 -100.5q-27 -121 -123 -195.5t-233 -74.5q-102 0 -178 44t-121 124q-2 4 -4.5 3t-2.5 -5 v-541q0 -16 -16 -17h-29q-16 0 -16 17zM276 514q0 -119 3.5 -161t11.5 -79q18 -100 94 -166.5t190 -66.5q117 0 199 66.5t103 166.5q8 35 11 76t3 162q0 117 -3 159t-9 81q-16 102 -100.5 167.5t-203.5 65.5q-117 0 -191.5 -66.5t-94.5 -166.5q-6 -35 -9.5 -77t-3.5 -161z " />
<glyph unicode="q" horiz-adv-x="1107" d="M158 516q0 104 2 157.5t12 98.5q31 123 125 196.5t231 73.5q100 0 178 -44t121 -121q2 -4 4.5 -3.5t2.5 5.5v131q0 16 16 16h29q16 0 16 -16v-1401q0 -16 -16 -17h-29q-16 0 -16 17v541q0 4 -2.5 5t-4.5 -3q-45 -80 -120.5 -124t-178.5 -44q-137 0 -233 74.5t-123 195.5 q-10 45 -12 100.5t-2 161.5zM219 512q0 -121 3 -162t11 -76q20 -100 102.5 -166.5t199.5 -66.5q115 0 190.5 66.5t93.5 166.5q8 37 11.5 79t3.5 161t-3.5 161t-9.5 77q-20 100 -95 166.5t-191 66.5q-119 0 -203 -65.5t-101 -167.5q-6 -39 -9 -81t-3 -159z" />
<glyph unicode="r" horiz-adv-x="722" d="M197 16v994q0 16 16 16h29q16 0 16 -16v-166q0 -4 2 -5t4 3q41 88 116 140t171 52h5q67 0 118 -24q16 -6 8 -21l-12 -33q-6 -10 -13 -10q-8 0 -12 4q-43 16 -100 17q-82 0 -147.5 -45t-102.5 -120t-37 -163v-623q0 -16 -16 -16h-29q-16 0 -16 16z" />
<glyph unicode="s" horiz-adv-x="966" d="M139 252v35q0 16 17 16h26q16 0 17 -16v-33q0 -55 36.5 -103.5t103.5 -77t153 -28.5q127 0 206.5 62.5t79.5 158.5q0 68 -40 109t-94 62.5t-167 56.5q-109 35 -176.5 64.5t-112.5 81.5t-45 132q0 119 95.5 190.5t248.5 71.5q156 0 252.5 -73.5t96.5 -186.5v-10 q0 -16 -17 -16h-26q-16 0 -17 14v12q0 88 -81 146.5t-210 58.5q-127 0 -203.5 -56.5t-76.5 -146.5q0 -61 37 -101t93 -65.5t154 -56.5q119 -37 186.5 -64.5t116 -81t48.5 -139.5q0 -121 -95.5 -198.5t-250.5 -77.5q-105 0 -185 34.5t-125 94t-45 131.5z" />
<glyph unicode="t" horiz-adv-x="724" d="M90 987v23q0 16 16 16h132q6 0 6 6v238q0 16 16 16h27q16 0 16 -16v-238q0 -6 6 -6h256q16 0 17 -16v-23q0 -16 -17 -16h-256q-6 0 -6 -6v-705q0 -115 53.5 -159t167.5 -44h45q16 0 17 -16v-25q0 -16 -17 -16h-49q-135 0 -205.5 55.5t-70.5 200.5v709q0 6 -6 6h-132 q-16 0 -16 16z" />
<glyph unicode="u" horiz-adv-x="1093" d="M178 324v686q0 16 17 16h28q16 0 17 -16v-674q0 -133 79.5 -213t210.5 -80q139 0 222.5 81t83.5 212v674q0 16 16 16h29q16 0 16 -16v-994q0 -16 -16 -16h-29q-16 0 -16 16v123q0 4 -2.5 4t-4.5 -2q-45 -74 -123.5 -114.5t-183.5 -40.5q-154 0 -249 92t-95 246z" />
<glyph unicode="v" horiz-adv-x="919" d="M76 1014q0 4 5 8t11 4h33q16 0 18 -12l314 -914q2 -2 4 -2t4 2l311 912q4 14 19 14h32q8 0 12.5 -5t2.5 -13l-346 -996q-2 -12 -19 -12h-35q-14 0 -18 12l-346 996z" />
<glyph unicode="w" horiz-adv-x="1400" d="M78 1008v4q0 14 12 14h29q14 0 18 -14l258 -920q2 -2 4 -2t4 2l263 920q4 14 18 14h31q14 0 18 -14l262 -918q2 -2 4 -2t5 2l260 918q4 14 18 14h29q8 0 11 -5t1 -13l-289 -994q-4 -14 -18 -14h-31q-14 0 -18 14l-265 895q-2 2 -4 2t-4 -2l-260 -895q-4 -14 -18 -14h-33 q-14 0 -18 14z" />
<glyph unicode="x" horiz-adv-x="905" d="M63 1016q0 10 15 10h33q12 0 18 -6l4 -6l316 -447q2 -2 4 -2t4 2l315 449q6 10 21 10h34q10 0 13.5 -6t-2.5 -14l-351 -490q-2 -4 0 -8l351 -488l4 -10q0 -10 -15 -10h-34q-14 0 -21 10l-313 449q-6 6 -8 0l-320 -449q-6 -10 -20 -10h-33q-10 0 -13.5 6t3.5 14l350 488 q2 4 0 8l-350 490z" />
<glyph unicode="y" horiz-adv-x="890" d="M57 1014q0 4 4.5 8t12.5 4h28q16 0 19 -12l323 -924q2 -2 4.5 -2t4.5 2l317 924q4 12 18 12h29q8 0 13.5 -5t0.5 -13l-397 -1129q-45 -127 -83 -187.5t-84 -81t-126 -20.5h-14q-14 1 -14 17v22q0 16 14 17h14q78 2 120 28.5t73 95t82 226.5q2 2 1 4t-1 4l-357 1004z" />
<glyph unicode="z" horiz-adv-x="894" d="M80 16v31q0 10 6 19l653 895q2 2 0 5t-4 3h-633q-16 0 -16 16v25q0 16 16 16h695q16 0 16 -16v-31q0 -8 -6 -18l-653 -895q-2 -2 0 -5.5t4 -3.5h635q16 0 16 -16v-25q0 -16 -16 -16h-697q-16 0 -16 16z" />
<glyph unicode="{" horiz-adv-x="530" d="M63 664v26q0 14 15 17q51 10 74.5 54t23.5 130v442q0 119 41 170t137 51h97q16 0 16 -16v-25q0 -16 -16 -16h-93q-63 0 -91.5 -39t-28.5 -127v-434q0 -90 -21.5 -141t-69.5 -74q-2 -2 -2 -4t2 -4q47 -27 69 -78t22 -141v-449q0 -88 28.5 -127t91.5 -39h93q16 0 16 -16 v-25q0 -16 -16 -16h-97q-96 0 -137 51t-41 170v457q0 88 -23.5 132t-74.5 54q-14 2 -15 17z" />
<glyph unicode="|" horiz-adv-x="294" d="M117 -147v1687q0 16 16 16h29q16 0 16 -16v-1687q0 -16 -16 -17h-29q-16 1 -16 17z" />
<glyph unicode="}" horiz-adv-x="530" d="M63 -176q0 16 17 16h92q63 0 92 39t29 127v449q0 90 21.5 141t68.5 78q2 2 2 4t-2 4q-47 23 -68.5 74t-21.5 141v434q0 88 -28.5 127t-92.5 39h-92q-16 0 -17 16v25q0 16 17 16h96q96 0 137 -51t41 -170v-442q0 -86 23.5 -130t75.5 -54q14 -2 14 -17v-26q0 -14 -14 -17 q-51 -10 -75 -54t-24 -132v-457q0 -119 -41 -170t-137 -51h-96q-16 0 -17 16v25z" />
<glyph unicode="~" horiz-adv-x="985" d="M98 571q31 57 86.5 90t124.5 33q53 0 92 -14t88 -41q63 -37 104.5 -53.5t100.5 -16.5q47 0 77 20.5t71 67.5q10 14 22 5l17 -11q14 -10 4 -22q-37 -57 -83 -88t-110 -31q-65 0 -110 18.5t-115 59.5q-41 23 -78 35t-80 12q-59 0 -99 -22.5t-69 -67.5q-10 -16 -22 -6 l-15 10q-12 8 -6 22z" />
<glyph unicode="&#xa1;" horiz-adv-x="632" d="M219 1360q0 39 25.5 64.5t64.5 25.5q37 0 65.5 -26.5t28.5 -63.5t-28.5 -62.5t-65.5 -25.5t-63.5 25.5t-26.5 62.5zM285 43l2 948q0 17 16 17h25q16 0 16 -17l2 -948q0 -16 -16 -16h-29q-16 0 -16 16z" />
<glyph unicode="&#xa2;" horiz-adv-x="1044" d="M160 700q0 158 24 256q27 109 107 180.5t194 86.5q6 0 7 6v149q0 16 16 17h24q16 0 17 -17v-145q0 -6 6 -6q137 -2 236.5 -74t126.5 -176l10 -55v-4q0 -10 -15 -15l-28 -2h-4q-10 0 -15 14l-6 33q-18 94 -103 157.5t-208 63.5q-125 0 -208 -66.5t-103 -174.5 q-16 -86 -17 -230q0 -145 17 -231q23 -111 104.5 -176.5t206.5 -65.5q123 0 210 64.5t103 159.5l2 4v12q2 10 19 10l26 -2q14 -2 15 -14v-6q0 -10 -6 -35q-23 -106 -123.5 -177t-239.5 -73q-6 0 -6 -6v-146q0 -16 -17 -16h-24q-16 0 -16 16v150q0 6 -7 6q-115 14 -193.5 86 t-107.5 180q-25 90 -24 262z" />
<glyph unicode="&#xa3;" horiz-adv-x="1234" d="M231 674v20q0 16 17 17h170q6 0 6 6v356q0 176 102.5 276.5t282.5 100.5q119 0 201 -61.5t123 -182.5v-4q0 -12 -13 -16l-26 -6h-4q-12 0 -17 12q-68 203 -266 203q-154 0 -238 -83t-84 -237v-358q0 -6 7 -6h407q16 0 16 -17v-20q0 -16 -16 -17h-407q-6 0 -7 -6v-305 q0 -90 -27.5 -165t-74.5 -118q-2 -2 -1 -5t5 -3h754q16 0 16 -16v-23q0 -16 -16 -16h-834q-16 0 -16 16v25q0 14 12 20q53 29 87 106t34 173v311q0 6 -6 6h-170q-16 0 -17 17z" />
<glyph unicode="&#xa4;" horiz-adv-x="1003" d="M60.5 1013.5q-1.5 8.5 5.5 12.5l18 16q12 12 22 0l136 -135q4 -4 8 0q109 88 244 88q143 0 254 -94q4 -4 8 0l139 139q14 14 25 2l18 -16q6 -4 5 -12t-5 -13l-143 -141q-4 -4 0 -8q82 -104 82 -238q-1 -139 -91 -241q-4 -4 0 -8l138 -136q12 -10 0 -22l-19 -17 q-10 -10 -22 0l-138 136q-4 4 -8 0q-49 -43 -112.5 -65.5t-130.5 -22.5q-131 0 -234 79q-4 4 -8 0l-131 -127q-10 -10 -23 0l-18 17q-6 4 -6 11t6 11l129 127q4 4 0 9q-96 109 -96 249q0 137 88 246q4 4 0 8l-135 133q-4 4 -5.5 12.5zM170 614q0 -86 44 -159.5t118 -117.5 t162 -44t161.5 44t117.5 117.5t44 159.5q0 88 -44 162t-117.5 118t-161.5 44t-162 -44t-118 -118t-44 -162z" />
<glyph unicode="&#xa5;" horiz-adv-x="1413" d="M242 1421q0 12 12 13h29q12 0 18 -11l401 -675q2 -2 4.5 -2.5t4.5 2.5l401 675q6 10 18 11h29q8 0 11.5 -6.5t-1.5 -14.5l-417 -704q-2 -2 0 -5.5t4 -3.5h278q16 0 17 -16v-14q0 -16 -17 -17h-291q-6 0 -6 -6v-207q0 -6 6 -6h291q16 0 17 -16v-17q0 -16 -17 -16h-291 q-6 0 -6 -6v-363q0 -16 -16 -16h-29q-16 0 -16 16v363q0 6 -6 6h-303q-16 0 -17 16v17q0 16 17 16h303q6 0 6 6v207q0 6 -6 6h-303q-16 0 -17 17v14q0 16 17 16h290q2 0 4.5 3.5t0.5 5.5l-418 704z" />
<glyph unicode="&#xa6;" horiz-adv-x="294" d="M117 -147v714q0 16 16 17h29q16 0 16 -17v-714q0 -16 -16 -17h-29q-16 1 -16 17zM117 825v715q0 16 16 16h29q16 0 16 -16v-715q0 -16 -16 -16h-29q-16 0 -16 16z" />
<glyph unicode="&#xa7;" horiz-adv-x="888" d="M139 502q0 113 51 196q72 104 185 129q8 2 2 7q-94 33 -156.5 116.5t-62.5 188.5q0 82 36.5 153.5t104.5 113.5t154 42q127 0 205.5 -86t82.5 -221v-29q0 -16 -16 -16h-29q-16 0 -16 16v27q0 111 -64.5 182.5t-160.5 71.5q-104 0 -170 -78t-66 -185q0 -104 69.5 -169.5 t198.5 -106.5q63 -18 115.5 -46t93.5 -83q61 -78 62 -207q0 -119 -49 -205q-29 -51 -73 -83.5t-99 -41.5q-8 -4 0 -6q96 -35 153.5 -110.5t57.5 -186.5q0 -86 -38 -156.5t-105.5 -111.5t-153.5 -41q-129 0 -207 88t-80 242v28q0 16 16 17h29q16 0 16 -17v-26 q2 -127 63.5 -202t164.5 -75q100 0 165.5 76t65.5 184q0 88 -42 142.5t-97.5 81t-128.5 49.5q-86 27 -143.5 61.5t-92.5 98.5q-41 78 -41 178zM201 496q0 -96 35 -152q76 -115 210 -115q147 0 213 113q37 61 37 164q0 123 -53 184q-74 94 -192 94q-66 0 -122.5 -36.5 t-90.5 -94.5q-37 -68 -37 -157z" />
<glyph unicode="&#xa8;" horiz-adv-x="598" d="M71 1329q0 29 20.5 47.5t51.5 18.5q27 0 46.5 -18.5t19.5 -47.5q0 -27 -19.5 -46t-46.5 -19q-31 0 -51.5 18t-20.5 47zM389 1329q0 27 20.5 46.5t48.5 19.5q29 0 48.5 -18.5t19.5 -47.5t-19.5 -47t-48.5 -18q-28 0 -48.5 19.5t-20.5 45.5z" />
<glyph unicode="&#xa9;" horiz-adv-x="1841" d="M178 711q0 209 95.5 377.5t265.5 265t381 96.5q213 0 383 -96.5t265 -265t95 -377.5q0 -203 -96.5 -370t-265 -262t-381.5 -95q-211 0 -381 95t-265.5 262t-95.5 370zM231 711q0 -190 88.5 -344t246 -243t354.5 -89q196 0 354 89t246 242.5t88 344.5q0 195 -88 352.5 t-245 246.5t-355 89q-199 0 -355.5 -89t-245 -247t-88.5 -352zM713 543v348q0 86 56 140t153 54q94 0 152.5 -53t58.5 -141v-8q0 -8 -4.5 -13.5t-12.5 -3.5l-20 2q-16 4 -17 17v12q0 63 -44 101t-113 38q-74 0 -116 -37.5t-42 -101.5v-362q0 -63 43 -102.5t115 -39.5 q70 0 113.5 39t43.5 103v8q0 14 17 18l20 2h4q12 0 13 -10v-12q0 -88 -59.5 -142.5t-151.5 -54.5q-97 0 -153 54.5t-56 144.5z" />
<glyph unicode="&#xaa;" horiz-adv-x="659" d="M57 551v20q1 17 17 17h487q16 0 17 -17v-20q0 -16 -17 -16h-487q-16 0 -17 16zM59 936q0 100 75 156.5t204 56.5h162q6 0 6 6v68q0 82 -45 131t-139 49q-70 0 -118 -31t-61 -80q-4 -16 -18 -14l-23 2q-16 4 -14 18q16 70 79.5 111t158.5 41q115 0 175 -60.5t60 -164.5 v-449q0 -16 -16 -16h-23q-16 0 -16 16v60q0 2 -3 3t-5 -1q-33 -45 -89.5 -66.5t-127.5 -21.5q-94 0 -158 46t-64 140zM113 940q0 -70 48 -106.5t124 -36.5q92 0 156.5 44t64.5 128v127q0 6 -6 6h-162q-102 0 -163.5 -42t-61.5 -120z" />
<glyph unicode="&#xab;" horiz-adv-x="1142" d="M238 563q-10 12 0 25l294 336q6 8 21 8h25q10 0 12 -6t-4 -15l-291 -331q-2 -4 0 -9l291 -331q6 -9 4 -15t-12 -6h-25q-14 0 -21 8zM547 563q-8 12 0 25l295 336q6 8 20 8h25q10 0 12 -6t-4 -15l-291 -331q-2 -4 0 -9l291 -331q6 -9 4 -15t-12 -6h-25q-14 0 -20 8z" />
<glyph unicode="&#xac;" horiz-adv-x="1040" d="M92 645v23q1 16 17 16h825q16 0 16 -16v-279q0 -16 -16 -16h-27q-16 0 -16 16v234q0 6 -6 6h-776q-16 0 -17 16z" />
<glyph unicode="&#xad;" horiz-adv-x="790" d="M92 643v25q0 16 17 16h573q16 0 16 -16v-25q0 -16 -16 -16h-573q-17 0 -17 16z" />
<glyph unicode="&#xae;" horiz-adv-x="931" d="M72 1075q0 106 53 196.5t143 142.5t199 52q106 0 196.5 -52t143.5 -142t53 -197q0 -106 -53 -196.5t-143.5 -142.5t-196.5 -52q-109 0 -199 52t-143 142.5t-53 196.5zM121 1075q0 -94 46 -173t126 -125t174 -46t173 46t125 125t46 173q0 92 -46 171t-125 125t-173 46 t-174 -46t-126 -125t-46 -171zM371 909v326q0 16 16 16h100q45 0 72 -28.5t27 -73.5q-1 -67 -58 -92q-8 -4 -4 -8l62 -138q2 -2 2 -8q0 -10 -15 -10h-16q-16 0 -20 12l-60 142l-8 4h-49q-6 0 -6 -7v-135q0 -16 -17 -16h-10q-16 0 -16 16zM414 1092q0 -6 6 -7h61 q29 0 45.5 17.5t16.5 46.5t-16.5 46t-45.5 17h-61q-6 0 -6 -6v-114z" />
<glyph unicode="&#xaf;" horiz-adv-x="520" d="M0 1251v21q0 16 16 16h488q16 0 16 -16v-21q0 -16 -16 -16h-488q-16 0 -16 16z" />
<glyph unicode="&#xb0;" horiz-adv-x="784" d="M72 1335q0 88 43 162t116.5 116t161.5 42t162 -42t117 -116t43 -162t-43 -160.5t-117 -115.5t-162 -43t-161.5 43t-116.5 115.5t-43 160.5zM127 1335q0 -113 77 -189.5t189 -76.5q113 0 189.5 77t76.5 189q0 113 -76.5 190t-189.5 77t-189.5 -77t-76.5 -190z" />
<glyph unicode="&#xb1;" horiz-adv-x="1040" d="M92 16v23q0 16 17 16h825q16 0 16 -16v-23q0 -16 -16 -16h-825q-17 0 -17 16zM92 657v23q0 16 17 16h378q6 0 7 6v389q0 16 16 17h22q16 0 17 -17v-389q0 -6 6 -6h379q16 0 16 -16v-23q0 -16 -16 -16h-379q-6 0 -6 -6v-369q0 -16 -17 -16h-22q-16 0 -16 16v369q0 6 -7 6 h-378q-16 0 -17 16z" />
<glyph unicode="&#xb2;" horiz-adv-x="647" d="M78 952v21q0 12 6 20q166 207 283 361q117 152 116 244q0 70 -49 113.5t-127 43.5t-126 -44t-46 -116v-36q0 -16 -16 -17h-25q-16 0 -16 17v41q2 92 65.5 149t163.5 57q104 0 168 -58t64 -150q0 -109 -119 -265q-100 -133 -264 -340q-2 -2 -1 -5t5 -3h393q16 0 16 -16 v-17q0 -16 -16 -16h-459q-16 0 -16 16z" />
<glyph unicode="&#xb3;" horiz-adv-x="657" d="M96 1169q0 16 17 17h24q16 0 17 -17q0 -45 4 -63q10 -59 56 -96t112 -37q104 0 151 88q27 53 27 129q0 88 -31 145q-43 84 -147 84q-8 0 -33 -4q-12 -2 -21 6l-8 11q-4 4 -5 12t3 12l219 279q2 2 0 5t-4 3h-360q-16 0 -17 16v17q0 16 17 16h422q16 0 16 -16v-21 q0 -10 -6 -20l-201 -262q-4 -8 4 -9q123 -6 172 -106q35 -70 35 -168q0 -94 -31 -152q-57 -117 -202 -116q-82 0 -138.5 45t-81.5 121q-10 37 -10 81z" />
<glyph unicode="&#xb4;" horiz-adv-x="356" d="M79 1194q-3 6 1 14l133 234q8 12 18 12h31q8 0 11 -6t-1 -14l-137 -236q-6 -10 -18 -10h-25q-10 0 -13 6z" />
<glyph unicode="&#xb5;" horiz-adv-x="1112" d="M197 -393v1403q0 16 16 16h29q16 0 16 -16v-674q0 -133 80 -213t211 -80q139 0 222 81t83 212v674q0 16 16 16h29q16 0 16 -16v-994q0 -16 -16 -16h-29q-16 0 -16 16v123q0 4 -2 4t-4 -2q-45 -74 -124 -114.5t-183 -40.5q-88 0 -159 31.5t-116 88.5q-2 2 -5 1t-3 -3v-497 q0 -16 -16 -17h-29q-16 0 -16 17z" />
<glyph unicode="&#xb6;" horiz-adv-x="1122" d="M88 973q0 125 55.5 230.5t148.5 168t206 62.5h379q16 0 16 -17v-1810q0 -16 -16 -17h-21q-16 0 -16 17v1767q0 6 -6 6h-302q-6 0 -6 -6v-1767q0 -16 -16 -17h-23q-16 0 -16 17v899q0 6 -6 6q-104 4 -190.5 66.5t-136.5 166t-50 228.5z" />
<glyph unicode="&#xb7;" horiz-adv-x="184" d="M-47 102q0 37 28 62.5t65 25.5t64.5 -25.5t27.5 -62.5t-28 -63.5t-64 -26.5q-39 0 -66 27t-27 63z" />
<glyph unicode="&#xb8;" horiz-adv-x="251" d="M4 -348l4 16q4 16 21 13q25 -6 49 -7q51 0 84 28t33 87q0 92 -109 191q-8 8 -7 14t11 6h16q8 0 21 -6q125 -94 125 -207q0 -86 -49 -124t-125 -38q-31 0 -62 6q-16 5 -12 21z" />
<glyph unicode="&#xb9;" horiz-adv-x="366" d="M88 1720v13q0 14 12 20l84 37l9 4q4 2 16 2h31q16 0 16 -16v-828q0 -16 -16 -16h-25q-16 0 -16 16v775q0 6 -6 6l-87 -25l-6 -2q-12 0 -12 14z" />
<glyph unicode="&#xba;" horiz-adv-x="684" d="M80 551v20q0 16 16 17h492q16 0 16 -17v-20q0 -16 -16 -16h-492q-16 0 -16 16zM92 1102q0 51 2 95t10 73q20 82 84 131t156 49t156.5 -49t85.5 -129q10 -33 10 -121v-98q0 -80 -10 -121q-18 -80 -84 -130t-158 -50q-90 0 -151.5 48t-86.5 132q-10 31 -12 67.5t-2 102.5z M147 1102q0 -111 9 -150q16 -70 65 -110.5t123 -40.5t125 42t66 109q8 43 8 150q0 119 -8 147q-16 70 -66.5 111t-124.5 41t-124 -41t-64 -111q-8 -41 -9 -147z" />
<glyph unicode="&#xbb;" horiz-adv-x="1142" d="M246 225q-2 6 4 15l291 331q2 4 0 9l-291 331q-6 8 -4 14.5t12 6.5h25q14 0 20 -8l295 -336q8 -12 0 -25l-295 -336q-6 -8 -20 -8h-25q-10 0 -12 6zM555 225q-2 6 4 15l291 331q2 4 0 9l-291 331q-6 8 -4 14.5t12 6.5h25q14 0 20 -8l295 -336q8 -12 0 -25l-295 -336 q-6 -8 -20 -8h-25q-10 0 -12 6z" />
<glyph unicode="&#xbc;" horiz-adv-x="1595" d="M88 1357v13q0 14 12 20l84 37l9 4q4 2 16 2h31q16 0 16 -16v-828q0 -16 -16 -16h-25q-16 0 -16 16v775q0 6 -6 6l-87 -25l-6 -2q-12 0 -12 14zM216 6q-3 6 1 14l911 1403q6 10 18 11h23q10 0 13 -6.5t-1 -14.5l-911 -1403q-6 -10 -19 -10h-22q-10 0 -13 6zM1010 258v18 q0 8 4 21l258 551q6 12 20 12h23q8 0 12 -5t0 -13l-254 -541q-2 -2 0 -5t4 -3h307q6 0 7 6v209q0 16 16 16h22q16 0 17 -16v-209q0 -6 6 -6h45q16 -1 16 -17v-18q0 -16 -16 -16h-45q-6 0 -6 -6v-220q0 -16 -17 -16h-22q-16 0 -16 16v220q0 6 -7 6h-358q-16 0 -16 16z" />
<glyph unicode="&#xbd;" horiz-adv-x="1589" d="M88 1357v13q0 14 12 20l84 37l9 4q4 2 16 2h31q16 0 16 -16v-828q0 -16 -16 -16h-25q-16 0 -16 16v775q0 6 -6 6l-87 -25l-6 -2q-12 0 -12 14zM216 6q-3 6 1 14l911 1403q6 10 18 11h23q10 0 13 -6.5t-1 -14.5l-911 -1403q-6 -10 -19 -10h-22q-10 0 -13 6zM1020 16v21 q0 12 6 20q166 207 283 361q117 152 116 244q0 70 -49 113.5t-127 43.5t-126 -44t-46 -116v-36q0 -16 -16 -17h-25q-16 0 -16 17v41q2 92 65.5 149t163.5 57q104 0 168 -58t64 -150q0 -109 -119 -265q-100 -133 -264 -340q-2 -2 -1 -5t5 -3h393q16 0 16 -16v-17 q0 -16 -16 -16h-459q-16 0 -16 16z" />
<glyph unicode="&#xbe;" horiz-adv-x="1808" d="M96 827q0 16 17 17h24q16 0 17 -17q0 -45 4 -63q10 -59 56 -96t112 -37q104 0 151 88q27 53 27 129q0 88 -31 145q-43 84 -147 84q-8 0 -33 -4q-12 -2 -21 6l-8 11q-4 4 -5 12t3 12l219 279q2 2 0 5t-4 3h-360q-16 0 -17 16v17q0 16 17 16h422q16 0 16 -16v-21 q0 -10 -6 -20l-201 -262q-4 -8 4 -9q123 -6 172 -106q35 -70 35 -168q0 -94 -31 -152q-57 -117 -202 -116q-82 0 -138.5 45t-81.5 121q-10 37 -10 81zM429 6q-3 6 1 14l911 1403q6 10 18 11h23q10 0 13 -6.5t-1 -14.5l-911 -1403q-6 -10 -19 -10h-22q-10 0 -13 6zM1223 258 v18q0 8 4 21l258 551q6 12 20 12h23q8 0 12 -5t0 -13l-254 -541q-2 -2 0 -5t4 -3h307q6 0 7 6v209q0 16 16 16h22q16 0 17 -16v-209q0 -6 6 -6h45q16 -1 16 -17v-18q0 -16 -16 -16h-45q-6 0 -6 -6v-220q0 -16 -17 -16h-22q-16 0 -16 16v220q0 6 -7 6h-358q-16 0 -16 16z" />
<glyph unicode="&#xbf;" horiz-adv-x="870" d="M102 -90q0 90 29 155.5t68 107.5t104 97q72 57 104.5 98.5t32.5 102.5v154q0 16 17 16h30q17 0 17 -16v-156q0 -80 -39 -132t-119 -120q-61 -51 -96 -88t-60.5 -92t-25.5 -131q0 -125 74.5 -201t197.5 -76q125 0 201 76t76 199v82q0 16 16 16h29q16 0 16 -16v-82 q0 -150 -93 -241t-245 -91t-243 92t-91 246zM375 926q0 37 27.5 62.5t64.5 25.5q39 0 64.5 -25.5t25.5 -62.5t-26.5 -62.5t-63.5 -25.5t-64.5 25.5t-27.5 62.5z" />
<glyph unicode="&#xc0;" horiz-adv-x="1165" d="M82 18l463 1401q4 14 18 15h37q14 0 18 -15l465 -1401l2 -6q0 -4 -5 -8t-11 -4h-27q-14 0 -18 14l-96 293q0 2 -3 3t-5 1h-672q-2 0 -5 -1t-3 -3l-97 -293q-4 -14 -18 -14h-29q-8 0 -12 5t-2 13zM260 373q-2 -6 6 -6h633q10 0 6 6l-319 973q-2 2 -4 2t-4 -2zM399 1850 q0 12 13 12h30q10 0 19 -12l133 -234q2 -2 2 -8q0 -4 -4 -8t-10 -4h-25q-12 0 -18 10l-138 236z" />
<glyph unicode="&#xc1;" horiz-adv-x="1165" d="M82 18l463 1401q4 14 18 15h37q14 0 18 -15l465 -1401l2 -6q0 -4 -5 -8t-11 -4h-27q-14 0 -18 14l-96 293q0 2 -3 3t-5 1h-672q-2 0 -5 -1t-3 -3l-97 -293q-4 -14 -18 -14h-29q-8 0 -12 5t-2 13zM260 373q-2 -6 6 -6h633q10 0 6 6l-319 973q-2 2 -4 2t-4 -2zM525 1602 q-3 6 1 14l133 234q8 12 18 12h31q8 0 11 -6t-1 -14l-137 -236q-6 -10 -18 -10h-25q-10 0 -13 6z" />
<glyph unicode="&#xc2;" horiz-adv-x="1165" d="M82 18l463 1401q4 14 18 15h37q14 0 18 -15l465 -1401l2 -6q0 -4 -5 -8t-11 -4h-27q-14 0 -18 14l-96 293q0 2 -3 3t-5 1h-672q-2 0 -5 -1t-3 -3l-97 -293q-4 -14 -18 -14h-29q-8 0 -12 5t-2 13zM260 373q-2 -6 6 -6h633q10 0 6 6l-319 973q-2 2 -4 2t-4 -2zM363 1581.5 q-2 6.5 4 14.5l176 225q6 10 20 10h31q14 0 20 -10l177 -225q6 -8 4 -14.5t-13 -6.5h-28q-14 0 -21 11l-147 194q-2 2 -4 2t-4 -2l-154 -194q-6 -10 -20 -11h-29q-10 0 -12 6.5z" />
<glyph unicode="&#xc3;" horiz-adv-x="1165" d="M82 18l463 1401q4 14 18 15h37q14 0 18 -15l465 -1401l2 -6q0 -4 -5 -8t-11 -4h-27q-14 0 -18 14l-96 293q0 2 -3 3t-5 1h-672q-2 0 -5 -1t-3 -3l-97 -293q-4 -14 -18 -14h-29q-8 0 -12 5t-2 13zM260 373q-2 -6 6 -6h633q10 0 6 6l-319 973q-2 2 -4 2t-4 -2zM336 1700 q61 88 154 88q33 0 56.5 -11t64.5 -36q31 -23 54.5 -34t45.5 -11q70 0 115 68q8 14 22 6l13 -6q8 -4 8 -13q0 -4 -8 -20q-29 -47 -70 -68.5t-80 -21.5q-35 0 -62.5 13.5t-58.5 35.5q-33 25 -52 35t-46 10q-35 0 -60.5 -12t-52.5 -49q-4 -8 -11 -9.5t-13 3.5l-15 10 q-12 8 -4 22z" />
<glyph unicode="&#xc4;" horiz-adv-x="1165" d="M82 18l463 1401q4 14 18 15h37q14 0 18 -15l465 -1401l2 -6q0 -4 -5 -8t-11 -4h-27q-14 0 -18 14l-96 293q0 2 -3 3t-5 1h-672q-2 0 -5 -1t-3 -3l-97 -293q-4 -14 -18 -14h-29q-8 0 -12 5t-2 13zM260 373q-2 -6 6 -6h633q10 0 6 6l-319 973q-2 2 -4 2t-4 -2zM354 1737 q0 29 20.5 47.5t51.5 18.5q27 0 46.5 -18.5t19.5 -47.5q0 -27 -19.5 -46t-46.5 -19q-31 0 -51.5 18t-20.5 47zM672 1737q0 27 20.5 46.5t48.5 19.5q29 0 48.5 -18.5t19.5 -47.5t-19.5 -47t-48.5 -18q-28 0 -48.5 19.5t-20.5 45.5z" />
<glyph unicode="&#xc5;" horiz-adv-x="1165" d="M82 18l463 1401q4 14 18 15h37q14 0 18 -15l465 -1401l2 -6q0 -4 -5 -8t-11 -4h-27q-14 0 -18 14l-96 293q0 2 -3 3t-5 1h-672q-2 0 -5 -1t-3 -3l-97 -293q-4 -14 -18 -14h-29q-8 0 -12 5t-2 13zM260 373q-2 -6 6 -6h633q10 0 6 6l-319 973q-2 2 -4 2t-4 -2zM376 1784 q0 84 59.5 142.5t145.5 58.5q84 0 143.5 -58.5t59.5 -142.5t-59.5 -142t-143.5 -58q-86 0 -145.5 58t-59.5 142zM428 1784q0 -63 45 -107t108 -44q64 0 109 44t45 107t-45 107.5t-109 44.5q-63 0 -108 -44t-45 -108z" />
<glyph unicode="&#xc6;" horiz-adv-x="1839" d="M86 6q-4 6 0 14l756 1401q6 12 18 13h821q16 0 17 -17v-24q-1 -17 -17 -17h-729q-6 0 -6 -6v-616q0 -6 6 -6h506q16 0 17 -17v-24q0 -16 -17 -17h-506q-6 0 -6 -6v-621q0 -6 6 -6h729q16 0 17 -16v-25q0 -16 -17 -16h-780q-16 0 -16 16v289q0 6 -6 6h-564q-4 0 -6 -4 l-157 -295q-6 -12 -19 -12h-35q-8 0 -12 6zM346 370q2 -3 4 -3h529q6 0 6 6v991q0 4 -3 5t-5 -3l-531 -991q-2 -2 0 -5z" />
<glyph unicode="&#xc7;" horiz-adv-x="1241" d="M178 412v614q0 125 56.5 221t159 149.5t237.5 53.5q133 0 235.5 -53.5t158.5 -149.5t56 -221v-10q0 -4 -4 -8t-12 -4l-29 -3q-16 0 -16 15v12q0 164 -106.5 264.5t-282.5 100.5t-283.5 -100.5t-107.5 -264.5v-622q0 -164 107.5 -265.5t283.5 -101.5q174 0 281.5 101.5 t107.5 265.5v8q0 16 16 16l29 -2q16 0 16 -8v-10q0 -127 -56 -224.5t-158.5 -150.5t-235.5 -53h-39q-4 2 -4 -1.5t2 -5.5q117 -92 117 -196q0 -86 -49.5 -125t-125.5 -39q-31 0 -61 6q-16 4 -12 21l4 16q4 16 20 12q25 -6 49 -6q51 0 84 27.5t33 87.5q0 92 -108 190 q-8 6 -12.5 12.5t-4.5 8.5l-20 6q-152 35 -239 145.5t-87 270.5z" />
<glyph unicode="&#xc8;" horiz-adv-x="1265" d="M231 16v1401q0 16 17 17h858q16 0 16 -17v-24q0 -17 -16 -17h-807q-6 0 -6 -6v-616q0 -6 6 -6h584q16 0 16 -17v-24q0 -16 -16 -17h-584q-6 0 -6 -6v-621q0 -6 6 -6h807q16 0 16 -16v-25q0 -16 -16 -16h-858q-16 0 -17 16zM483 1870q0 12 13 12h30q10 0 19 -12l133 -234 q2 -2 2 -8q0 -4 -4 -8t-10 -4h-25q-12 0 -18 10l-138 236z" />
<glyph unicode="&#xc9;" horiz-adv-x="1265" d="M231 16v1401q0 16 17 17h858q16 0 16 -17v-24q0 -17 -16 -17h-807q-6 0 -6 -6v-616q0 -6 6 -6h584q16 0 16 -17v-24q0 -16 -16 -17h-584q-6 0 -6 -6v-621q0 -6 6 -6h807q16 0 16 -16v-25q0 -16 -16 -16h-858q-16 0 -17 16zM609 1622q-3 6 1 14l133 234q8 12 18 12h31 q8 0 11 -6t-1 -14l-137 -236q-6 -10 -18 -10h-25q-10 0 -13 6z" />
<glyph unicode="&#xca;" horiz-adv-x="1265" d="M231 16v1401q0 16 17 17h858q16 0 16 -17v-24q0 -17 -16 -17h-807q-6 0 -6 -6v-616q0 -6 6 -6h584q16 0 16 -17v-24q0 -16 -16 -17h-584q-6 0 -6 -6v-621q0 -6 6 -6h807q16 0 16 -16v-25q0 -16 -16 -16h-858q-16 0 -17 16zM447 1601.5q-2 6.5 4 14.5l176 225q6 10 20 10 h31q14 0 20 -10l177 -225q6 -8 4 -14.5t-13 -6.5h-28q-14 0 -21 11l-147 194q-2 2 -4 2t-4 -2l-154 -194q-6 -10 -20 -11h-29q-10 0 -12 6.5z" />
<glyph unicode="&#xcb;" horiz-adv-x="1265" d="M231 16v1401q0 16 17 17h858q16 0 16 -17v-24q0 -17 -16 -17h-807q-6 0 -6 -6v-616q0 -6 6 -6h584q16 0 16 -17v-24q0 -16 -16 -17h-584q-6 0 -6 -6v-621q0 -6 6 -6h807q16 0 16 -16v-25q0 -16 -16 -16h-858q-16 0 -17 16zM438 1757q0 29 20.5 47.5t51.5 18.5 q27 0 46.5 -18.5t19.5 -47.5q0 -27 -19.5 -46t-46.5 -19q-31 0 -51.5 18t-20.5 47zM756 1757q0 27 20.5 46.5t48.5 19.5q29 0 48.5 -18.5t19.5 -47.5t-19.5 -47t-48.5 -18q-28 0 -48.5 19.5t-20.5 45.5z" />
<glyph unicode="&#xcc;" horiz-adv-x="524" d="M80 1870q0 12 13 12h30q10 0 19 -12l133 -234q2 -2 2 -8q0 -4 -4 -8t-10 -4h-25q-12 0 -18 10l-138 236zM231 16v1401q0 16 17 17h28q16 0 17 -17v-1401q0 -16 -17 -16h-28q-17 0 -17 16z" />
<glyph unicode="&#xcd;" horiz-adv-x="524" d="M206 1622q-3 6 1 14l133 234q8 12 18 12h31q8 0 11 -6t-1 -14l-137 -236q-6 -10 -18 -10h-25q-10 0 -13 6zM231 16v1401q0 16 17 17h28q16 0 17 -17v-1401q0 -16 -17 -16h-28q-17 0 -17 16z" />
<glyph unicode="&#xce;" horiz-adv-x="524" d="M43 1601.5q-2 6.5 4 14.5l176 225q6 10 20 10h31q14 0 20 -10l177 -225q6 -8 4 -14.5t-13 -6.5h-28q-14 0 -21 11l-147 194q-2 2 -4 2t-4 -2l-154 -194q-6 -10 -20 -11h-29q-10 0 -12 6.5zM231 16v1401q0 16 17 17h28q16 0 17 -17v-1401q0 -16 -17 -16h-28q-17 0 -17 16z " />
<glyph unicode="&#xcf;" horiz-adv-x="524" d="M34 1757q0 29 20.5 47.5t51.5 18.5q27 0 46.5 -18.5t19.5 -47.5q0 -27 -19.5 -46t-46.5 -19q-31 0 -51.5 18t-20.5 47zM231 16v1401q0 16 17 17h28q16 0 17 -17v-1401q0 -16 -17 -16h-28q-17 0 -17 16zM352 1757q0 27 20.5 46.5t48.5 19.5q29 0 48.5 -18.5t19.5 -47.5 t-19.5 -47t-48.5 -18q-28 0 -48.5 19.5t-20.5 45.5z" />
<glyph unicode="&#xd0;" horiz-adv-x="1415" d="M231 739v21q0 16 17 16h127q6 0 6 6v635q0 16 16 17h469q187 0 294.5 -99.5t107.5 -273.5v-688q0 -174 -107.5 -273.5t-294.5 -99.5h-469q-16 0 -16 16v701q0 6 -6 6h-127q-16 0 -17 16zM442 63q0 -6 7 -6h421q156 0 246 85t90 233v682q0 150 -90 234.5t-246 84.5h-421 q-6 0 -7 -6v-588q0 -6 7 -6h294q16 0 17 -16v-21q0 -16 -17 -16h-294q-6 0 -7 -6v-654z" />
<glyph unicode="&#xd1;" horiz-adv-x="1396" d="M231 16v1401q0 16 17 17h33q14 0 18 -11l797 -1294q2 -4 5 -3t3 5v1286q0 16 16 17h29q16 0 16 -17v-1401q0 -16 -16 -16h-31q-12 0 -18 10l-799 1295q-2 4 -5 3t-3 -5v-1287q0 -16 -17 -16h-28q-17 0 -17 16zM454 1720q61 88 154 88q33 0 56.5 -11t64.5 -36 q31 -23 54.5 -34t45.5 -11q70 0 115 68q8 14 22 6l13 -6q8 -4 8 -13q0 -4 -8 -20q-29 -47 -70 -68.5t-80 -21.5q-35 0 -62.5 13.5t-58.5 35.5q-33 25 -52 35t-46 10q-35 0 -60.5 -12t-52.5 -49q-4 -8 -11 -9.5t-13 3.5l-15 10q-12 8 -4 22z" />
<glyph unicode="&#xd2;" horiz-adv-x="1273" d="M178 434v563q0 133 57.5 236.5t161 160t238.5 56.5q137 0 241.5 -56.5t162 -160t57.5 -236.5v-563q0 -133 -57.5 -234.5t-162 -157.5t-241.5 -56q-135 0 -238.5 56t-161 157.5t-57.5 234.5zM240 432q0 -176 108.5 -283.5t286.5 -107.5q180 0 289.5 107.5t109.5 283.5v567 q0 176 -109.5 285t-289.5 109q-178 0 -286.5 -108.5t-108.5 -285.5v-567zM452 1866q0 12 13 12h30q10 0 19 -12l133 -234q2 -2 2 -8q0 -4 -4 -8t-10 -4h-25q-12 0 -18 10l-138 236z" />
<glyph unicode="&#xd3;" horiz-adv-x="1273" d="M178 434v563q0 133 57.5 236.5t161 160t238.5 56.5q137 0 241.5 -56.5t162 -160t57.5 -236.5v-563q0 -133 -57.5 -234.5t-162 -157.5t-241.5 -56q-135 0 -238.5 56t-161 157.5t-57.5 234.5zM240 432q0 -176 108.5 -283.5t286.5 -107.5q180 0 289.5 107.5t109.5 283.5v567 q0 176 -109.5 285t-289.5 109q-178 0 -286.5 -108.5t-108.5 -285.5v-567zM579 1618q-3 6 1 14l133 234q8 12 18 12h31q8 0 11 -6t-1 -14l-137 -236q-6 -10 -18 -10h-25q-10 0 -13 6z" />
<glyph unicode="&#xd4;" horiz-adv-x="1273" d="M178 434v563q0 133 57.5 236.5t161 160t238.5 56.5q137 0 241.5 -56.5t162 -160t57.5 -236.5v-563q0 -133 -57.5 -234.5t-162 -157.5t-241.5 -56q-135 0 -238.5 56t-161 157.5t-57.5 234.5zM240 432q0 -176 108.5 -283.5t286.5 -107.5q180 0 289.5 107.5t109.5 283.5v567 q0 176 -109.5 285t-289.5 109q-178 0 -286.5 -108.5t-108.5 -285.5v-567zM416 1597.5q-2 6.5 4 14.5l176 225q6 10 20 10h31q14 0 20 -10l177 -225q6 -8 4 -14.5t-13 -6.5h-28q-14 0 -21 11l-147 194q-2 2 -4 2t-4 -2l-154 -194q-6 -10 -20 -11h-29q-10 0 -12 6.5z" />
<glyph unicode="&#xd5;" horiz-adv-x="1273" d="M178 434v563q0 133 57.5 236.5t161 160t238.5 56.5q137 0 241.5 -56.5t162 -160t57.5 -236.5v-563q0 -133 -57.5 -234.5t-162 -157.5t-241.5 -56q-135 0 -238.5 56t-161 157.5t-57.5 234.5zM240 432q0 -176 108.5 -283.5t286.5 -107.5q180 0 289.5 107.5t109.5 283.5v567 q0 176 -109.5 285t-289.5 109q-178 0 -286.5 -108.5t-108.5 -285.5v-567zM389 1716q61 88 154 88q33 0 56.5 -11t64.5 -36q31 -23 54.5 -34t45.5 -11q70 0 115 68q8 14 22 6l13 -6q8 -4 8 -13q0 -4 -8 -20q-29 -47 -70 -68.5t-80 -21.5q-35 0 -62.5 13.5t-58.5 35.5 q-33 25 -52 35t-46 10q-35 0 -60.5 -12t-52.5 -49q-4 -8 -11 -9.5t-13 3.5l-15 10q-12 8 -4 22z" />
<glyph unicode="&#xd6;" horiz-adv-x="1273" d="M178 434v563q0 133 57.5 236.5t161 160t238.5 56.5q137 0 241.5 -56.5t162 -160t57.5 -236.5v-563q0 -133 -57.5 -234.5t-162 -157.5t-241.5 -56q-135 0 -238.5 56t-161 157.5t-57.5 234.5zM240 432q0 -176 108.5 -283.5t286.5 -107.5q180 0 289.5 107.5t109.5 283.5v567 q0 176 -109.5 285t-289.5 109q-178 0 -286.5 -108.5t-108.5 -285.5v-567zM407 1753q0 29 20.5 47.5t51.5 18.5q27 0 46.5 -18.5t19.5 -47.5q0 -27 -19.5 -46t-46.5 -19q-31 0 -51.5 18t-20.5 47zM725 1753q0 27 20.5 46.5t48.5 19.5q29 0 48.5 -18.5t19.5 -47.5t-19.5 -47 t-48.5 -18q-28 0 -48.5 19.5t-20.5 45.5z" />
<glyph unicode="&#xd7;" horiz-adv-x="835" d="M100 950q0 8 4 13l15 14q4 4 12 4t12 -4l277 -275q4 -4 8 0l266 267q4 4 12.5 4t12.5 -4l14 -15q4 -4 4 -12t-4 -12l-266 -266q-4 -4 0 -9l258 -260q4 -4 5 -12t-3 -12l-16 -17q-4 -4 -12.5 -4t-12.5 4l-260 260q-4 4 -8 0l-266 -266q-4 -4 -12.5 -4t-12.5 4l-14 14 q-4 4 -4 12.5t4 12.5l266 266q4 4 0 9l-275 276q-4 4 -4 12z" />
<glyph unicode="&#xd8;" horiz-adv-x="1275" d="M180 434v563q0 133 57.5 236.5t161 160t238.5 56.5q123 0 221 -47q2 -2 8 4l43 96q4 12 21 13h24q18 0 13 -19l-54 -119q-2 -2 -1 -5t3 -5q88 -59 135.5 -154.5t47.5 -216.5v-563q0 -133 -57.5 -234.5t-162 -157.5t-241.5 -56q-172 0 -287 86q-6 2 -8 -2l-53 -121 q-4 -12 -21 -12h-24q-18 0 -13 18l68 156q4 4 -2 8q-117 121 -117 315zM242 432q0 -150 80 -252q8 -6 10 2l508 1157q4 4 -4 9q-90 45 -199 45q-178 0 -286.5 -108.5t-108.5 -285.5v-567zM371 135q-2 -2 2 -8q104 -86 264 -86q180 0 289.5 107.5t109.5 283.5v567 q0 100 -36.5 181.5t-104.5 132.5q-6 2 -8 -2z" />
<glyph unicode="&#xd9;" horiz-adv-x="1349" d="M213 424v993q0 16 16 17h29q16 0 16 -17v-999q0 -170 110 -273.5t290 -103.5t289.5 103.5t109.5 273.5v999q0 16 17 17h28q16 0 17 -17v-993q0 -131 -57.5 -230.5t-162 -154.5t-241.5 -55t-241.5 55t-162 154.5t-57.5 230.5zM491 1874q0 12 13 12h30q10 0 19 -12 l133 -234q2 -2 2 -8q0 -4 -4 -8t-10 -4h-25q-12 0 -18 10l-138 236z" />
<glyph unicode="&#xda;" horiz-adv-x="1349" d="M213 424v993q0 16 16 17h29q16 0 16 -17v-999q0 -170 110 -273.5t290 -103.5t289.5 103.5t109.5 273.5v999q0 16 17 17h28q16 0 17 -17v-993q0 -131 -57.5 -230.5t-162 -154.5t-241.5 -55t-241.5 55t-162 154.5t-57.5 230.5zM618 1626q-3 6 1 14l133 234q8 12 18 12h31 q8 0 11 -6t-1 -14l-137 -236q-6 -10 -18 -10h-25q-10 0 -13 6z" />
<glyph unicode="&#xdb;" horiz-adv-x="1349" d="M213 424v993q0 16 16 17h29q16 0 16 -17v-999q0 -170 110 -273.5t290 -103.5t289.5 103.5t109.5 273.5v999q0 16 17 17h28q16 0 17 -17v-993q0 -131 -57.5 -230.5t-162 -154.5t-241.5 -55t-241.5 55t-162 154.5t-57.5 230.5zM455 1605.5q-2 6.5 4 14.5l176 225 q6 10 20 10h31q14 0 20 -10l177 -225q6 -8 4 -14.5t-13 -6.5h-28q-14 0 -21 11l-147 194q-2 2 -4 2t-4 -2l-154 -194q-6 -10 -20 -11h-29q-10 0 -12 6.5z" />
<glyph unicode="&#xdc;" horiz-adv-x="1349" d="M213 424v993q0 16 16 17h29q16 0 16 -17v-999q0 -170 110 -273.5t290 -103.5t289.5 103.5t109.5 273.5v999q0 16 17 17h28q16 0 17 -17v-993q0 -131 -57.5 -230.5t-162 -154.5t-241.5 -55t-241.5 55t-162 154.5t-57.5 230.5zM446 1761q0 29 20.5 47.5t51.5 18.5 q27 0 46.5 -18.5t19.5 -47.5q0 -27 -19.5 -46t-46.5 -19q-31 0 -51.5 18t-20.5 47zM764 1761q0 27 20.5 46.5t48.5 19.5q29 0 48.5 -18.5t19.5 -47.5t-19.5 -47t-48.5 -18q-28 0 -48.5 19.5t-20.5 45.5z" />
<glyph unicode="&#xdd;" horiz-adv-x="1101" d="M86 1421q0 12 12 13h29q12 0 18 -11l402 -675q2 -2 4 -2.5t4 2.5l401 675q6 10 19 11h29q8 0 11 -6.5t-1 -14.5l-430 -725l-2 -8v-664q0 -16 -17 -16h-28q-17 0 -17 16v664l-2 8l-430 725zM495 1600q-3 6 1 14l133 234q8 12 18 12h31q8 0 11 -6t-1 -14l-137 -236 q-6 -10 -18 -10h-25q-10 0 -13 6z" />
<glyph unicode="&#xde;" horiz-adv-x="1146" d="M215 16v1401q0 16 16 17h29q16 0 16 -17v-319q0 -6 7 -6h405q168 0 269.5 -103.5t101.5 -273.5q0 -168 -102.5 -270.5t-270.5 -102.5h-403q-6 0 -7 -6v-320q0 -16 -16 -16h-29q-16 0 -16 16zM276 403q0 -6 7 -6h405q139 0 224 87t85 231q0 143 -85 231t-224 88h-405 q-6 0 -7 -6v-625z" />
<glyph unicode="&#xdf;" horiz-adv-x="1181" d="M197 16v1059q0 115 52 201t141 131t202 45q199 0 307.5 -95t112.5 -270q2 -123 -52.5 -208.5t-150.5 -116.5q-2 -2 -2 -4t2 -4q100 -37 156.5 -133.5t56.5 -235.5q0 -182 -113.5 -283.5t-337.5 -101.5h-184q-16 0 -16 16v23q0 16 16 16h186q195 0 291.5 86t96.5 246 q0 338 -332 344h-174q-16 0 -17 17v20q0 16 17 16h176q160 0 239.5 76t79.5 217q0 156 -90 238t-268 82q-143 0 -237.5 -85t-96.5 -235v-1061q0 -16 -16 -16h-29q-16 0 -16 16z" />
<glyph unicode="&#xe0;" d="M119 266q0 147 111.5 232.5t308.5 85.5h256q6 0 6 6v117q0 127 -69.5 202.5t-219.5 75.5q-115 0 -190.5 -48t-92.5 -132q-4 -16 -18 -14l-31 6q-16 4 -14 14q20 104 114.5 167.5t237.5 63.5q174 0 259 -91t85 -249v-686q0 -16 -16 -16h-29q-16 0 -16 16v113q0 4 -3 4 t-5 -2q-51 -72 -142.5 -109.5t-199.5 -37.5q-139 0 -235.5 68.5t-96.5 213.5zM180 268q0 -113 77 -171t198 -58q139 0 242.5 67.5t103.5 190.5v225q0 6 -6 6h-258q-160 0 -258.5 -68.5t-98.5 -191.5zM340 1458q0 12 13 12h30q10 0 19 -12l133 -234q2 -2 2 -8q0 -4 -4 -8 t-10 -4h-25q-12 0 -18 10l-138 236z" />
<glyph unicode="&#xe1;" d="M119 266q0 147 111.5 232.5t308.5 85.5h256q6 0 6 6v117q0 127 -69.5 202.5t-219.5 75.5q-115 0 -190.5 -48t-92.5 -132q-4 -16 -18 -14l-31 6q-16 4 -14 14q20 104 114.5 167.5t237.5 63.5q174 0 259 -91t85 -249v-686q0 -16 -16 -16h-29q-16 0 -16 16v113q0 4 -3 4 t-5 -2q-51 -72 -142.5 -109.5t-199.5 -37.5q-139 0 -235.5 68.5t-96.5 213.5zM180 268q0 -113 77 -171t198 -58q139 0 242.5 67.5t103.5 190.5v225q0 6 -6 6h-258q-160 0 -258.5 -68.5t-98.5 -191.5zM466 1210q-3 6 1 14l133 234q8 12 18 12h31q8 0 11 -6t-1 -14l-137 -236 q-6 -10 -18 -10h-25q-10 0 -13 6z" />
<glyph unicode="&#xe2;" d="M119 266q0 147 111.5 232.5t308.5 85.5h256q6 0 6 6v117q0 127 -69.5 202.5t-219.5 75.5q-115 0 -190.5 -48t-92.5 -132q-4 -16 -18 -14l-31 6q-16 4 -14 14q20 104 114.5 167.5t237.5 63.5q174 0 259 -91t85 -249v-686q0 -16 -16 -16h-29q-16 0 -16 16v113q0 4 -3 4 t-5 -2q-51 -72 -142.5 -109.5t-199.5 -37.5q-139 0 -235.5 68.5t-96.5 213.5zM180 268q0 -113 77 -171t198 -58q139 0 242.5 67.5t103.5 190.5v225q0 6 -6 6h-258q-160 0 -258.5 -68.5t-98.5 -191.5zM304 1189.5q-2 6.5 4 14.5l176 225q6 10 20 10h31q14 0 20 -10l177 -225 q6 -8 4 -14.5t-13 -6.5h-28q-14 0 -21 11l-147 194q-2 2 -4 2t-4 -2l-154 -194q-6 -10 -20 -11h-29q-10 0 -12 6.5z" />
<glyph unicode="&#xe3;" d="M119 266q0 147 111.5 232.5t308.5 85.5h256q6 0 6 6v117q0 127 -69.5 202.5t-219.5 75.5q-115 0 -190.5 -48t-92.5 -132q-4 -16 -18 -14l-31 6q-16 4 -14 14q20 104 114.5 167.5t237.5 63.5q174 0 259 -91t85 -249v-686q0 -16 -16 -16h-29q-16 0 -16 16v113q0 4 -3 4 t-5 -2q-51 -72 -142.5 -109.5t-199.5 -37.5q-139 0 -235.5 68.5t-96.5 213.5zM180 268q0 -113 77 -171t198 -58q139 0 242.5 67.5t103.5 190.5v225q0 6 -6 6h-258q-160 0 -258.5 -68.5t-98.5 -191.5zM276 1308q61 88 154 88q33 0 56.5 -11t64.5 -36q31 -23 54.5 -34 t45.5 -11q70 0 115 68q8 14 22 6l13 -6q8 -4 8 -13q0 -4 -8 -20q-29 -47 -70 -68.5t-80 -21.5q-35 0 -62.5 13.5t-58.5 35.5q-33 25 -52 35t-46 10q-35 0 -60.5 -12t-52.5 -49q-4 -8 -11 -9.5t-13 3.5l-15 10q-12 8 -4 22z" />
<glyph unicode="&#xe4;" d="M119 266q0 147 111.5 232.5t308.5 85.5h256q6 0 6 6v117q0 127 -69.5 202.5t-219.5 75.5q-115 0 -190.5 -48t-92.5 -132q-4 -16 -18 -14l-31 6q-16 4 -14 14q20 104 114.5 167.5t237.5 63.5q174 0 259 -91t85 -249v-686q0 -16 -16 -16h-29q-16 0 -16 16v113q0 4 -3 4 t-5 -2q-51 -72 -142.5 -109.5t-199.5 -37.5q-139 0 -235.5 68.5t-96.5 213.5zM180 268q0 -113 77 -171t198 -58q139 0 242.5 67.5t103.5 190.5v225q0 6 -6 6h-258q-160 0 -258.5 -68.5t-98.5 -191.5zM295 1345q0 29 20.5 47.5t51.5 18.5q27 0 46.5 -18.5t19.5 -47.5 q0 -27 -19.5 -46t-46.5 -19q-31 0 -51.5 18t-20.5 47zM613 1345q0 27 20.5 46.5t48.5 19.5q29 0 48.5 -18.5t19.5 -47.5t-19.5 -47t-48.5 -18q-28 0 -48.5 19.5t-20.5 45.5z" />
<glyph unicode="&#xe5;" d="M119 266q0 147 111.5 232.5t308.5 85.5h256q6 0 6 6v117q0 127 -69.5 202.5t-219.5 75.5q-115 0 -190.5 -48t-92.5 -132q-4 -16 -18 -14l-31 6q-16 4 -14 14q20 104 114.5 167.5t237.5 63.5q174 0 259 -91t85 -249v-686q0 -16 -16 -16h-29q-16 0 -16 16v113q0 4 -3 4 t-5 -2q-51 -72 -142.5 -109.5t-199.5 -37.5q-139 0 -235.5 68.5t-96.5 213.5zM180 268q0 -113 77 -171t198 -58q139 0 242.5 67.5t103.5 190.5v225q0 6 -6 6h-258q-160 0 -258.5 -68.5t-98.5 -191.5zM317 1392q0 84 59.5 142.5t145.5 58.5q84 0 143.5 -58.5t59.5 -142.5 t-59.5 -142t-143.5 -58q-86 0 -145.5 58t-59.5 142zM369 1392q0 -63 45 -107t108 -44q64 0 109 44t45 107t-45 107.5t-109 44.5q-63 0 -108 -44t-45 -108z" />
<glyph unicode="&#xe6;" horiz-adv-x="1699" d="M119 264q0 145 110.5 225t309.5 80h256q6 0 6 6v130q0 127 -69.5 203.5t-219.5 76.5q-115 0 -191.5 -48t-93.5 -132q-4 -16 -18 -14l-29 6q-16 4 -14 18q20 102 115.5 164.5t234.5 62.5q131 0 211 -52t111 -148q2 -2 4 -3t4 3q37 90 124 145t201 55q137 0 234.5 -74.5 t126.5 -195.5q8 -39 10 -90t2 -150q0 -18 -16 -18h-658q-6 0 -6 -6v-211q0 -121 90 -188.5t222 -67.5q106 0 183 51t109 137l5 9q2 4 7 7t9 1l22 -4q18 -4 13 -19q-35 -106 -128 -172.5t-222 -66.5q-127 0 -216.5 50t-119.5 146q-2 2 -4.5 3t-2.5 -1q-35 -94 -141 -146 t-235 -52q-140 0 -238 67.5t-98 212.5zM180 266q0 -113 77 -170t198 -57q139 0 242.5 65.5t103.5 192.5v211q0 6 -6 6h-258q-162 0 -259.5 -63.5t-97.5 -184.5zM864 575q0 -6 6 -6h609q6 0 6 6q-4 135 -10 168q-18 109 -100.5 175.5t-203.5 66.5q-119 0 -199.5 -66.5 t-99.5 -175.5q-8 -47 -8 -168z" />
<glyph unicode="&#xe7;" horiz-adv-x="1044" d="M160 516q0 158 24 256q31 123 127.5 196.5t237.5 73.5q139 0 240.5 -71.5t128.5 -177.5l10 -56v-4q0 -10 -15 -14l-28 -2h-4q-10 0 -15 14l-6 33q-18 94 -103 157.5t-208 63.5q-125 0 -208 -66.5t-103 -175.5q-16 -86 -17 -229q0 -145 17 -231q23 -111 104.5 -176.5 t206.5 -65.5q123 0 210 64.5t103 158.5l2 4v13q2 10 19 10l26 -2q14 -2 15 -15v-6q0 -10 -6 -35q-23 -109 -125.5 -179t-243.5 -70l2 -2t4 -5q117 -92 117 -196q0 -86 -49.5 -125t-124.5 -39q-31 0 -62 6q-16 4 -12 21l4 16q4 16 21 12q25 -6 49 -6q51 0 83.5 27.5 t32.5 87.5q0 100 -125 205l-8 2q-113 18 -190.5 88.5t-106.5 177.5q-25 90 -24 262z" />
<glyph unicode="&#xe8;" horiz-adv-x="1077" d="M160 516q0 96 3 152.5t13 101.5q29 123 126 197.5t239 74.5q147 0 245.5 -76.5t124.5 -205.5q8 -37 10.5 -93.5t2.5 -150.5q0 -16 -17 -16h-680q-6 0 -6 -6q0 -72 2 -128.5t8 -82.5q20 -109 103.5 -175.5t208.5 -66.5q110 0 190 51t113 137l4 9q4 6 10 6h10l21 -4 q16 -4 10 -21q-39 -106 -134 -170.5t-226 -64.5q-139 0 -234.5 72.5t-128.5 193.5q-12 47 -15 103.5t-3 162.5zM221 559q0 -6 6 -6h629q6 0 6 6q0 139 -10 184q-23 109 -105.5 175.5t-205.5 66.5q-125 0 -207 -66.5t-103 -173.5q-10 -49 -10 -186zM356 1458q0 12 13 12h30 q10 0 19 -12l133 -234q2 -2 2 -8q0 -4 -4 -8t-10 -4h-25q-12 0 -18 10l-138 236z" />
<glyph unicode="&#xe9;" horiz-adv-x="1077" d="M160 516q0 96 3 152.5t13 101.5q29 123 126 197.5t239 74.5q147 0 245.5 -76.5t124.5 -205.5q8 -37 10.5 -93.5t2.5 -150.5q0 -16 -17 -16h-680q-6 0 -6 -6q0 -72 2 -128.5t8 -82.5q20 -109 103.5 -175.5t208.5 -66.5q110 0 190 51t113 137l4 9q4 6 10 6h10l21 -4 q16 -4 10 -21q-39 -106 -134 -170.5t-226 -64.5q-139 0 -234.5 72.5t-128.5 193.5q-12 47 -15 103.5t-3 162.5zM221 559q0 -6 6 -6h629q6 0 6 6q0 139 -10 184q-23 109 -105.5 175.5t-205.5 66.5q-125 0 -207 -66.5t-103 -173.5q-10 -49 -10 -186zM482 1210q-3 6 1 14 l133 234q8 12 18 12h31q8 0 11 -6t-1 -14l-137 -236q-6 -10 -18 -10h-25q-10 0 -13 6z" />
<glyph unicode="&#xea;" horiz-adv-x="1077" d="M160 516q0 96 3 152.5t13 101.5q29 123 126 197.5t239 74.5q147 0 245.5 -76.5t124.5 -205.5q8 -37 10.5 -93.5t2.5 -150.5q0 -16 -17 -16h-680q-6 0 -6 -6q0 -72 2 -128.5t8 -82.5q20 -109 103.5 -175.5t208.5 -66.5q110 0 190 51t113 137l4 9q4 6 10 6h10l21 -4 q16 -4 10 -21q-39 -106 -134 -170.5t-226 -64.5q-139 0 -234.5 72.5t-128.5 193.5q-12 47 -15 103.5t-3 162.5zM221 559q0 -6 6 -6h629q6 0 6 6q0 139 -10 184q-23 109 -105.5 175.5t-205.5 66.5q-125 0 -207 -66.5t-103 -173.5q-10 -49 -10 -186zM320 1189.5q-2 6.5 4 14.5 l176 225q6 10 20 10h31q14 0 20 -10l177 -225q6 -8 4 -14.5t-13 -6.5h-28q-14 0 -21 11l-147 194q-2 2 -4 2t-4 -2l-154 -194q-6 -10 -20 -11h-29q-10 0 -12 6.5z" />
<glyph unicode="&#xeb;" horiz-adv-x="1077" d="M160 516q0 96 3 152.5t13 101.5q29 123 126 197.5t239 74.5q147 0 245.5 -76.5t124.5 -205.5q8 -37 10.5 -93.5t2.5 -150.5q0 -16 -17 -16h-680q-6 0 -6 -6q0 -72 2 -128.5t8 -82.5q20 -109 103.5 -175.5t208.5 -66.5q110 0 190 51t113 137l4 9q4 6 10 6h10l21 -4 q16 -4 10 -21q-39 -106 -134 -170.5t-226 -64.5q-139 0 -234.5 72.5t-128.5 193.5q-12 47 -15 103.5t-3 162.5zM221 559q0 -6 6 -6h629q6 0 6 6q0 139 -10 184q-23 109 -105.5 175.5t-205.5 66.5q-125 0 -207 -66.5t-103 -173.5q-10 -49 -10 -186zM311 1345q0 29 20.5 47.5 t51.5 18.5q27 0 46.5 -18.5t19.5 -47.5q0 -27 -19.5 -46t-46.5 -19q-31 0 -51.5 18t-20.5 47zM629 1345q0 27 20.5 46.5t48.5 19.5q29 0 48.5 -18.5t19.5 -47.5t-19.5 -47t-48.5 -18q-28 0 -48.5 19.5t-20.5 45.5z" />
<glyph unicode="&#xec;" horiz-adv-x="428" d="M28 1460q0 12 13 12h30q10 0 19 -12l133 -234q2 -2 2 -8q0 -4 -4 -8t-10 -4h-25q-12 0 -18 10l-138 236zM180 16v994q0 16 17 16h28q16 0 17 -16v-994q0 -16 -17 -16h-28q-17 0 -17 16z" />
<glyph unicode="&#xed;" horiz-adv-x="428" d="M155 1212q-3 6 1 14l133 234q8 12 18 12h31q8 0 11 -6t-1 -14l-137 -236q-6 -10 -18 -10h-25q-10 0 -13 6zM180 16v994q0 16 17 16h28q16 0 17 -16v-994q0 -16 -17 -16h-28q-17 0 -17 16z" />
<glyph unicode="&#xee;" horiz-adv-x="428" d="M-8 1191.5q-2 6.5 4 14.5l176 225q6 10 20 10h31q14 0 20 -10l177 -225q6 -8 4 -14.5t-13 -6.5h-28q-14 0 -21 11l-147 194q-2 2 -4 2t-4 -2l-154 -194q-6 -10 -20 -11h-29q-10 0 -12 6.5zM180 16v994q0 16 17 16h28q16 0 17 -16v-994q0 -16 -17 -16h-28q-17 0 -17 16z " />
<glyph unicode="&#xef;" horiz-adv-x="610" d="M77 1347q0 29 20.5 47.5t51.5 18.5q27 0 46.5 -18.5t19.5 -47.5q0 -27 -19.5 -46t-46.5 -19q-31 0 -51.5 18t-20.5 47zM280 16v994q0 16 17 16h28q16 0 17 -16v-994q0 -16 -17 -16h-28q-17 0 -17 16zM395 1347q0 27 20.5 46.5t48.5 19.5q29 0 48.5 -18.5t19.5 -47.5 t-19.5 -47t-48.5 -18q-28 0 -48.5 19.5t-20.5 45.5z" />
<glyph unicode="&#xf0;" horiz-adv-x="1060" d="M158 449v63v66q0 129 14 188q27 121 120 193.5t228 72.5q82 0 155 -28.5t120 -79.5q6 -6 6 2q-39 145 -172 293q-2 2 -8 2l-177 -58l-8 -2q-8 0 -12 13l-4 16v4q0 10 10 14l150 52q6 4 2 8q-80 78 -168 145q-6 6 -6 10q0 10 14 11h37q12 0 20 -7l53 -45q74 -57 111 -96 q2 -2 8 -2l146 47q2 2 8 2q10 0 12 -12l4 -14q2 -2 2 -9q0 -10 -12 -14l-119 -39q-6 -4 -2 -8q86 -98 139.5 -224t65.5 -298q4 -35 4 -115v-90v-104q0 -102 -12 -154q-29 -121 -126 -194.5t-235 -73.5q-137 0 -230 73.5t-124 194.5q-14 61 -14 197zM219 510q0 -78 1 -139.5 t7 -89.5q20 -109 100.5 -175.5t198.5 -66.5q119 0 201 66.5t102 175.5q9 30 9 145v84v88q0 111 -9 141q-20 106 -102 173t-201 67t-198.5 -66.5t-100.5 -173.5q-8 -45 -8 -229z" />
<glyph unicode="&#xf1;" horiz-adv-x="1095" d="M197 16v994q0 16 16 16h29q16 0 16 -16v-123q0 -4 2 -6t4 2q45 76 124 116.5t183 40.5q154 0 250.5 -95t96.5 -249v-680q0 -16 -17 -16h-29q-16 0 -16 16v670q0 131 -82 214t-211 83q-137 0 -221 -81t-84 -212v-674q0 -16 -16 -16h-29q-16 0 -16 16zM301 1292 q61 88 154 88q33 0 56.5 -11t64.5 -36q31 -23 54.5 -34t45.5 -11q70 0 115 68q8 14 22 6l13 -6q8 -4 8 -13q0 -4 -8 -20q-29 -47 -70 -68.5t-80 -21.5q-35 0 -62.5 13.5t-58.5 35.5q-33 25 -52 35t-46 10q-35 0 -60.5 -12t-52.5 -49q-4 -8 -11 -9.5t-13 3.5l-15 10 q-12 8 -4 22z" />
<glyph unicode="&#xf2;" horiz-adv-x="1085" d="M160 516q0 96 3 153.5t13 102.5q29 123 127 196.5t240 73.5q141 0 241.5 -74.5t126.5 -195.5q14 -61 15 -197v-61v-65q0 -133 -15 -195q-29 -121 -128 -195.5t-240 -74.5q-142 0 -239 73.5t-128 196.5q-10 45 -13 101.5t-3 160.5zM221 514q0 -178 10 -231 q20 -109 103.5 -175.5t208.5 -66.5q123 0 207 66.5t106 175.5q8 45 8 231t-8 229q-20 106 -105 174t-208 68t-207 -66.5t-105 -175.5q-10 -55 -10 -229zM360 1458q0 12 13 12h30q10 0 19 -12l133 -234q2 -2 2 -8q0 -4 -4 -8t-10 -4h-25q-12 0 -18 10l-138 236z" />
<glyph unicode="&#xf3;" horiz-adv-x="1085" d="M160 516q0 96 3 153.5t13 102.5q29 123 127 196.5t240 73.5q141 0 241.5 -74.5t126.5 -195.5q14 -61 15 -197v-61v-65q0 -133 -15 -195q-29 -121 -128 -195.5t-240 -74.5q-142 0 -239 73.5t-128 196.5q-10 45 -13 101.5t-3 160.5zM221 514q0 -178 10 -231 q20 -109 103.5 -175.5t208.5 -66.5q123 0 207 66.5t106 175.5q8 45 8 231t-8 229q-20 106 -105 174t-208 68t-207 -66.5t-105 -175.5q-10 -55 -10 -229zM487 1210q-3 6 1 14l133 234q8 12 18 12h31q8 0 11 -6t-1 -14l-137 -236q-6 -10 -18 -10h-25q-10 0 -13 6z" />
<glyph unicode="&#xf4;" horiz-adv-x="1085" d="M160 516q0 96 3 153.5t13 102.5q29 123 127 196.5t240 73.5q141 0 241.5 -74.5t126.5 -195.5q14 -61 15 -197v-61v-65q0 -133 -15 -195q-29 -121 -128 -195.5t-240 -74.5q-142 0 -239 73.5t-128 196.5q-10 45 -13 101.5t-3 160.5zM221 514q0 -178 10 -231 q20 -109 103.5 -175.5t208.5 -66.5q123 0 207 66.5t106 175.5q8 45 8 231t-8 229q-20 106 -105 174t-208 68t-207 -66.5t-105 -175.5q-10 -55 -10 -229zM324 1189.5q-2 6.5 4 14.5l176 225q6 10 20 10h31q14 0 20 -10l177 -225q6 -8 4 -14.5t-13 -6.5h-28q-14 0 -21 11 l-147 194q-2 2 -4 2t-4 -2l-154 -194q-6 -10 -20 -11h-29q-10 0 -12 6.5z" />
<glyph unicode="&#xf5;" horiz-adv-x="1085" d="M160 516q0 96 3 153.5t13 102.5q29 123 127 196.5t240 73.5q141 0 241.5 -74.5t126.5 -195.5q14 -61 15 -197v-61v-65q0 -133 -15 -195q-29 -121 -128 -195.5t-240 -74.5q-142 0 -239 73.5t-128 196.5q-10 45 -13 101.5t-3 160.5zM221 514q0 -178 10 -231 q20 -109 103.5 -175.5t208.5 -66.5q123 0 207 66.5t106 175.5q8 45 8 231t-8 229q-20 106 -105 174t-208 68t-207 -66.5t-105 -175.5q-10 -55 -10 -229zM297 1308q61 88 154 88q33 0 56.5 -11t64.5 -36q31 -23 54.5 -34t45.5 -11q70 0 115 68q8 14 22 6l13 -6q8 -4 8 -13 q0 -4 -8 -20q-29 -47 -70 -68.5t-80 -21.5q-35 0 -62.5 13.5t-58.5 35.5q-33 25 -52 35t-46 10q-35 0 -60.5 -12t-52.5 -49q-4 -8 -11 -9.5t-13 3.5l-15 10q-12 8 -4 22z" />
<glyph unicode="&#xf6;" horiz-adv-x="1085" d="M160 516q0 96 3 153.5t13 102.5q29 123 127 196.5t240 73.5q141 0 241.5 -74.5t126.5 -195.5q14 -61 15 -197v-61v-65q0 -133 -15 -195q-29 -121 -128 -195.5t-240 -74.5q-142 0 -239 73.5t-128 196.5q-10 45 -13 101.5t-3 160.5zM221 514q0 -178 10 -231 q20 -109 103.5 -175.5t208.5 -66.5q123 0 207 66.5t106 175.5q8 45 8 231t-8 229q-20 106 -105 174t-208 68t-207 -66.5t-105 -175.5q-10 -55 -10 -229zM315 1345q0 29 20.5 47.5t51.5 18.5q27 0 46.5 -18.5t19.5 -47.5q0 -27 -19.5 -46t-46.5 -19q-31 0 -51.5 18t-20.5 47z M633 1345q0 27 20.5 46.5t48.5 19.5q29 0 48.5 -18.5t19.5 -47.5t-19.5 -47t-48.5 -18q-28 0 -48.5 19.5t-20.5 45.5z" />
<glyph unicode="&#xf7;" horiz-adv-x="1040" d="M92 672v22q0 16 17 17h825q16 0 16 -17v-22q0 -16 -16 -17h-825q-17 1 -17 17zM430 393q0 35 26.5 60.5t61.5 25.5t62.5 -25.5t27.5 -60.5q0 -37 -26.5 -62.5t-63.5 -25.5t-62.5 25.5t-25.5 62.5zM430 1016q0 35 26.5 60.5t61.5 25.5t62.5 -25.5t27.5 -60.5 q0 -37 -26.5 -62.5t-63.5 -25.5t-62.5 25.5t-25.5 62.5z" />
<glyph unicode="&#xf8;" horiz-adv-x="1091" d="M166 516q0 96 3 153.5t13 102.5q29 123 127.5 196.5t239.5 73.5q139 0 239 -71q4 -2 9 2l59 90q10 16 23 6l22 -14q12 -10 4 -25l-65 -100q-2 -2 2 -8q57 -63 76 -150q14 -61 14 -197v-61v-65q0 -133 -14 -195q-29 -121 -128.5 -195.5t-240.5 -74.5q-156 0 -256 88 q-2 4 -8 -2l-70 -105q-10 -16 -22 -6l-21 14q-12 8 -4 23l78 119q2 4 -2 8q-43 59 -62 131q-10 45 -13 101.5t-3 160.5zM227 514q0 -178 11 -231q12 -64 41 -105q2 -2 4 -2t4 2l469 733q4 4 0 9q-86 66 -207 65q-123 0 -207 -66.5t-104 -175.5q-10 -55 -11 -229zM322 129 q-2 -2 2 -8q86 -80 225 -80q123 0 207 66.5t106 175.5q8 45 8 231t-8 229q-14 72 -55 123q-2 2 -4 2t-4 -2z" />
<glyph unicode="&#xf9;" horiz-adv-x="1093" d="M178 324v686q0 16 17 16h28q16 0 17 -16v-674q0 -133 79.5 -213t210.5 -80q139 0 222.5 81t83.5 212v674q0 16 16 16h29q16 0 16 -16v-994q0 -16 -16 -16h-29q-16 0 -16 16v123q0 4 -2.5 4t-4.5 -2q-45 -74 -123.5 -114.5t-183.5 -40.5q-154 0 -249 92t-95 246zM364 1442 q0 12 13 12h30q10 0 19 -12l133 -234q2 -2 2 -8q0 -4 -4 -8t-10 -4h-25q-12 0 -18 10l-138 236z" />
<glyph unicode="&#xfa;" horiz-adv-x="1093" d="M178 324v686q0 16 17 16h28q16 0 17 -16v-674q0 -133 79.5 -213t210.5 -80q139 0 222.5 81t83.5 212v674q0 16 16 16h29q16 0 16 -16v-994q0 -16 -16 -16h-29q-16 0 -16 16v123q0 4 -2.5 4t-4.5 -2q-45 -74 -123.5 -114.5t-183.5 -40.5q-154 0 -249 92t-95 246zM491 1194 q-3 6 1 14l133 234q8 12 18 12h31q8 0 11 -6t-1 -14l-137 -236q-6 -10 -18 -10h-25q-10 0 -13 6z" />
<glyph unicode="&#xfb;" horiz-adv-x="1093" d="M178 324v686q0 16 17 16h28q16 0 17 -16v-674q0 -133 79.5 -213t210.5 -80q139 0 222.5 81t83.5 212v674q0 16 16 16h29q16 0 16 -16v-994q0 -16 -16 -16h-29q-16 0 -16 16v123q0 4 -2.5 4t-4.5 -2q-45 -74 -123.5 -114.5t-183.5 -40.5q-154 0 -249 92t-95 246z M328 1173.5q-2 6.5 4 14.5l176 225q6 10 20 10h31q14 0 20 -10l177 -225q6 -8 4 -14.5t-13 -6.5h-28q-14 0 -21 11l-147 194q-2 2 -4 2t-4 -2l-154 -194q-6 -10 -20 -11h-29q-10 0 -12 6.5z" />
<glyph unicode="&#xfc;" horiz-adv-x="1093" d="M178 324v686q0 16 17 16h28q16 0 17 -16v-674q0 -133 79.5 -213t210.5 -80q139 0 222.5 81t83.5 212v674q0 16 16 16h29q16 0 16 -16v-994q0 -16 -16 -16h-29q-16 0 -16 16v123q0 4 -2.5 4t-4.5 -2q-45 -74 -123.5 -114.5t-183.5 -40.5q-154 0 -249 92t-95 246zM319 1329 q0 29 20.5 47.5t51.5 18.5q27 0 46.5 -18.5t19.5 -47.5q0 -27 -19.5 -46t-46.5 -19q-31 0 -51.5 18t-20.5 47zM637 1329q0 27 20.5 46.5t48.5 19.5q29 0 48.5 -18.5t19.5 -47.5t-19.5 -47t-48.5 -18q-28 0 -48.5 19.5t-20.5 45.5z" />
<glyph unicode="&#xfd;" horiz-adv-x="890" d="M57 1014q0 4 4.5 8t12.5 4h28q16 0 19 -12l323 -924q2 -2 4.5 -2t4.5 2l317 924q4 12 18 12h29q8 0 13.5 -5t0.5 -13l-397 -1129q-45 -127 -83 -187.5t-84 -81t-126 -20.5h-14q-14 1 -14 17v22q0 16 14 17h14q78 2 120 28.5t73 95t82 226.5q2 2 1 4t-1 4l-357 1004z M388 1196q-3 6 1 14l133 234q8 12 18 12h31q8 0 11 -6t-1 -14l-137 -236q-6 -10 -18 -10h-25q-10 0 -13 6z" />
<glyph unicode="&#xfe;" horiz-adv-x="1089" d="M197 -393v1810q0 16 16 17h29q16 0 16 -17v-538q0 -4 2 -4.5t4 4.5q45 78 121 120.5t176 42.5q137 0 233.5 -74.5t123.5 -195.5q10 -45 12 -100.5t2 -161.5q0 -104 -2 -157.5t-12 -98.5q-31 -123 -125.5 -196.5t-231.5 -73.5q-100 0 -177 43t-120 118q-2 4 -4 4.5 t-2 -4.5v-538q0 -16 -16 -17h-29q-16 0 -16 17zM258 365q2 -39 10 -91q20 -100 95 -166.5t192 -66.5q119 0 203 65.5t100 167.5q6 39 9 81t3 159q0 121 -3 162t-11 76q-20 100 -102 166.5t-199 66.5q-115 0 -190.5 -66.5t-94.5 -166.5q-10 -43 -12 -97v-290z" />
<glyph unicode="&#xff;" horiz-adv-x="890" d="M57 1014q0 4 4.5 8t12.5 4h28q16 0 19 -12l323 -924q2 -2 4.5 -2t4.5 2l317 924q4 12 18 12h29q8 0 13.5 -5t0.5 -13l-397 -1129q-45 -127 -83 -187.5t-84 -81t-126 -20.5h-14q-14 1 -14 17v22q0 16 14 17h14q78 2 120 28.5t73 95t82 226.5q2 2 1 4t-1 4l-357 1004z M217 1331q0 29 20.5 47.5t51.5 18.5q27 0 46.5 -18.5t19.5 -47.5q0 -27 -19.5 -46t-46.5 -19q-31 0 -51.5 18t-20.5 47zM535 1331q0 27 20.5 46.5t48.5 19.5q29 0 48.5 -18.5t19.5 -47.5t-19.5 -47t-48.5 -18q-28 0 -48.5 19.5t-20.5 45.5z" />
<glyph unicode="&#x152;" horiz-adv-x="1871" d="M178 395v641q0 119 52.5 213t146.5 147.5t215 53.5q119 0 212 -51t144 -142q2 -2 5 -2t3 5v157q0 16 17 17h739q16 0 17 -17v-24q-1 -17 -17 -17h-688q-6 0 -6 -6v-616q0 -6 6 -6h465q16 0 16 -17v-24q0 -16 -16 -17h-465q-6 0 -6 -6v-621q0 -6 6 -6h688q16 0 17 -16v-25 q0 -16 -17 -16h-739q-16 0 -17 16v158q0 4 -3 4t-5 -2q-51 -90 -143 -140t-213 -50t-215 53t-146.5 146.5t-52.5 209.5zM240 393q0 -100 44 -180t126 -126t186 -46q106 0 188 46t127 126t45 180v645q0 100 -45 181t-128 127.5t-187 46.5t-186 -46.5t-126 -127t-44 -181.5 v-645z" />
<glyph unicode="&#x153;" horiz-adv-x="1740" d="M160 457v78q0 90 3 142t13 95q29 121 124 195.5t230 74.5q117 0 208 -58t132 -155q2 -4 4.5 -4t4.5 4q39 96 128 154.5t205 58.5q137 0 233.5 -74.5t127.5 -195.5q8 -39 11 -85t3 -167q0 -16 -16 -16h-662q-6 0 -6 -6q0 -174 8 -215q20 -109 101.5 -175.5t204.5 -66.5 q104 0 182 51t108 135l4 9q2 4 7.5 7t9.5 1l22 -4q18 -4 13 -19q-37 -109 -129.5 -173t-221.5 -64q-115 0 -203.5 58t-129.5 155q-2 4 -4.5 4t-4.5 -4q-41 -96 -132 -154.5t-208 -58.5q-137 0 -230 73.5t-124 196.5q-16 63 -16 203zM221 514q0 -78 2 -140.5t8 -90.5 q20 -109 100.5 -175.5t198.5 -66.5q119 0 201 66.5t103 175.5q6 31 6 135v96v100q0 100 -6 129q-20 109 -102.5 175.5t-201.5 66.5t-198.5 -66.5t-100.5 -175.5q-6 -31 -8 -93t-2 -136zM903 559q0 -6 6 -6h609q6 0 6 6q0 135 -8 184q-23 109 -104 175.5t-200 66.5 q-118 0 -199 -66.5t-102 -175.5q-8 -51 -8 -184z" />
<glyph unicode="&#x178;" horiz-adv-x="1101" d="M86 1421q0 12 12 13h29q12 0 18 -11l402 -675q2 -2 4 -2.5t4 2.5l401 675q6 10 19 11h29q8 0 11 -6.5t-1 -14.5l-430 -725l-2 -8v-664q0 -16 -17 -16h-28q-17 0 -17 16v664l-2 8l-430 725zM323 1735q0 29 20.5 47.5t51.5 18.5q27 0 46.5 -18.5t19.5 -47.5 q0 -27 -19.5 -46t-46.5 -19q-31 0 -51.5 18t-20.5 47zM641 1735q0 27 20.5 46.5t48.5 19.5q29 0 48.5 -18.5t19.5 -47.5t-19.5 -47t-48.5 -18q-28 0 -48.5 19.5t-20.5 45.5z" />
<glyph unicode="&#x2c6;" horiz-adv-x="456" d="M13 1173.5q-2 6.5 4 14.5l176 225q6 10 20 10h31q14 0 20 -10l177 -225q6 -8 4 -14.5t-13 -6.5h-28q-14 0 -21 11l-147 194q-2 2 -4 2t-4 -2l-154 -194q-6 -10 -20 -11h-29q-10 0 -12 6.5z" />
<glyph unicode="&#x2dc;" horiz-adv-x="690" d="M80 1292q61 88 154 88q33 0 56.5 -11t64.5 -36q31 -23 54.5 -34t45.5 -11q70 0 115 68q8 14 22 6l13 -6q8 -4 8 -13q0 -4 -8 -20q-29 -47 -70 -68.5t-80 -21.5q-35 0 -62.5 13.5t-58.5 35.5q-33 25 -52 35t-46 10q-35 0 -60.5 -12t-52.5 -49q-4 -8 -11 -9.5t-13 3.5 l-15 10q-12 8 -4 22z" />
<glyph unicode="&#x2000;" horiz-adv-x="992" />
<glyph unicode="&#x2001;" horiz-adv-x="1985" />
<glyph unicode="&#x2002;" horiz-adv-x="992" />
<glyph unicode="&#x2003;" horiz-adv-x="1985" />
<glyph unicode="&#x2004;" horiz-adv-x="661" />
<glyph unicode="&#x2005;" horiz-adv-x="496" />
<glyph unicode="&#x2006;" horiz-adv-x="330" />
<glyph unicode="&#x2007;" horiz-adv-x="330" />
<glyph unicode="&#x2008;" horiz-adv-x="248" />
<glyph unicode="&#x2009;" horiz-adv-x="397" />
<glyph unicode="&#x200a;" horiz-adv-x="110" />
<glyph unicode="&#x2010;" horiz-adv-x="790" d="M92 643v25q0 16 17 16h573q16 0 16 -16v-25q0 -16 -16 -16h-573q-17 0 -17 16z" />
<glyph unicode="&#x2011;" horiz-adv-x="790" d="M92 643v25q0 16 17 16h573q16 0 16 -16v-25q0 -16 -16 -16h-573q-17 0 -17 16z" />
<glyph unicode="&#x2012;" horiz-adv-x="790" d="M92 643v25q0 16 17 16h573q16 0 16 -16v-25q0 -16 -16 -16h-573q-17 0 -17 16z" />
<glyph unicode="&#x2013;" horiz-adv-x="890" d="M92 565v25q0 16 17 16h673q16 0 17 -16v-25q0 -16 -17 -16h-673q-17 0 -17 16z" />
<glyph unicode="&#x2014;" horiz-adv-x="1435" d="M92 565v25q0 16 17 16h1218q16 0 16 -16v-25q0 -16 -16 -16h-1218q-17 0 -17 16z" />
<glyph unicode="&#x2018;" horiz-adv-x="210" d="M8 1045.5q-4 5.5 0 13.5l146 362q4 12 18 13h18q8 0 13.5 -5.5t1.5 -13.5l-131 -362q-2 -12 -19 -13h-35q-8 0 -12 5.5z" />
<glyph unicode="&#x2019;" horiz-adv-x="210" d="M6 1059l131 362q4 12 19 13h34q9 0 13 -5.5t0 -13.5l-146 -362q-4 -12 -18 -13h-19q-8 0 -13 5.5t-1 13.5z" />
<glyph unicode="&#x201a;" horiz-adv-x="1228" d="M168 -121l104 420q4 14 19 14h26q18 0 15 -18l-109 -420q-4 -14 -18 -14h-23q-8 0 -12 5t-2 13z" />
<glyph unicode="&#x201c;" horiz-adv-x="430" d="M8 1045.5q-4 5.5 0 13.5l144 362q4 12 18 13h18q8 0 13.5 -5.5t1.5 -13.5l-131 -362q-2 -12 -19 -13h-33q-8 0 -12 5.5zM229 1045.5q-4 5.5 0 13.5l144 362q4 12 18 13h19q8 0 13 -5.5t1 -13.5l-131 -362q-2 -12 -19 -13h-32q-9 0 -13 5.5z" />
<glyph unicode="&#x201d;" horiz-adv-x="430" d="M6 1059l131 362q4 12 19 13h32q9 0 13 -5.5t0 -13.5l-144 -362q-4 -12 -18 -13h-19q-8 0 -13 5.5t-1 13.5zM227 1059l131 362q4 12 19 13h33q8 0 12 -5.5t0 -13.5l-143 -362q-4 -12 -19 -13h-18q-8 0 -13.5 5.5t-1.5 13.5z" />
<glyph unicode="&#x201e;" horiz-adv-x="432" d="M6 -115l131 362q4 12 19 13h32q9 0 13 -5.5t0 -13.5l-144 -362q-4 -12 -18 -13h-19q-8 0 -13 5.5t-1 13.5zM227 -115l131 362q4 12 19 13h33q8 0 12 -5.5t0 -13.5l-143 -362q-4 -12 -19 -13h-18q-8 0 -13.5 5.5t-1.5 13.5z" />
<glyph unicode="&#x2022;" horiz-adv-x="622" d="M92 537q0 90 64.5 153.5t154.5 63.5t154.5 -63.5t64.5 -153.5t-64.5 -156t-154.5 -66t-154.5 65.5t-64.5 156.5z" />
<glyph unicode="&#x2026;" horiz-adv-x="1550" d="M186 102q0 37 28 62.5t65 25.5t64.5 -25.5t27.5 -62.5t-28 -63.5t-64 -26.5q-39 0 -66 27t-27 63zM684 102q0 37 28 62.5t65 25.5t64.5 -25.5t27.5 -62.5t-28 -63.5t-64 -26.5q-39 0 -66 27t-27 63zM1167 102q0 37 28 62.5t65 25.5t64.5 -25.5t27.5 -62.5t-28 -63.5 t-64 -26.5q-39 0 -66 27t-27 63z" />
<glyph unicode="&#x202f;" horiz-adv-x="397" />
<glyph unicode="&#x2039;" horiz-adv-x="778" d="M180 563q-10 12 0 25l295 336q6 8 21 8h24q10 0 12.5 -6t-4.5 -15l-290 -331q-2 -4 0 -9l290 -331q7 -9 4.5 -15t-12.5 -6h-24q-14 0 -21 8z" />
<glyph unicode="&#x203a;" horiz-adv-x="839" d="M246 225q-2 6 4 15l291 331q2 4 0 9l-291 331q-6 8 -4 14.5t12 6.5h25q14 0 20 -8l295 -336q8 -12 0 -25l-295 -336q-6 -8 -20 -8h-25q-10 0 -12 6z" />
<glyph unicode="&#x205f;" horiz-adv-x="496" />
<glyph unicode="&#x20ac;" horiz-adv-x="1304" d="M178 586v18q0 16 17 17h151q6 0 6 6v172q0 6 -6 6h-151q-16 0 -17 16v19q0 16 17 16h151q6 0 6 6v205q0 172 108.5 277.5t289.5 105.5q166 0 271 -91t120 -245v-4q0 -10 -15 -14l-28 -4h-4q-12 0 -15 14q-10 131 -100 209t-229 78q-152 0 -244 -89.5t-92 -234.5v-207 q0 -6 6 -6h549q18 0 12 -18l-8 -21q-4 -12 -21 -12h-532q-6 0 -6 -6v-172q0 -6 6 -6h479q18 0 12 -19l-8 -20q-4 -12 -20 -13h-463q-6 0 -6 -6v-198q0 -145 93 -235.5t243 -90.5q139 0 228 75.5t101 207.5q4 16 19 14l28 -6q16 -4 15 -19q-18 -150 -124 -239.5t-267 -89.5 q-180 0 -289 106.5t-109 282.5v192q0 6 -6 6h-151q-16 0 -17 17z" />
<glyph unicode="&#x2122;" horiz-adv-x="1331" d="M53 1403v14q0 16 17 17h452q16 0 17 -17v-14q0 -16 -17 -17h-200q-6 0 -7 -6v-649q0 -16 -16 -16h-18q-16 0 -17 16v649q0 6 -6 6h-188q-17 1 -17 17zM711 731v686q0 16 16 17h25q14 0 18 -11l188 -297q2 -2 4.5 -2t4.5 2l190 297q7 11 19 11h22q16 0 16 -17v-686 q0 -16 -16 -16h-18q-16 0 -17 16v594q0 4 -3 5t-5 -3l-170 -262q-4 -10 -18 -10h-4q-12 0 -19 10l-172 262q-2 4 -5 3t-3 -5v-594q0 -16 -16 -16h-21q-16 0 -16 16z" />
<glyph unicode="&#x25fc;" d="M0 0v1024h1024v-1024h-1024z" />
</font>
</defs>
</svg>
