<?xml version="1.0" standalone="no"?>
<!DOCTYPE svg PUBLIC "-//W3C//DTD SVG 1.1//EN" "http://www.w3.org/Graphics/SVG/1.1/DTD/svg11.dtd" >
<svg xmlns="http://www.w3.org/2000/svg" xmlns:xlink="http://www.w3.org/1999/xlink" version="1.1">
<metadata></metadata>
<defs>
<font id="barlowsemibold" horiz-adv-x="1069" >
<font-face units-per-em="2048" ascent="1638" descent="-410" />
<missing-glyph horiz-adv-x="409" />
<glyph horiz-adv-x="0" />
<glyph unicode="&#xd;" horiz-adv-x="409" />
<glyph unicode=" "  horiz-adv-x="409" />
<glyph unicode="&#x09;" horiz-adv-x="409" />
<glyph unicode="&#xa0;" horiz-adv-x="409" />
<glyph unicode="!" horiz-adv-x="692" d="M176 162q0 66 50 111.5t114 45.5q66 0 117 -46t51 -111q0 -66 -48 -112t-120 -46q-70 0 -117 46t-47 112zM227 1401q0 33 33 33h172q33 0 33 -33l-23 -885q0 -33 -32 -33h-127q-33 0 -33 33z" />
<glyph unicode="&#x22;" horiz-adv-x="665" d="M43 1395v4q0 29 31 28h164q16 0 24 -9t6 -23l-20 -385q-2 -33 -35 -33h-115q-33 0 -35 33zM401 1395v4q0 29 31 28h164q16 0 24.5 -9t6.5 -23l-21 -385q-2 -33 -35 -33h-114q-33 0 -35 33z" />
<glyph unicode="#" horiz-adv-x="1386" d="M115 410v137q0 33 32 33h140q10 0 14 12l37 242q4 12 -12 12h-103q-33 0 -33 33v139q0 33 33 33h137q10 0 15 10l45 289q4 31 35 30l172 -2q16 0 24 -9t4 -26l-43 -280q-2 -12 13 -12h239q10 0 15 10l45 289q4 31 34 30l172 -2q16 0 24.5 -9t4.5 -26l-43 -280 q-2 -12 12 -12h111q33 0 33 -33l-2 -139q0 -33 -33 -33h-141q-10 0 -15 -10l-39 -244q-2 -12 13 -12h108q33 0 33 -33v-137q0 -33 -33 -33h-141q-10 0 -14 -10l-45 -289q-4 -31 -35 -31l-172 2q-16 0 -24.5 9.5t-4.5 25.5l43 281q4 12 -12 12h-240q-10 0 -14 -10l-45 -289 q-4 -31 -35 -31l-172 2q-16 0 -24.5 9.5t-4.5 25.5l43 281q4 12 -12 12h-107q-33 0 -32 33zM539 592q-2 -12 12 -12h240q10 0 14 12l37 242q4 12 -13 12h-237q-10 0 -14 -10z" />
<glyph unicode="$" horiz-adv-x="1124" d="M98 354v84q0 33 33 33h168q33 0 33 -31v-32q0 -94 64.5 -157t178.5 -63q109 0 166.5 54.5t57.5 136.5q0 49 -32 86t-80 63.5t-138 67.5q-12 6 -75.5 36t-123.5 64q-125 72 -186.5 152t-61.5 209q0 160 94.5 262t266.5 125q12 4 12 14l-2 115q0 33 33 33h90q33 0 33 -33 l-2 -113q0 -10 12 -14q184 -16 285.5 -118.5t101.5 -262.5v-64q0 -33 -33 -32h-168q-14 0 -23 7t-9 17v23q0 100 -61.5 164.5t-178.5 64.5q-100 0 -157.5 -48t-57.5 -132q0 -53 30.5 -89t78 -60.5t141.5 -61.5l125 -51q166 -76 244.5 -175.5t78.5 -236.5q0 -168 -101 -275.5 t-288 -125.5q-12 -4 -12 -15l2 -100q0 -33 -33 -33h-94q-33 0 -33 33l2 100q0 10 -12 15q-172 20 -270.5 118.5t-98.5 245.5z" />
<glyph unicode="%" horiz-adv-x="1705" d="M150 1141q0 84 41.5 155.5t114.5 113.5t159 42q84 0 156.5 -42t114.5 -113.5t42 -155.5q0 -86 -42 -158t-113.5 -114t-157.5 -42t-159 42t-114.5 114t-41.5 158zM281 1141q0 -78 53 -132.5t131 -54.5q76 0 129 54.5t53 132.5q0 76 -53 130t-129 54t-130 -53t-54 -131z M381 20q0 10 6 19l764 1372q12 23 39 23h100q29 0 29 -21q0 -8 -6 -18l-762 -1372q-12 -23 -39 -23h-102q-29 0 -29 20zM938 295q0 84 42 155.5t114.5 113.5t158.5 42q84 0 157 -42t115 -113.5t42 -155.5q0 -86 -42 -157.5t-114 -113.5t-158 -42t-158.5 42t-114.5 113.5 t-42 157.5zM1069 295q0 -78 53.5 -132t130.5 -54q76 0 129.5 54t53.5 132q0 76 -53.5 130t-129.5 54t-130 -53t-54 -131z" />
<glyph unicode="&#x26;" horiz-adv-x="1411" d="M92 334q0 139 75 234.5t206 179.5q8 6 2 16q-109 127 -143.5 193.5t-34.5 134.5q0 162 107.5 260t283.5 98q119 0 211 -44t144 -124t52 -184q0 -127 -73.5 -214t-204.5 -169q-10 -6 -4 -17l123 -137l112 -127q4 -4 9.5 -4t7.5 4q59 66 120 156q12 16 27 16q10 0 18 -6 l127 -72q16 -8 17 -24q0 -10 -6 -21q-80 -117 -164 -215q-4 -4 -4 -8q0 -6 10 -16l109 -127l67 -78q10 -11 10 -21q0 -8 -8 -13t-20 -5h-191q-25 0 -41 18l-86 97q-8 8 -18 2q-186 -133 -412 -133q-188 0 -308 89t-120 261zM330 344q0 -74 52 -117t140 -43q127 0 266 92 q8 8 3 19q-43 49 -64 70q-29 35 -65 73l-134 150q-8 8 -18 2q-84 -55 -132 -114.5t-48 -131.5zM434 1092q0 -35 24.5 -77t102.5 -138q10 -10 19 -5q86 57 132 108.5t46 113.5q0 63 -45 101t-119 38q-72 0 -116 -39t-44 -102z" />
<glyph unicode="'" horiz-adv-x="317" d="M43 1399v4q0 29 31 29h174q16 0 25.5 -9.5t7.5 -23.5l-23 -383q-2 -33 -35 -33h-125q-33 0 -35 33z" />
<glyph unicode="(" horiz-adv-x="647" d="M-4 676q0 264 67.5 485t180.5 375q14 20 39 20h163q29 0 29 -20q0 -8 -6 -18q-90 -162 -148.5 -377t-58.5 -465q0 -246 58.5 -459t148.5 -375q6 -10 6 -18q0 -20 -29 -21h-165q-25 1 -39 21q-111 154 -178.5 372t-67.5 480z" />
<glyph unicode=")" horiz-adv-x="647" d="M172 -176q0 8 6 18q90 162 148.5 375t58.5 459q0 250 -58.5 465t-148.5 377q-6 10 -6 18q0 20 29 20h164q25 0 38 -20q113 -154 180.5 -375t67.5 -485q0 -262 -67.5 -480.5t-177.5 -371.5q-14 -21 -39 -21h-166q-29 0 -29 21z" />
<glyph unicode="*" horiz-adv-x="815" d="M55 1036q0 18 19 27l180 98q14 8 0 17l-180 94q-18 10 -19 24q0 8 6 21l37 69q10 18 25 19q10 0 20 -6l181 -103q6 -4 10 -1t4 10v192q0 33 33 33h73q33 0 33 -33v-192q0 -6 4 -9.5t11 0.5l180 103q8 6 20 6q16 0 25 -19l37 -69q6 -12 6 -19q0 -14 -19 -24l-182 -96 q-14 -8 0 -17l182 -98q18 -8 19 -27q0 -8 -6 -18l-37 -70q-8 -18 -25 -18q-12 0 -20 6l-180 104q-6 4 -10.5 1t-4.5 -9v-194q0 -33 -33 -33h-73q-33 0 -33 33v194q0 6 -4 9t-10 -1l-181 -104q-8 -6 -20 -6q-14 0 -25 18l-37 70q-6 10 -6 18z" />
<glyph unicode="+" horiz-adv-x="1005" d="M66 555v139q0 33 32 33h291q12 0 12 12v293q0 33 33 33h137q33 0 33 -33v-293q0 -12 12 -12h289q33 0 33 -33v-139q0 -33 -33 -33h-289q-12 0 -12 -12v-285q0 -33 -33 -32h-137q-33 0 -33 32v285q0 12 -12 12h-291q-33 0 -32 33z" />
<glyph unicode="," horiz-adv-x="542" d="M104 -152l74 443q6 31 35 31h147q16 0 23.5 -10.5t3.5 -26.5l-117 -443q-6 -29 -37 -28h-100q-16 0 -24.5 9t-4.5 25z" />
<glyph unicode="-" horiz-adv-x="827" d="M66 547v139q0 33 32 33h629q33 0 33 -33v-139q0 -33 -33 -33h-629q-32 0 -32 33z" />
<glyph unicode="." horiz-adv-x="552" d="M109 156q0 63 50 109t113 46q66 0 117 -46t51 -109q0 -66 -48 -112t-120 -46q-71 0 -117 45t-46 113z" />
<glyph unicode="/" horiz-adv-x="845" d="M59 37l494 1370q10 27 39 27h168q18 0 25.5 -9.5t0.5 -27.5l-493 -1370q-10 -27 -39 -27h-168q-18 0 -25.5 9t-1.5 28z" />
<glyph unicode="0" horiz-adv-x="1163" d="M113 428v578q0 205 126 324.5t341 119.5t343 -120t128 -324v-578q0 -207 -128 -329t-343 -122t-341 122t-126 329zM350 416q0 -106 62.5 -169t167.5 -63q106 0 169.5 62.5t63.5 169.5v598q0 106 -63.5 168.5t-169.5 62.5q-104 0 -167 -62.5t-63 -168.5v-598z" />
<glyph unicode="1" horiz-adv-x="698" d="M78 1180v118q0 25 24 37l199 90q16 9 39 9h184q33 0 33 -33v-1368q0 -33 -33 -33h-172q-33 0 -33 33v1161q0 14 -14 10l-190 -53q-4 -2 -11 -2q-12 0 -19 8t-7 23z" />
<glyph unicode="2" horiz-adv-x="1128" d="M96 1006v79q4 111 63.5 193t161 127t226.5 45q137 0 239.5 -51t157.5 -140.5t55 -199.5q0 -168 -178 -387q-66 -84 -156 -186.5t-180 -202.5l-57 -64q-6 -6 -4 -10t10 -4h565q33 0 33 -33v-139q0 -33 -33 -33h-864q-33 0 -33 33v135q0 23 17 39q96 102 321 364l131 152 q188 219 189 332q0 84 -59.5 137t-153.5 53t-152.5 -53t-58.5 -141v-45q0 -33 -33 -33h-174q-33 0 -33 33z" />
<glyph unicode="3" horiz-adv-x="1087" d="M80 426q0 33 33 33h174q33 0 35 -33q4 -53 16 -96q20 -66 70.5 -104t121.5 -38q137 0 185 123q31 66 30 152q0 100 -34 174q-49 115 -183 115q-35 0 -82 -27q-12 -6 -20 -6q-12 0 -25 14l-86 109q-8 10 -8 22t12 25l330 325q6 6 4 10.5t-10 4.5h-508q-33 0 -33 33v139 q0 33 33 33h801q33 0 33 -33v-154q0 -20 -17 -41l-293 -297q-2 -2 -2 -6q0 -6 13 -10q195 -29 274 -211q41 -98 41 -225q0 -96 -37 -203q-47 -129 -155.5 -199.5t-262.5 -70.5q-152 0 -263 76.5t-158 207.5q-20 68 -29 158z" />
<glyph unicode="4" horiz-adv-x="1200" d="M78 410v118q0 23 8 39l385 842q10 25 37 25h182q29 0 29 -23l-4 -16l-359 -791q-6 -14 11 -14h358q12 0 12 12v268q0 33 33 33h172q33 0 33 -33v-268q0 -12 12 -12h74q33 0 33 -33v-147q0 -33 -33 -33h-74q-12 0 -12 -12v-332q0 -33 -33 -33h-172q-33 0 -33 33v332 q0 12 -12 12h-614q-33 0 -33 33z" />
<glyph unicode="5" horiz-adv-x="1085" d="M106 356v9q0 12 8.5 19t22.5 7h178q23 0 33 -22q4 -12 4 -15q6 -10 8 -22q20 -66 70.5 -104t122.5 -38t123 40t69 108q18 53 19 111q0 63 -16 120q-14 68 -65.5 104t-129.5 36q-63 0 -114.5 -26t-76.5 -75q-12 -25 -36 -24h-187q-33 0 -33 32v785q0 33 33 33h781 q33 0 32 -33v-139q0 -33 -32 -33h-564q-4 0 -8 -4t-4 -8l-2 -365q0 -8 4 -9t10 3q96 70 230 69q143 0 248.5 -72.5t144.5 -199.5q27 -92 27 -190q0 -96 -27 -183q-43 -131 -157.5 -207.5t-268.5 -76.5q-152 0 -264.5 74.5t-157.5 201.5q-18 45 -25 94z" />
<glyph unicode="6" horiz-adv-x="1083" d="M104 455v624q0 111 55.5 195t155 130t228.5 46q125 0 222 -45t151.5 -127t54.5 -188v-37q0 -33 -33 -33h-172q-33 0 -33 20v19q0 82 -54 134t-138 52q-86 0 -142.5 -54t-56.5 -140v-222q0 -8 4 -9t10 3q88 82 236 82q121 0 212 -51t144 -147q56 -104 56 -254 q0 -125 -41 -220q-49 -119 -155 -183t-253 -64q-154 0 -262.5 70.5t-155.5 197.5q-33 86 -33 201zM342 442q0 -84 27 -137q49 -113 184 -112q129 0 182 110q31 62 31 146q0 92 -35 157q-57 98 -178 99q-127 0 -180 -103q-31 -61 -31 -160z" />
<glyph unicode="7" horiz-adv-x="999" d="M53 1135v266q0 33 33 33h846q33 0 33 -33v-152q0 -10 -9 -39l-446 -1183q-10 -27 -39 -27h-184q-39 0 -27 37l447 1177q4 14 -9 15h-436q-12 0 -12 -12v-82q0 -33 -33 -33h-131q-33 0 -33 33z" />
<glyph unicode="8" horiz-adv-x="1091" d="M90 414q0 113 47 211q37 76 113 129q4 4 4 9t-4 7q-61 43 -100 104q-53 86 -54 191q0 125 64 217q57 84 157.5 130t227.5 46q143 0 245.5 -52t155.5 -157q47 -86 47 -186t-51 -180q-41 -61 -106 -113q-6 -2 -6.5 -6t6.5 -8q78 -49 116 -135q43 -86 43 -209 q0 -129 -51 -222q-51 -96 -155.5 -151t-245.5 -55q-137 0 -240.5 55t-159.5 160q-53 96 -53 215zM332 1040q0 -70 33 -122q57 -88 180 -89q125 0 184 95q31 49 31 118q0 63 -25 109q-29 49 -77 76.5t-113 27.5q-66 0 -114 -26.5t-73 -73.5q-26 -47 -26 -115zM334 432 q0 -96 37 -158q55 -90 174 -90q57 0 100 21.5t70 62.5q43 62 43 168q0 61 -23 117q-23 57 -72 88t-118 31q-129 0 -187 -117q-25 -55 -24 -123z" />
<glyph unicode="9" horiz-adv-x="1079" d="M76 981q0 125 41 219q49 119 154.5 183.5t252.5 64.5q154 0 262.5 -70.5t155.5 -197.5q33 -86 33 -201v-625q0 -111 -55.5 -194.5t-154.5 -129.5t-228 -46q-125 0 -222.5 45t-151.5 127t-54 188v37q0 33 32 33h172q33 0 33 -19v-20q0 -82 54.5 -134.5t138.5 -52.5 q86 0 142 54.5t56 140.5v221q0 8 -4 9t-10 -3q-88 -82 -236 -82q-121 0 -212 51.5t-144 147.5q-55 104 -55 254zM313 985q0 -92 35 -158q57 -98 178 -98q127 0 181 102q30 62 30 160q0 84 -26 137q-49 113 -185 113q-129 0 -182 -111q-31 -61 -31 -145z" />
<glyph unicode=":" horiz-adv-x="727" d="M199 176q0 63 51 109.5t115 46.5q66 0 116.5 -46t50.5 -110q0 -66 -49 -112t-118 -46q-72 0 -119 45.5t-47 112.5zM199 852q0 66 51 112t115 46q66 0 116.5 -46t50.5 -112t-49 -112t-118 -46q-72 0 -119 46t-47 112z" />
<glyph unicode=";" horiz-adv-x="643" d="M160 825q0 63 50 109.5t116 46.5t116 -46t50 -110q0 -66 -48.5 -112.5t-117.5 -46.5q-72 0 -119 46t-47 113zM174 -147l47 432q4 31 35 30h150q16 0 24 -10t4 -26l-98 -433q-6 -29 -35 -28h-96q-15 0 -24 9t-7 26z" />
<glyph unicode="&#x3c;" horiz-adv-x="1005" d="M68 481v154q0 25 24 37l809 366q12 4 14 4q10 0 17.5 -8t7.5 -22v-160q0 -25 -25 -37l-587 -248q-8 -2 -8.5 -7t8.5 -9l587 -250q25 -12 25 -37v-160q0 -18 -11 -26t-28 0l-809 366q-25 12 -24 37z" />
<glyph unicode="=" horiz-adv-x="1005" d="M66 350v139q0 33 32 33h807q33 0 33 -33v-139q0 -33 -33 -33h-807q-32 0 -32 33zM66 756v139q0 33 32 33h807q33 0 33 -33v-139q0 -33 -33 -33h-807q-32 0 -32 33z" />
<glyph unicode="&#x3e;" horiz-adv-x="1005" d="M66 104v160q0 25 24 37l588 250q8 4 8 9t-8 7l-588 248q-25 12 -24 37v160q0 18 11 26.5t27 -0.5l809 -366q25 -12 25 -37v-154q0 -25 -25 -37l-809 -366q-12 -4 -14 -4q-10 0 -17 8t-7 22z" />
<glyph unicode="?" horiz-adv-x="1024" d="M66 1028v27q0 117 57 208t159.5 141t235.5 50q199 0 317.5 -105.5t118.5 -279.5q0 -90 -31.5 -155.5t-73.5 -106.5t-114 -92t-106.5 -89t-34.5 -94v-61q0 -33 -33 -33h-172q-33 0 -33 33v76q0 98 49.5 158.5t143.5 128.5q82 59 123 107t41 120q0 80 -55.5 128t-145.5 48 q-94 0 -151.5 -51t-57.5 -131v-35q0 -16 -9 -24.5t-24 -6.5l-172 8q-14 2 -23 10.5t-9 20.5zM332 145q0 61 45 104.5t110 43.5q61 0 108.5 -43t47.5 -105q0 -61 -47 -104t-111 -43q-63 0 -108 43t-45 104z" />
<glyph unicode="@" horiz-adv-x="1683" d="M98 471q0 27 4 88q20 227 138 399t300.5 265.5t391.5 93.5q194 0 341.5 -77t228.5 -217t81 -325q0 -53 -6 -108q-25 -197 -121 -305.5t-252 -108.5q-72 0 -127 22.5t-88 65.5q-10 10 -16 0q-39 -43 -95.5 -64.5t-113.5 -21.5q-113 0 -185.5 56.5t-86.5 144.5q-4 37 -5 59 q0 49 11 117q12 104 39 172q35 98 113.5 151.5t172.5 53.5q104 0 158 -62q4 -4 9 -3t7 7l2 19q4 31 35 31h94q14 0 23.5 -9.5t7.5 -25.5l-51 -387q-2 -12 -2 -37q0 -61 30.5 -100t84.5 -39q74 0 122 66.5t64 189.5q8 51 8 108q0 227 -134 352t-359 125q-168 0 -312.5 -74.5 t-237.5 -217t-108 -336.5q-2 -23 -2 -66q0 -152 59.5 -266.5t170 -178t260.5 -63.5q94 0 182 21.5t141 54.5q12 6 21 6q16 0 24 -12l47 -58q8 -10 9 -22q0 -16 -13 -25q-76 -53 -193.5 -85.5t-240.5 -32.5q-184 0 -327.5 81.5t-223.5 231t-80 346.5zM647 461q0 -18 4 -39 q4 -47 38 -76t87 -29q49 0 86 29t58 76q10 23 17 49.5t13 85.5q6 68 6 92l-2 41q-4 45 -35.5 74t-82.5 29q-49 0 -89 -29t-61 -74q-16 -37 -31 -141q-8 -55 -8 -88z" />
<glyph unicode="A" horiz-adv-x="1327" d="M68 37l438 1370q8 27 37 27h239q29 0 37 -27l441 -1370q2 -4 2 -12q0 -25 -29 -25h-186q-29 0 -37 27l-64 211q-2 10 -14 10h-537q-12 0 -14 -10l-64 -211q-8 -27 -36 -27h-187q-16 0 -23.5 10t-2.5 27zM444 449q-1 -15 11 -15h417q12 0 11 15l-211 696q-2 8 -7.5 8 t-9.5 -8z" />
<glyph unicode="B" horiz-adv-x="1273" d="M150 33v1368q0 33 32 33h492q223 0 344 -96.5t121 -290.5q0 -211 -185 -297q-8 -2 -8 -7.5t8 -9.5q205 -98 205 -336q0 -195 -130 -296t-339 -101h-508q-33 0 -32 33zM387 219q0 -12 12 -12h291q107 0 169.5 57.5t62.5 155.5q0 100 -63.5 156.5t-172.5 56.5h-287 q-12 0 -12 -12v-402zM387 842q0 -12 12 -13h275q109 0 171 52.5t62 144.5q0 94 -62.5 148.5t-170.5 54.5h-275q-12 0 -12 -12v-375z" />
<glyph unicode="C" horiz-adv-x="1245" d="M115 465v506q0 143 63.5 251.5t180 168t270.5 59.5q152 0 268.5 -57.5t180 -162t63.5 -241.5q0 -20 -31 -24l-174 -11h-8q-25 0 -25 11v12q0 121 -74.5 194.5t-199.5 73.5t-201 -73.5t-76 -194.5v-522q0 -119 76 -193t201 -74t199.5 73t74.5 194q0 10 9.5 17t23.5 5 l172 -8q33 -4 33 -10v-10q0 -139 -63.5 -245t-180.5 -163t-268 -57q-154 0 -270.5 60t-180 169t-63.5 252z" />
<glyph unicode="D" horiz-adv-x="1265" d="M150 33v1368q0 33 32 33h492q145 0 255.5 -51.5t171 -146.5t60.5 -222v-594q0 -127 -60.5 -222.5t-171 -146.5t-255.5 -51h-492q-32 0 -32 33zM387 217q0 -12 12 -12h285q109 0 173.5 68.5t66.5 183.5v518q0 117 -65.5 185.5t-176.5 68.5h-283q-12 0 -12 -12v-1000z" />
<glyph unicode="E" horiz-adv-x="1212" d="M150 33v1368q0 33 32 33h905q33 0 33 -33v-139q0 -33 -33 -33h-688q-12 0 -12 -12v-379q0 -12 12 -13h459q33 0 33 -32v-140q0 -33 -33 -32h-459q-12 0 -12 -13v-391q0 -12 12 -12h688q33 0 33 -33v-139q0 -33 -33 -33h-905q-33 0 -32 33z" />
<glyph unicode="F" horiz-adv-x="1153" d="M150 33v1368q0 33 32 33h903q33 0 33 -33v-139q0 -33 -33 -33h-686q-12 0 -12 -12v-379q0 -12 12 -13h459q33 0 33 -32v-140q0 -33 -33 -32h-459q-12 0 -12 -13v-575q0 -33 -33 -33h-172q-33 0 -32 33z" />
<glyph unicode="G" horiz-adv-x="1241" d="M115 469v496q0 145 63.5 254.5t180 170t270.5 60.5q152 0 267.5 -59.5t179 -162t63.5 -231.5v-8q0 -33 -33 -33h-170q-14 0 -23.5 5.5t-9.5 13.5v16q0 111 -74.5 182.5t-199.5 71.5t-201 -74.5t-76 -197.5v-512q0 -123 80 -198t207 -75q123 0 193.5 64.5t70.5 177.5v125 q0 12 -12 12h-242q-33 0 -33 33v135q0 33 33 33h457q33 0 33 -33v-254q0 -236 -138.5 -366.5t-371.5 -130.5q-154 0 -270.5 60t-180 171t-63.5 254z" />
<glyph unicode="H" horiz-adv-x="1304" d="M150 33v1368q0 33 32 33h172q33 0 33 -33v-563q0 -12 12 -13h519q12 0 12 13v563q0 33 33 33h172q33 0 32 -33v-1368q0 -33 -32 -33h-172q-33 0 -33 33v575q0 12 -12 13h-519q-12 0 -12 -13v-575q0 -33 -33 -33h-172q-33 0 -32 33z" />
<glyph unicode="I" horiz-adv-x="536" d="M150 33v1368q0 33 32 33h172q33 0 33 -33v-1368q0 -33 -33 -33h-172q-32 0 -32 33z" />
<glyph unicode="J" horiz-adv-x="1202" d="M45 436v78q0 33 33 33h172q33 0 33 -33v-78q0 -111 73.5 -179.5t192.5 -68.5t192.5 69t73.5 179v965q0 33 33 33h172q33 0 33 -33v-965q0 -135 -63.5 -237.5t-177.5 -158.5t-263 -56q-150 0 -263.5 56t-177 158.5t-63.5 237.5z" />
<glyph unicode="K" horiz-adv-x="1269" d="M150 33v1368q0 33 32 33h172q33 0 33 -33v-602q0 -8 5 -9.5t9 5.5l527 620q16 18 41 19h194q27 0 27 -21q0 -12 -8 -20l-461 -564q-6 -6 0 -16l496 -774q6 -8 6 -19q0 -20 -29 -20h-197q-27 0 -39 23l-399 622q-4 6 -9 7t-9 -5l-148 -174q-6 -8 -6 -14v-426 q0 -33 -33 -33h-172q-32 0 -32 33z" />
<glyph unicode="L" horiz-adv-x="1169" d="M150 33v1368q0 33 32 33h172q33 0 33 -33v-1184q0 -12 12 -12h676q33 0 33 -33v-139q0 -33 -33 -33h-893q-32 0 -32 33z" />
<glyph unicode="M" horiz-adv-x="1452" d="M150 33v1368q0 33 32 33h174q29 0 41 -23l320 -516q4 -6 9 -6t7 6l324 516q12 23 41 23h172q33 0 33 -33v-1368q0 -33 -33 -33h-172q-33 0 -33 33v968q0 8 -5 10.5t-9 -5.5l-244 -400q-12 -23 -41 -22h-80q-29 0 -41 22l-244 400q-4 8 -9 6t-5 -11v-968q0 -33 -33 -33 h-172q-32 0 -32 33z" />
<glyph unicode="N" horiz-adv-x="1359" d="M150 33v1368q0 33 32 33h164q29 0 41 -23l574 -938q4 -8 9 -6t5 10v924q0 33 33 33h172q33 0 32 -33v-1368q0 -33 -32 -33h-168q-29 0 -41 23l-574 944q-4 8 -9 6t-5 -10l2 -930q0 -33 -33 -33h-170q-32 0 -32 33z" />
<glyph unicode="O" horiz-adv-x="1271" d="M115 483v467q0 147 65.5 261t183 176.5t271.5 62.5q156 0 273.5 -62.5t183 -176t65.5 -261.5v-467q0 -150 -65.5 -264.5t-183 -176.5t-273.5 -62q-154 0 -272.5 62t-183 177t-64.5 264zM352 475q0 -131 78 -211t205 -80q129 0 207 80t78 211v477q0 133 -78 213t-207 80 q-127 0 -205 -80t-78 -213v-477z" />
<glyph unicode="P" horiz-adv-x="1218" d="M137 33v1370q0 33 33 33h555q129 0 227.5 -53.5t152.5 -150.5t54 -224q0 -125 -55 -221.5t-156.5 -148.5t-234.5 -52h-326q-12 0 -12 -13v-540q0 -33 -33 -33h-172q-33 0 -33 33zM375 791q0 -12 12 -13h303q105 0 168.5 61.5t63.5 161.5q0 102 -63.5 166t-168.5 64h-303 q-12 0 -12 -12v-428z" />
<glyph unicode="Q" horiz-adv-x="1202" d="M96 463v491q0 147 63.5 260t177.5 174.5t263 61.5q150 0 264.5 -61.5t178 -174t63.5 -260.5v-491q0 -180 -101.5 -305t-273.5 -162q-10 -4 -10 -12v-164q0 -33 -33 -33h-172q-33 0 -33 33v164q0 8 -10 12q-174 35 -275.5 160t-101.5 307zM334 467q0 -125 73.5 -202 t192.5 -77q121 0 194.5 77t73.5 202v500q0 125 -73.5 201.5t-194.5 76.5q-119 0 -192.5 -76.5t-73.5 -201.5v-500z" />
<glyph unicode="R" horiz-adv-x="1255" d="M150 33v1370q0 33 32 33h555q125 0 221.5 -52.5t149.5 -147.5t53 -218q0 -141 -72.5 -240.5t-199.5 -136.5q-6 -2 -8 -7t2 -9l282 -586l4 -16q0 -23 -28 -23h-180q-29 0 -39 25l-269 585q-2 8 -14 8h-240q-12 0 -12 -12v-573q0 -33 -33 -33h-172q-33 0 -32 33zM387 815 q0 -12 12 -12h306q98 0 158.5 58.5t60.5 152.5q0 96 -60.5 156.5t-158.5 60.5h-306q-12 0 -12 -12v-404z" />
<glyph unicode="S" horiz-adv-x="1208" d="M92 395v43q0 33 33 33h168q33 0 33 -31v-32q0 -94 83 -157t220 -63q125 0 188.5 53.5t63.5 137.5q0 57 -35 97t-99.5 73t-193.5 82q-145 53 -235.5 100t-151 128t-60.5 202q0 180 131.5 284.5t350.5 104.5q154 0 271.5 -53.5t183 -148.5t65.5 -220v-27q0 -33 -33 -32 h-168q-14 0 -23.5 7t-9.5 17v23q0 96 -78.5 162.5t-217.5 66.5q-113 0 -175.5 -47t-62.5 -133q0 -61 33 -100t98.5 -71t202.5 -81q145 -55 232 -100t149.5 -126t62.5 -202q0 -119 -61.5 -210t-176 -141t-270.5 -50q-155 0 -273 51t-181.5 144t-63.5 216z" />
<glyph unicode="T" horiz-adv-x="1185" d="M70 1260v141q0 33 32 33h981q33 0 33 -33v-141q0 -33 -33 -33h-366q-12 0 -12 -13v-1181q0 -33 -33 -33h-172q-33 0 -33 33v1181q0 12 -12 13h-353q-33 0 -32 33z" />
<glyph unicode="U" horiz-adv-x="1302" d="M137 465v936q0 33 33 33h172q33 0 33 -33v-940q0 -121 75.5 -197t200.5 -76t201 76t76 197v940q0 33 33 33h172q33 0 32 -33v-936q0 -143 -63.5 -253t-180 -169t-270.5 -59q-151 0 -268 59t-181.5 169t-64.5 253z" />
<glyph unicode="V" horiz-adv-x="1249" d="M66 1409q0 25 28 25h187q29 0 36 -27l304 -1059q4 -8 9 -8t7 8l301 1057q6 29 37 29h182q16 0 23.5 -10.5t3.5 -26.5l-430 -1370q-8 -27 -37 -27h-189q-28 0 -36 27l-424 1370q-2 4 -2 12z" />
<glyph unicode="W" horiz-adv-x="1775" d="M43 1407q0 12 8 19.5t23 7.5h184q29 0 35 -29l231 -922q2 -8 8.5 -8t8.5 8l219 922q6 29 35 29h184q31 0 37 -29l233 -922q2 -8 8.5 -8t8.5 8l227 922q6 29 35 29h176q16 0 23.5 -10.5t3.5 -26.5l-349 -1368q-6 -29 -36 -29h-179q-29 0 -34 29l-238 964q-2 8 -8 8t-8 -8 l-228 -964q-6 -29 -35 -29h-165q-31 0 -37 29l-369 1368q-2 4 -2 10z" />
<glyph unicode="X" horiz-adv-x="1261" d="M74 20q0 10 6 19l401 670q6 8 0 16l-401 670q-6 10 -6 18q0 20 26 21h189q29 0 39 -23l295 -500q4 -6 9 -6t7 6l297 500q12 23 39 23h186q27 0 27 -21q0 -8 -6 -18l-402 -670q-6 -8 0 -16l402 -670q6 -8 6 -19q0 -20 -27 -20h-186q-27 0 -39 23l-297 497q-2 6 -7 6t-9 -6 l-297 -497q-10 -23 -39 -23h-187q-26 0 -26 20z" />
<glyph unicode="Y" horiz-adv-x="1226" d="M70 1413q0 20 28 21h187q27 0 39 -25l280 -563q4 -6 9 -6t8 6l282 563q12 25 39 25h188q29 0 29 -21q0 -8 -6 -18l-418 -807q-4 -12 -4 -15v-538q0 -33 -33 -33h-172q-32 0 -32 33v538q0 6 -5 15l-413 807q-6 10 -6 18z" />
<glyph unicode="Z" horiz-adv-x="1134" d="M76 33v160q0 23 12 40l686 981q4 6 2 10.5t-10 4.5h-657q-33 0 -33 33v139q0 33 33 33h905q33 0 33 -33v-160q0 -23 -13 -41l-686 -981q-4 -6 -2 -10t10 -4h658q33 0 33 -33v-139q0 -33 -33 -33h-905q-33 0 -33 33z" />
<glyph unicode="[" horiz-adv-x="825" d="M70 -250v1837q0 33 32 33h435q33 0 32 -33v-139q0 -33 -32 -33h-218q-12 0 -12 -12v-1466q0 -12 12 -13h220q33 0 32 -33v-141q0 -33 -32 -33h-437q-32 0 -32 33z" />
<glyph unicode="\" horiz-adv-x="845" d="M57 1411q0 23 29 23h168q29 0 39 -27l493 -1370q2 -6 2 -14q0 -23 -28 -23h-168q-29 0 -39 27l-494 1370q-2 6 -2 14z" />
<glyph unicode="]" horiz-adv-x="825" d="M254 -109q0 33 33 33h219q12 0 12 13v1466q0 12 -12 12h-217q-33 0 -33 33v139q0 33 33 33h434q33 0 33 -33v-1837q0 -33 -33 -33h-436q-33 0 -33 33v141z" />
<glyph unicode="^" horiz-adv-x="952" d="M80 653l282 754q10 27 39 27h146q29 0 39 -27l284 -754q2 -6 2 -14q0 -23 -28 -23h-133q-29 0 -39 27l-189 535q-2 10 -7 10t-9 -10l-186 -535q-10 -27 -39 -27h-136q-38 0 -26 37z" />
<glyph unicode="_" horiz-adv-x="1042" d="M45 33v117q0 33 33 32h887q33 0 32 -32v-117q0 -33 -32 -33h-887q-33 0 -33 33z" />
<glyph unicode="`" horiz-adv-x="466" d="M66 1415q0 18 26 19h162q27 0 39 -23l106 -194q5 -7 5 -17q0 -23 -29 -22h-133q-27 0 -39 20l-131 197q-6 12 -6 20z" />
<glyph unicode="a" d="M68 293q0 160 111.5 249t314.5 89h217q12 0 12 12v47q0 80 -48 124t-143 44q-72 0 -118.5 -25.5t-63.5 -70.5q-8 -29 -37 -27l-184 23q-16 2 -24.5 9t-6.5 17q18 123 136 201t292 78q129 0 228.5 -45t153 -124t53.5 -179v-682q0 -33 -33 -33h-172q-33 0 -33 33v51 q0 8 -4 9t-10 -3q-111 -106 -295 -106q-152 0 -249 77.5t-97 231.5zM305 309q0 -66 49 -101.5t125 -35.5q101 0 172.5 53.5t71.5 134.5v95q0 12 -12 12h-170q-109 0 -172.5 -41t-63.5 -117z" />
<glyph unicode="b" horiz-adv-x="1128" d="M129 33v1368q0 33 33 33h172q33 0 33 -33v-434q0 -8 5 -9.5t9 5.5q90 100 233 100q150 0 250.5 -76t145.5 -211q34 -105 34 -250q0 -141 -36 -256q-45 -133 -147.5 -209.5t-246.5 -76.5q-145 0 -233 106q-4 8 -9 6t-5 -10v-53q0 -33 -33 -33h-172q-33 0 -33 33zM371 524 q0 -158 47 -237q57 -96 160 -97q119 0 172 99q49 86 49 233q0 160 -60 250q-57 86 -164 86q-98 0 -153 -90q-51 -84 -51 -244z" />
<glyph unicode="c" horiz-adv-x="1087" d="M98 528q0 147 33 242q43 135 159 214t273 79q160 0 279 -80t157 -201q6 -18 13 -57v-8q0 -23 -27 -29l-170 -26h-8q-23 0 -29 24l-6 27q-14 61 -71.5 103t-137.5 42q-78 0 -132 -40t-73 -109q-20 -66 -20 -183q0 -113 18 -182q20 -72 73.5 -114t133.5 -42q78 0 134.5 40 t72.5 106l2 10q2 10 13.5 20.5t25.5 8.5l170 -27q27 -6 27 -29q0 -12 -9 -49q-39 -131 -157.5 -207.5t-278.5 -76.5q-157 0 -272 80.5t-160 218.5q-33 92 -33 245z" />
<glyph unicode="d" horiz-adv-x="1128" d="M84 526q0 145 35 250q45 135 145.5 211t249.5 76q143 0 234 -100q4 -6 9 -5.5t5 9.5v434q0 33 33 33h172q33 0 32 -33v-1368q0 -33 -32 -33h-172q-33 0 -33 33v53q0 8 -5 10t-9 -6q-88 -106 -234 -106q-143 0 -245.5 76.5t-147.5 209.5q-37 115 -37 256zM330 522 q0 -147 49 -233q53 -98 172 -99q102 0 160 97q47 79 47 237q0 160 -51 244q-55 90 -154 90q-106 0 -164 -86q-59 -90 -59 -250z" />
<glyph unicode="e" horiz-adv-x="1110" d="M102 528q0 141 23 217q39 145 153.5 231.5t278.5 86.5q383 0 449 -420q10 -68 14 -168q0 -33 -33 -33h-635q-12 0 -12 -12q0 -55 12 -90q23 -74 86.5 -115t157.5 -41q76 2 132 32t91 81q10 16 27 16q10 0 18 -6l99 -78q14 -14 14 -26q0 -8 -6 -19q-59 -94 -161.5 -147 t-236.5 -53q-162 0 -271 76.5t-159 213.5q-41 113 -41 254zM342 629q-2 -12 10 -13h412q12 0 12 13q-8 61 -12 73q-18 72 -72.5 114t-136.5 42q-78 0 -128 -38t-69 -105q-14 -41 -16 -86z" />
<glyph unicode="f" horiz-adv-x="770" d="M59 870v146q0 33 33 33h117q12 0 12 12v35q0 133 35 205.5t115 103.5q75 29 208 29h17h63q33 0 33 -33v-127q0 -33 -33 -33h-45q-88 0 -121.5 -35t-33.5 -127v-18q0 -12 12 -12h193q32 0 32 -33v-146q0 -33 -32 -32h-193q-12 0 -12 -13v-792q0 -33 -33 -33h-172 q-33 0 -33 33v792q0 12 -12 13h-117q-33 0 -33 32z" />
<glyph unicode="g" horiz-adv-x="1124" d="M94 528q0 170 33 260q41 125 141.5 200t235.5 75q158 0 250 -92q6 -6 10 -4t4 10v37q0 33 33 33h172q33 0 33 -33v-944q0 -256 -147.5 -367t-385.5 -111q-57 0 -117 7q-29 2 -28 36l6 152q0 14 10 22.5t27 6.5q70 -4 96 -4q156 0 228.5 60t72.5 204v12q0 8 -4 10t-10 -4 q-84 -88 -236 -88q-133 0 -243.5 67.5t-153.5 207.5q-27 96 -27 247zM334 528q0 -127 20 -178q20 -66 74.5 -107.5t130.5 -41.5q80 0 129 41t66 106q8 31 11 67t3 115q0 78 -3 112t-13 67q-16 68 -66.5 108.5t-128.5 40.5q-74 0 -125 -41t-74 -108q-24 -55 -24 -172v-9z" />
<glyph unicode="h" horiz-adv-x="1114" d="M127 33v1368q0 33 33 33h172q33 0 33 -33v-443q0 -8 4 -10t8 4q86 111 252 111q168 0 267 -98.5t99 -268.5v-663q0 -33 -32 -33h-172q-33 0 -33 33v614q0 94 -54.5 152.5t-142.5 58.5t-142 -57.5t-54 -151.5v-616q0 -33 -33 -33h-172q-33 0 -33 33z" />
<glyph unicode="i" horiz-adv-x="522" d="M109 1327q0 66 43 107t110 41q68 0 110 -41t42 -107t-42 -107.5t-110 -41.5q-67 0 -110 42t-43 107zM143 33v981q0 33 33 33h172q33 0 33 -33v-981q0 -33 -33 -33h-172q-33 0 -33 33z" />
<glyph unicode="j" horiz-adv-x="501" d="M-104 -252q0 16 9 24.5t25 6.5q111 0 159 44t48 142v1049q0 33 33 33h172q33 0 33 -33v-1047q0 -147 -42 -231t-139 -121q-91 -35 -249 -35h-17q-32 0 -32 33v135zM104 1321q0 61 45.5 104t106.5 43q63 0 109.5 -43t46.5 -104q0 -63 -44 -106.5t-112 -43.5t-110 43 t-42 107z" />
<glyph unicode="k" d="M127 33v1368q0 33 33 33h172q33 0 33 -33v-727q0 -8 5 -10t9 4l326 360q16 18 40 19h197q12 0 20.5 -6.5t8.5 -14.5q0 -12 -8 -20l-252 -299q-6 -6 -2 -17l303 -651l4 -16q0 -23 -29 -23h-182q-27 0 -37 25l-221 512q-6 12 -17 2l-159 -187q-6 -8 -6 -14v-305 q0 -33 -33 -33h-172q-33 0 -33 33z" />
<glyph unicode="l" horiz-adv-x="497" d="M129 33v1368q0 33 33 33h172q33 0 33 -33v-1368q0 -33 -33 -33h-172q-33 0 -33 33z" />
<glyph unicode="m" horiz-adv-x="1697" d="M127 33v981q0 33 33 33h172q33 0 33 -33v-56q0 -8 5 -10t9 6q88 109 258 109q100 0 175 -40t116 -118q4 -6 9 -6t7 8q47 78 127 117t176 39q158 0 247 -95.5t89 -265.5v-669q0 -33 -33 -33h-170q-33 0 -32 33v620q0 94 -50.5 149.5t-134.5 55.5t-137 -55t-53 -148v-622 q0 -33 -33 -33h-170q-33 0 -33 33v620q0 94 -51 149.5t-135 55.5q-78 0 -128 -45t-58 -123v-657q0 -33 -33 -33h-172q-33 0 -33 33z" />
<glyph unicode="n" horiz-adv-x="1114" d="M127 33v981q0 33 33 33h172q33 0 33 -33v-56q0 -8 4 -10t8 4q86 111 252 111q168 0 267 -98.5t99 -268.5v-663q0 -33 -32 -33h-172q-33 0 -33 33v614q0 94 -54.5 152.5t-142.5 58.5t-142 -57.5t-54 -151.5v-616q0 -33 -33 -33h-172q-33 0 -33 33z" />
<glyph unicode="o" horiz-adv-x="1140" d="M98 526q0 131 33 234q47 143 164 223t280 80q156 0 269.5 -80t161.5 -221q36 -95 36 -227v-7q0 -129 -34 -233q-47 -145 -162 -228t-273 -83q-161 0 -278 81.5t-162 227.5q-35 100 -35 233zM338 524q0 -100 20 -172q23 -78 79.5 -121t135.5 -43q76 0 130.5 43t76.5 121 q23 66 23 172q0 100 -21 172q-23 78 -79 120t-134 42t-133 -42t-78 -120q-20 -72 -20 -172z" />
<glyph unicode="p" horiz-adv-x="1136" d="M137 -354v1368q0 33 33 33h172q33 0 33 -33v-53q0 -8 5 -10.5t9 5.5q88 106 234 107q143 0 245.5 -77t147.5 -210q37 -113 37 -256q0 -145 -35 -250q-45 -135 -145.5 -210.5t-249.5 -75.5q-143 0 -234 100q-4 6 -9 5t-5 -9v-434q0 -33 -33 -33h-172q-33 0 -33 33z M379 522q0 -160 51 -243q55 -90 154 -91q106 0 164 86q59 90 59 250q0 147 -49 234q-53 98 -172 98q-102 0 -160 -96q-47 -80 -47 -238z" />
<glyph unicode="q" horiz-adv-x="1136" d="M84 520q0 143 37 256q45 133 147.5 210t245.5 77q145 0 234 -107q4 -8 9 -6t5 11v53q0 33 33 33h172q33 0 32 -33v-1368q0 -33 -32 -33h-172q-33 0 -33 33v434q0 8 -5 9t-9 -5q-90 -100 -234 -100q-150 0 -250 75.5t-145 210.5q-35 104 -35 250zM330 524q0 -160 59 -250 q57 -86 164 -86q98 0 154 91q51 83 51 243q0 158 -47 238q-57 96 -160 96q-119 0 -172 -98q-49 -86 -49 -234z" />
<glyph unicode="r" horiz-adv-x="770" d="M127 33v981q0 33 33 33h172q33 0 33 -33v-80q0 -8 4 -10t8 6q86 129 237 129q60 0 109 -23q25 -12 18 -41l-32 -170q-2 -16 -11.5 -20t-27.5 0q-25 8 -66 8q-25 0 -39 -2q-86 -4 -143 -60.5t-57 -146.5v-571q0 -33 -33 -33h-172q-33 0 -33 33z" />
<glyph unicode="s" horiz-adv-x="1011" d="M88 279v10q0 33 33 33h164q33 0 32 -15v-14q0 -51 56.5 -89t142.5 -38q82 0 133 33.5t51 85.5q0 47 -42 70.5t-136 50.5l-78 24q-104 31 -175.5 65.5t-121 95t-49.5 154.5q0 143 112 228.5t296 85.5q125 0 219 -40t146.5 -110.5t52.5 -160.5q0 -10 -9.5 -17.5t-23.5 -7.5 h-158q-33 0 -33 12v13q0 53 -52 88.5t-142 35.5q-80 0 -130 -29.5t-50 -82.5q0 -49 47 -75t157 -56l48 -13q111 -33 184.5 -65.5t124.5 -94t51 -157.5q0 -145 -114.5 -228t-305.5 -83q-129 0 -226 37.5t-150.5 104.5t-53.5 149z" />
<glyph unicode="t" horiz-adv-x="765" d="M59 887v127q0 33 33 33h107q12 0 12 12v229q0 33 33 33h162q33 0 32 -33v-229q0 -12 13 -12h198q33 0 33 -33v-127q0 -33 -33 -33h-198q-12 0 -13 -12v-484q0 -80 34 -114.5t108 -34.5h53q33 0 33 -33v-137q0 -33 -33 -35l-98 -2q-162 0 -242 56.5t-82 209.5v574 q0 12 -12 12h-107q-33 0 -33 33z" />
<glyph unicode="u" horiz-adv-x="1107" d="M115 332v682q0 33 32 33h172q33 0 33 -33v-615q0 -96 50.5 -153.5t140.5 -57.5q92 0 147 57.5t55 153.5v615q0 33 33 33h170q33 0 33 -33v-981q0 -33 -33 -33h-170q-33 0 -33 33v53q0 8 -5 10t-9 -6q-82 -104 -250 -104q-156 0 -261 90t-105 256z" />
<glyph unicode="v" horiz-adv-x="1032" d="M55 1024q0 23 29 23h192q29 0 37 -27l195 -680q4 -8 9 -8t7 8l195 678q8 29 37 29l192 -3q16 0 24.5 -10t2.5 -26l-322 -981q-8 -27 -37 -27h-198q-29 0 -37 27l-324 983q-2 6 -2 14z" />
<glyph unicode="w" horiz-adv-x="1558" d="M53 1020q0 12 8.5 19.5t22.5 7.5h178q29 0 35 -29l168 -672q2 -8 8 -8t8 8l174 672q6 29 37 29h158q31 0 37 -29l180 -674q2 -8 8 -8t8 8l177 674q6 29 36 29l177 -3q16 0 24 -10t4 -26l-291 -981q-8 -27 -36 -27h-183q-29 0 -37 27l-176 612q-2 8 -8 8t-8 -8l-162 -610 q-6 -29 -37 -29h-182q-29 0 -37 27l-289 983q-2 4 -2 10z" />
<glyph unicode="x" horiz-adv-x="1056" d="M55 18q0 8 6 21l324 477q6 8 0 16l-324 476q-6 12 -6 20q0 18 27 19h184q25 0 39 -21l209 -309q4 -4 9 -4t7 4l207 309q12 20 39 21h199q27 0 26 -19q0 -8 -6 -20l-323 -476q-6 -8 0 -16l323 -477q6 -12 6 -21q0 -18 -26 -18h-184q-27 0 -39 20l-207 310q-2 4 -7.5 4 t-9.5 -4l-209 -310q-14 -20 -38 -20h-199q-27 0 -27 18z" />
<glyph unicode="y" horiz-adv-x="1001" d="M45 1024q0 23 29 23h184q29 0 37 -27l201 -678q4 -8 9 -8t7 8l195 678q8 27 36 27h185q18 0 25.5 -9.5t0.5 -27.5l-358 -1067q-51 -145 -100.5 -217t-134.5 -103t-240 -31h-15q-14 0 -14 33v131q0 33 14 33h13q84 0 131 15.5t76.5 58.5t54.5 129q4 10 0 16l-334 1002 q-2 6 -2 14z" />
<glyph unicode="z" horiz-adv-x="931" d="M57 33v160q0 25 15 40l497 584q4 6 2 10t-10 4h-461q-33 0 -32 33v150q0 33 32 33h729q33 0 33 -33v-160q0 -25 -14 -41l-510 -584q-4 -6 -2 -10t10 -4h490q33 0 32 -33v-149q0 -33 -32 -33h-746q-33 0 -33 33z" />
<glyph unicode="{" horiz-adv-x="716" d="M70 612v127q0 31 30 33q57 10 84 54t27 126v422q0 246 246 246h157q33 0 33 -33v-139q0 -33 -33 -33h-53q-53 0 -82.5 -36t-29.5 -101v-354q0 -98 -27 -155.5t-84 -86.5q-14 -6 0 -14q57 -29 84 -88.5t27 -155.5v-363q0 -68 29.5 -102.5t82.5 -34.5h53q33 0 33 -33v-141 q0 -33 -33 -33h-157q-246 0 -246 246v432q0 84 -26.5 128t-84.5 55q-31 6 -30 34z" />
<glyph unicode="|" horiz-adv-x="389" d="M76 -131v1655q0 33 33 32h172q33 0 32 -32v-1655q0 -33 -32 -33h-172q-33 0 -33 33z" />
<glyph unicode="}" horiz-adv-x="716" d="M70 -109q0 33 32 33h54q53 0 82.5 35t29.5 102v363q0 96 27 155.5t84 88.5q14 8 0 14q-57 29 -84 86t-27 156v354q0 66 -29.5 101.5t-82.5 35.5h-54q-33 0 -32 33v139q0 33 32 33h158q246 0 246 -246v-422q0 -82 26.5 -126t83.5 -54q31 -2 31 -33v-127q0 -29 -31 -34 q-57 -10 -83.5 -54.5t-26.5 -128.5v-432q0 -246 -246 -246h-158q-33 0 -32 33v141z" />
<glyph unicode="~" d="M76 580q35 80 112.5 130t165.5 50q51 0 89 -13.5t87 -39.5q61 -37 96.5 -52.5t80.5 -15.5q37 0 64.5 18.5t53.5 51.5q8 14 25 14q10 0 20 -6l109 -70q16 -10 16 -26l-4 -17q-39 -76 -111.5 -123t-158.5 -47q-55 0 -95 15.5t-96 44.5q-49 29 -86.5 44t-81.5 15 q-82 0 -135 -70q-10 -16 -26 -16q-10 0 -19 6l-92 64q-25 18 -14 43z" />
<glyph unicode="&#xa1;" horiz-adv-x="692" d="M176 1292q0 66 47 112t117 46q72 0 120 -46t48 -112t-51 -111.5t-117 -45.5q-63 0 -113.5 46t-50.5 111zM227 53l23 885q0 33 33 33h127q33 0 32 -33l23 -885q0 -33 -33 -33h-172q-33 0 -33 33z" />
<glyph unicode="&#xa2;" horiz-adv-x="1087" d="M98 713q0 147 33 241q33 106 114 179t195 100q10 4 11 12l-5 135q0 33 31 33h137q31 0 31 -33l-4 -127q0 -10 12 -14q129 -20 221.5 -94t124.5 -178q6 -18 13 -58v-8q0 -23 -27 -29l-170 -26h-8q-23 0 -29 24l-6 27q-14 61 -71.5 103t-137.5 42q-78 0 -132 -39.5 t-73 -109.5q-20 -66 -20 -182q0 -113 18 -183q20 -72 73.5 -113.5t133.5 -41.5q78 0 134.5 40t72.5 105l2 10q2 10 13.5 20.5t25.5 8.5l170 -27q27 -6 27 -28q0 -12 -9 -49q-33 -111 -126 -184.5t-220 -94.5q-12 -2 -12 -14l4 -125q0 -33 -31 -33h-137q-31 0 -31 33l5 135 q0 8 -11 12q-113 27 -193.5 101.5t-115.5 183.5q-33 92 -33 246z" />
<glyph unicode="&#xa3;" horiz-adv-x="1249" d="M150 637v127q0 33 32 33h131q12 0 13 12v211q0 203 118.5 316.5t323.5 113.5q154 0 256 -77t152 -218q2 -4 2 -10q0 -23 -27 -29l-158 -29l-8 -2q-23 0 -33 25q-27 72 -71.5 103.5t-110.5 31.5q-98 0 -152.5 -55t-54.5 -166v-215q0 -12 12 -12h367q33 0 33 -33v-127 q0 -33 -33 -33h-367q-12 0 -12 -12v-162q0 -127 -78 -211q-6 -6 -4 -10t11 -4h661q33 0 33 -33v-139q0 -33 -33 -33h-907q-33 0 -33 33v145q0 25 23 41q90 63 90 209v164q0 12 -13 12h-131q-33 0 -32 33z" />
<glyph unicode="&#xa4;" horiz-adv-x="1136" d="M47 1001q0 14 12 23l105 92q8 8 22 8t25 -10l115 -115q8 -8 18 -2q98 57 217 58q123 0 225 -64q10 -6 19 2l123 121q10 10 24 10t23 -8l104 -92q12 -8 13 -23q0 -12 -13 -24l-133 -131q-6 -6 -4 -17q55 -98 55 -208q0 -114 -57 -218q-6 -10 2 -18l123 -123q10 -10 10 -22 t-12 -25l-102 -90q-8 -8 -23 -8q-14 0 -25 10l-116 115q-8 8 -19 2q-98 -57 -217 -58q-115 0 -209 54q-10 6 -18 -2l-111 -111q-10 -10 -24 -10t-23 8l-104 90q-12 10 -13 23q0 12 13 24l114 115q8 8 2 18q-63 106 -63 226q0 115 59 217q6 10 -2 18l-123 121q-12 12 -12 24z M330 621q0 -95 68.5 -163.5t162.5 -68.5q96 0 164 67.5t70 164.5q-2 94 -71 162.5t-163 68.5t-162.5 -67.5t-68.5 -163.5z" />
<glyph unicode="&#xa5;" horiz-adv-x="1406" d="M164 1413q0 20 29 21h186q27 0 39 -25l280 -563q4 -6 9.5 -6t7.5 6l282 563q12 25 39 25h189q28 -1 28 -21q0 -8 -6 -18l-358 -693q-6 -14 8 -14h188q33 0 33 -33v-69q0 -33 -33 -33h-247q-12 0 -13 -12v-119q0 -12 13 -12h247q33 0 33 -33v-70q0 -33 -33 -33h-247 q-12 0 -13 -12v-227q0 -33 -32 -33h-172q-33 0 -33 33v227q0 12 -13 12h-251q-33 0 -33 33v70q0 33 33 33h251q12 0 13 12v119q0 12 -13 12h-251q-33 0 -33 33v69q0 33 33 33h192q14 0 8 14l-354 693q-6 10 -6 18z" />
<glyph unicode="&#xa6;" horiz-adv-x="389" d="M76 -131v670q0 33 33 32h172q33 0 32 -32v-670q0 -33 -32 -33h-172q-33 0 -33 33zM76 854v670q0 33 33 32h172q33 0 32 -32v-670q0 -33 -32 -33h-172q-33 0 -33 33z" />
<glyph unicode="&#xa7;" horiz-adv-x="989" d="M92 496q0 113 58 200q47 72 137 105q8 2 8 6t-6 8q-82 39 -134.5 115t-52.5 176q0 92 50.5 171t140.5 126t205 47q111 0 198.5 -44t138 -123t50.5 -179v-35q0 -33 -33 -33h-172q-14 0 -23.5 6.5t-9.5 16.5v20q0 74 -43 120t-108 46q-68 0 -112 -46t-44 -114 q0 -76 59.5 -119.5t173.5 -82.5q78 -25 139.5 -54.5t106.5 -78.5q80 -86 80 -222q0 -111 -55 -198q-25 -43 -60.5 -73t-76.5 -40q-8 -2 -8.5 -5t6.5 -7q188 -100 188 -291q0 -100 -53.5 -178t-145.5 -120t-207 -42q-174 0 -273 92t-103 250l-2 55q0 33 30 33h172 q33 0 33 -27v-24q0 -80 42 -127t114 -47q68 0 110.5 45t42.5 113q0 55 -31.5 90.5t-77.5 57t-147 58.5q-98 35 -157.5 72t-96.5 96q-51 78 -51 185zM330 506q0 -61 28 -98q45 -68 136 -68q98 0 139 68q29 41 29 102q0 68 -33 111q-47 61 -133 61q-43 0 -81 -21.5t-59 -56.5 q-27 -39 -26 -98z" />
<glyph unicode="&#xa8;" horiz-adv-x="722" d="M45 1317q0 57 36 92t93 35q55 0 90 -35t35 -92t-34.5 -92t-90.5 -35q-57 0 -93 35t-36 92zM422 1317q0 57 35 92t92 35t92 -35t35 -92t-35 -92t-92 -35t-92 35t-35 92z" />
<glyph unicode="&#xa9;" horiz-adv-x="1710" d="M115 721q0 207 96 373t264 261t379 95t381 -95t265 -261t95 -373q0 -209 -95 -378t-265 -264t-381 -95t-379 95t-264 264t-96 378zM252 721q0 -172 78 -309.5t215 -215t309 -77.5t310.5 77.5t216 215t77.5 309.5q0 168 -77.5 303t-216 213t-310.5 78t-309 -78t-215 -213 t-78 -303zM614 580v278q0 102 67 162.5t177 60.5q111 0 176.5 -57t65.5 -156q0 -8 -9.5 -13t-23.5 -5l-66 -2q-33 0 -32 10v8q0 47 -31 76t-80 29q-51 0 -80.5 -29t-29.5 -76v-297q0 -47 29.5 -74.5t80.5 -27.5q49 0 80 28.5t31 73.5q0 20 32 21l66 -2q33 0 33 -8v-11 q0 -98 -66.5 -156.5t-175.5 -58.5q-110 0 -177 61.5t-67 164.5z" />
<glyph unicode="&#xaa;" horiz-adv-x="669" d="M33 518v82q0 33 33 33h518q33 0 32 -33v-82q0 -33 -32 -33h-518q-33 0 -33 33zM35 934q0 102 76.5 163.5t207.5 61.5h134q12 0 12 12v29q0 61 -37 98t-106 37q-47 0 -82 -18.5t-50 -50.5q-10 -29 -36 -27l-68 6q-16 2 -23.5 12.5t-5.5 24.5q16 74 88 121t177 47 q125 0 201.5 -64.5t76.5 -164.5v-439q0 -33 -33 -32h-69q-33 0 -33 32v11q0 8 -4 10t-10 -4q-61 -61 -183 -62q-106 0 -169.5 50.5t-63.5 146.5zM168 944q0 -51 34 -75.5t91 -24.5q72 0 122 39t50 96v63q0 12 -12 13h-117q-78 0 -123 -28t-45 -83z" />
<glyph unicode="&#xab;" horiz-adv-x="1064" d="M125 575q0 10 8 23l209 313q12 20 39 21h156q27 0 26 -19q0 -8 -6 -20l-209 -309q-6 -8 0 -17l209 -309q6 -12 6 -20q0 -18 -26 -19h-156q-27 0 -39 21l-209 313q-8 16 -8 22zM467 575q0 10 8 23l209 313q12 20 39 21h156q27 0 26 -19q0 -8 -6 -20l-209 -309q-6 -8 0 -17 l209 -309q6 -12 6 -20q0 -18 -26 -19h-156q-27 0 -39 21l-209 313q-8 16 -8 22z" />
<glyph unicode="&#xac;" horiz-adv-x="1005" d="M66 555v139q-1 33 32 33h807q33 0 33 -33v-375q0 -33 -33 -32h-139q-33 0 -33 32v191q0 12 -12 12h-623q-33 0 -32 33z" />
<glyph unicode="&#xad;" horiz-adv-x="827" d="M66 547v139q0 33 32 33h629q33 0 33 -33v-139q0 -33 -33 -33h-629q-32 0 -32 33z" />
<glyph unicode="&#xae;" horiz-adv-x="915" d="M45 1055q0 113 54.5 204t148.5 144t209 53q114 0 209.5 -53t149.5 -144.5t54 -203.5q0 -117 -54 -211t-149.5 -148.5t-209.5 -54.5q-115 0 -209 54.5t-148.5 148.5t-54.5 211zM147 1055q0 -88 41 -161t112 -114t157 -41q88 0 159.5 41t112.5 114t41 161q0 84 -41 154.5 t-112.5 110.5t-159.5 40q-86 0 -157 -40t-112 -110.5t-41 -154.5zM342 897v309q0 33 33 33h106q51 0 84 -34t33 -83q0 -65 -49 -94q-8 -6 -6 -16l41 -111q2 -6 2 -14q0 -23 -29 -23h-20q-27 0 -37 27l-39 110q-2 10 -15 11h-8q-12 0 -12 -13v-102q0 -33 -33 -33h-18 q-33 0 -33 33zM426 1087q0 -12 12 -12h31q20 0 32.5 13.5t12.5 31.5q0 20 -12.5 33.5t-32.5 13.5h-31q-12 0 -12 -12v-68z" />
<glyph unicode="&#xaf;" horiz-adv-x="583" d="M0 1227v98q0 33 33 33h518q33 0 33 -33v-98q0 -33 -33 -33h-518q-33 0 -33 33z" />
<glyph unicode="&#xb0;" horiz-adv-x="774" d="M45 1317q0 92 46 170t124 123t172 45t172 -45t123 -123t45 -170q0 -94 -45 -172t-123 -124t-172 -46t-172 46t-124 124t-46 172zM205 1317q0 -76 53 -129t129 -53t128 52t52 130t-52 130t-128 52t-129 -53t-53 -129z" />
<glyph unicode="&#xb1;" horiz-adv-x="1005" d="M66 33v139q0 33 32 33h807q33 0 33 -33v-139q0 -33 -33 -33h-807q-32 0 -32 33zM66 709v139q0 33 32 33h291q12 0 12 12v293q0 33 33 33h137q33 0 33 -33v-293q0 -12 12 -12h289q33 0 33 -33v-139q0 -33 -33 -33h-289q-12 0 -12 -12v-285q0 -33 -33 -32h-137 q-33 0 -33 32v285q0 12 -12 12h-291q-33 0 -32 33z" />
<glyph unicode="&#xb2;" horiz-adv-x="690" d="M63 1482v37q4 100 82 160.5t195 60.5q125 0 200.5 -68.5t75.5 -170.5q0 -51 -25.5 -106.5t-76.5 -121.5q-41 -53 -102.5 -120.5t-122.5 -132.5q-6 -4 -4 -9.5t10 -5.5h309q33 0 33 -33v-69q0 -33 -33 -33h-504q-32 0 -32 33v78q0 23 16 39q104 111 262 286 q115 129 115 193q0 47 -34 76.5t-87 29.5t-87 -30.5t-32 -79.5v-13q0 -33 -33 -32h-92q-33 0 -33 32z" />
<glyph unicode="&#xb3;" horiz-adv-x="661" d="M55 1112v4q0 29 31 28h94q31 0 33 -30q2 -23 10 -45q10 -35 39 -55.5t68 -20.5q68 0 98 55q23 41 23 101q0 63 -25 106q-27 55 -96 55q-23 0 -41 -8q-6 -4 -21 -4q-12 0 -24 12l-43 54q-8 10 -8 22q0 14 10 25l182 168q6 4 4 9t-10 5h-277q-33 0 -32 33v69q0 33 32 33 h463q33 0 33 -33v-77q0 -25 -16 -41l-160 -158q-4 -4 -2 -8t10 -6q98 -20 150 -117q26 -60 26 -144q0 -76 -26 -139q-31 -70 -96.5 -108.5t-153.5 -38.5q-92 0 -161 46t-97 126q-12 33 -17 82z" />
<glyph unicode="&#xb4;" horiz-adv-x="466" d="M63 1200q0 10 4 17l107 194q12 23 39 23h161q27 0 27 -19q0 -8 -6 -20l-131 -197q-12 -20 -39 -20h-133q-29 -1 -29 22z" />
<glyph unicode="&#xb5;" horiz-adv-x="1124" d="M127 -377v1391q0 33 33 33h172q33 0 33 -33v-615q0 -96 50 -153.5t140 -57.5q92 0 147.5 57.5t55.5 153.5v615q0 33 33 33h170q33 0 32 -33v-981q0 -33 -32 -33h-170q-33 0 -33 33v53q0 8 -5 10t-10 -6q-82 -104 -249 -104q-63 0 -115 14q-14 4 -14 -10v-367 q0 -33 -33 -33h-172q-33 0 -33 33z" />
<glyph unicode="&#xb6;" horiz-adv-x="1245" d="M59 973q0 131 60.5 236.5t170 165t255.5 59.5h528q33 0 33 -33v-1778q0 -33 -33 -33h-110q-33 0 -33 33v1628q0 12 -12 13h-216q-12 0 -12 -13v-1628q0 -33 -33 -33h-112q-33 0 -33 33v877q0 12 -12 12q-129 10 -228.5 71.5t-156 162t-56.5 227.5z" />
<glyph unicode="&#xb7;" horiz-adv-x="331" d="M-20 156q0 63 50 109t113 46q66 0 117 -46t51 -109q0 -66 -48 -112t-120 -46q-71 0 -117 45t-46 113z" />
<glyph unicode="&#xb8;" horiz-adv-x="325" d="M4 -336l10 64q6 31 39 24q25 -4 33 -4q35 0 57.5 19.5t22.5 56.5q0 57 -86 137q-14 12 -14 23q0 16 26 16h80q25 0 41 -14q113 -92 113 -199q0 -25 -7 -49q-18 -68 -70 -97.5t-120 -29.5q-51 0 -102 14q-27 8 -23 39z" />
<glyph unicode="&#xb9;" horiz-adv-x="389" d="M66 1611v54q0 25 24 36l49 21q19 8 39 8h105q33 0 32 -33v-794q0 -33 -32 -33h-93q-33 0 -32 33v676q0 14 -13 10l-45 -6h-8q-27 0 -26 28z" />
<glyph unicode="&#xba;" horiz-adv-x="733" d="M53 518v88q0 33 33 33h563q33 0 33 -33v-88q0 -33 -33 -33h-563q-33 0 -33 33zM66 1100q0 98 24 160q33 90 105.5 140t173.5 50q94 0 163.5 -49t104.5 -139q25 -68 25 -160q0 -88 -25 -160q-33 -92 -104.5 -143t-165.5 -51q-97 0 -168.5 51t-106.5 143q-27 61 -26 158z M219 1100q0 -59 17 -121q14 -47 48.5 -73.5t82.5 -26.5q43 0 76.5 26.5t48.5 73.5q16 55 16 121q0 76 -14 119q-16 47 -50 73.5t-79 26.5t-79 -26.5t-50 -73.5q-16 -49 -17 -119z" />
<glyph unicode="&#xbb;" horiz-adv-x="1064" d="M170 238q0 8 6 20l209 309q6 8 0 17l-209 309q-6 12 -6 20q0 18 27 19h155q27 0 39 -21l209 -313q8 -8 8 -23q0 -12 -8 -22l-209 -313q-12 -20 -39 -21h-155q-27 1 -27 19zM512 238q0 8 6 20l209 309q6 8 0 17l-209 309q-6 12 -6 20q0 18 27 19h155q27 0 39 -21l209 -313 q8 -8 8 -23q0 -12 -8 -22l-209 -313q-12 -20 -39 -21h-155q-27 1 -27 19z" />
<glyph unicode="&#xbc;" horiz-adv-x="1662" d="M66 1314v54q0 25 24 36l49 21q19 8 39 8h105q33 0 32 -33v-794q0 -33 -32 -33h-93q-33 0 -32 33v676q0 14 -13 10l-45 -6h-8q-27 0 -26 28zM219 20q0 10 6 19l822 1372q12 23 38 23h103q29 0 29 -21q0 -8 -7 -18l-821 -1372q-12 -23 -39 -23h-104q-27 0 -27 20zM977 254 v61q0 23 8 39l217 482q10 25 37 24h96q29 0 29 -22l-4 -17l-199 -444q-6 -14 11 -15h190q12 0 12 13v137q0 33 33 33h90q33 0 33 -33v-137q0 -12 12 -13h27q33 1 33 -32v-76q0 -33 -33 -33h-27q-12 0 -12 -12v-176q0 -33 -33 -33h-90q-33 0 -33 33v176q0 12 -12 12h-352 q-33 0 -33 33z" />
<glyph unicode="&#xbd;" horiz-adv-x="1622" d="M66 1314v54q0 25 24 36l49 21q19 8 39 8h105q33 0 32 -33v-794q0 -33 -32 -33h-93q-33 0 -32 33v676q0 14 -13 10l-45 -6h-8q-27 0 -26 28zM219 20q0 10 6 19l822 1372q12 23 38 23h103q29 0 29 -21q0 -8 -7 -18l-821 -1372q-12 -23 -39 -23h-104q-27 0 -27 20zM995 612 v37q4 100 82 160.5t195 60.5q125 0 200.5 -68.5t75.5 -170.5q0 -51 -25.5 -106.5t-76.5 -121.5q-41 -53 -102.5 -120.5t-122.5 -132.5q-6 -4 -4 -9.5t10 -5.5h309q33 0 33 -33v-69q0 -33 -33 -33h-504q-32 0 -32 33v78q0 23 16 39q104 111 262 286q115 129 115 193 q0 47 -34 76.5t-87 29.5t-87 -30.5t-32 -79.5v-13q0 -33 -33 -32h-92q-33 0 -33 32z" />
<glyph unicode="&#xbe;" horiz-adv-x="1855" d="M55 826v4q0 29 31 28h94q31 0 33 -30q2 -23 10 -45q10 -35 39 -55.5t68 -20.5q68 0 98 55q23 41 23 101q0 63 -25 106q-27 55 -96 55q-23 0 -41 -8q-6 -4 -21 -4q-12 0 -24 12l-43 54q-8 10 -8 22q0 14 10 25l182 168q6 4 4 9t-10 5h-277q-33 0 -32 33v69q0 33 32 33h463 q33 0 33 -33v-77q0 -25 -16 -41l-160 -158q-4 -4 -2 -8t10 -6q98 -20 150 -117q26 -60 26 -144q0 -76 -26 -139q-31 -70 -96.5 -108.5t-153.5 -38.5q-92 0 -161 46t-97 126q-12 33 -17 82zM412 20q0 10 6 19l822 1372q12 23 38 23h103q29 0 29 -21q0 -8 -7 -18l-821 -1372 q-12 -23 -39 -23h-104q-27 0 -27 20zM1169 254v61q0 23 8 39l217 482q10 25 37 24h96q29 0 29 -22l-4 -17l-199 -444q-6 -14 11 -15h190q12 0 12 13v137q0 33 33 33h90q33 0 33 -33v-137q0 -12 12 -13h27q33 1 33 -32v-76q0 -33 -33 -33h-27q-12 0 -12 -12v-176 q0 -33 -33 -33h-90q-33 0 -33 33v176q0 12 -12 12h-352q-33 0 -33 33z" />
<glyph unicode="&#xbf;" horiz-adv-x="1024" d="M70 -45q0 90 31.5 155.5t73.5 106.5t114 92t106.5 89t34.5 94v61q0 33 33 33h172q33 0 33 -33v-76q0 -98 -49.5 -158.5t-143.5 -128.5q-82 -59 -123 -107t-41 -120q0 -80 55.5 -128t145.5 -48q94 0 151.5 51t57.5 131v35q0 16 9 24.5t24 6.5l172 -8q14 -2 23 -10.5 t9 -20.5v-27q0 -117 -57 -208t-159.5 -141t-235.5 -50q-199 0 -317.5 105.5t-118.5 279.5zM381 879q0 61 47 104t111 43q63 0 108 -43t45 -104t-45 -104.5t-110 -43.5q-61 0 -108.5 43t-47.5 105z" />
<glyph unicode="&#xc0;" horiz-adv-x="1327" d="M68 37l438 1370q8 27 37 27h239q29 0 37 -27l441 -1370q2 -4 2 -12q0 -25 -29 -25h-186q-29 0 -37 27l-64 211q-2 10 -14 10h-537q-12 0 -14 -10l-64 -211q-8 -27 -36 -27h-187q-16 0 -23.5 10t-2.5 27zM410 1802q0 18 26 19h162q27 0 39 -23l106 -194q5 -7 5 -17 q0 -23 -29 -22h-133q-27 0 -39 20l-131 197q-6 12 -6 20zM444 449q-1 -15 11 -15h417q12 0 11 15l-211 696q-2 8 -7.5 8t-9.5 -8z" />
<glyph unicode="&#xc1;" horiz-adv-x="1327" d="M68 37l438 1370q8 27 37 27h239q29 0 37 -27l441 -1370q2 -4 2 -12q0 -25 -29 -25h-186q-29 0 -37 27l-64 211q-2 10 -14 10h-537q-12 0 -14 -10l-64 -211q-8 -27 -36 -27h-187q-16 0 -23.5 10t-2.5 27zM444 449q-1 -15 11 -15h417q12 0 11 15l-211 696q-2 8 -7.5 8 t-9.5 -8zM547 1587q0 10 4 17l107 194q12 23 39 23h161q27 0 27 -19q0 -8 -6 -20l-131 -197q-12 -20 -39 -20h-133q-29 -1 -29 22z" />
<glyph unicode="&#xc2;" horiz-adv-x="1327" d="M68 37l438 1370q8 27 37 27h239q29 0 37 -27l441 -1370q2 -4 2 -12q0 -25 -29 -25h-186q-29 0 -37 27l-64 211q-2 10 -14 10h-537q-12 0 -14 -10l-64 -211q-8 -27 -36 -27h-187q-16 0 -23.5 10t-2.5 27zM373 1577q0 10 8 18l150 201q14 20 39 21h176q23 0 39 -21 l151 -199q8 -8 8 -18t-7 -16.5t-21 -6.5h-119q-25 0 -39 21l-90 131q-4 4 -9 4t-7 -4l-91 -131q-14 -20 -38 -21h-121q-29 1 -29 21zM444 449q-1 -15 11 -15h417q12 0 11 15l-211 696q-2 8 -7.5 8t-9.5 -8z" />
<glyph unicode="&#xc3;" horiz-adv-x="1327" d="M68 37l438 1370q8 27 37 27h239q29 0 37 -27l441 -1370q2 -4 2 -12q0 -25 -29 -25h-186q-29 0 -37 27l-64 211q-2 10 -14 10h-537q-12 0 -14 -10l-64 -211q-8 -27 -36 -27h-187q-16 0 -23.5 10t-2.5 27zM381 1679q0 10 4 17q31 61 77 92t101 31q35 0 62.5 -11.5 t68.5 -36.5q61 -39 99 -38q49 0 77 40q10 16 29 17q8 0 19 -6l55 -37q14 -8 14 -25q0 -12 -12 -35q-35 -57 -83 -84.5t-95 -27.5q-37 0 -65.5 13t-67.5 38q-27 18 -45.5 26.5t-38.5 8.5q-27 0 -45.5 -8.5t-36.5 -30.5q-10 -16 -27 -16q-8 0 -18 6l-56 41q-16 10 -16 26z M444 449q-1 -15 11 -15h417q12 0 11 15l-211 696q-2 8 -7.5 8t-9.5 -8z" />
<glyph unicode="&#xc4;" horiz-adv-x="1327" d="M68 37l438 1370q8 27 37 27h239q29 0 37 -27l441 -1370q2 -4 2 -12q0 -25 -29 -25h-186q-29 0 -37 27l-64 211q-2 10 -14 10h-537q-12 0 -14 -10l-64 -211q-8 -27 -36 -27h-187q-16 0 -23.5 10t-2.5 27zM344 1704q0 57 36 92t93 35q55 0 90 -35t35 -92t-34.5 -92 t-90.5 -35q-57 0 -93 35t-36 92zM444 449q-1 -15 11 -15h417q12 0 11 15l-211 696q-2 8 -7.5 8t-9.5 -8zM721 1704q0 57 35 92t92 35t92 -35t35 -92t-35 -92t-92 -35t-92 35t-35 92z" />
<glyph unicode="&#xc5;" horiz-adv-x="1327" d="M68 37l438 1370q8 27 37 27h239q29 0 37 -27l441 -1370q2 -4 2 -12q0 -25 -29 -25h-186q-29 0 -37 27l-64 211q-2 10 -14 10h-537q-12 0 -14 -10l-64 -211q-8 -27 -36 -27h-187q-16 0 -23.5 10t-2.5 27zM437 1761q0 94 64.5 157.5t158.5 63.5t158.5 -63.5t64.5 -157.5 q0 -92 -64.5 -156.5t-158.5 -64.5t-158.5 64.5t-64.5 156.5zM444 449q-1 -15 11 -15h417q12 0 11 15l-211 696q-2 8 -7.5 8t-9.5 -8zM549 1761q0 -45 32 -76.5t79 -31.5q45 0 78 31.5t33 76.5q0 47 -33 79t-78 32q-47 0 -79 -32t-32 -79z" />
<glyph unicode="&#xc6;" horiz-adv-x="1937" d="M70 20q0 10 6 19l702 1370q12 25 39 25h995q33 0 33 -33v-139q0 -33 -33 -33h-655q-12 0 -12 -12v-379q0 -12 12 -13h426q33 0 33 -32v-140q0 -33 -33 -32h-426q-12 0 -12 -13v-391q0 -12 12 -12h655q33 0 33 -33v-139q0 -33 -33 -33h-872q-33 0 -33 33v203q0 12 -12 12 h-442q-12 0 -15 -8l-108 -215q-12 -25 -39 -25h-193q-29 0 -28 20zM545 449q-6 -15 8 -15h342q12 0 12 12v689q0 10 -5 11t-9 -7z" />
<glyph unicode="&#xc7;" horiz-adv-x="1245" d="M115 465v506q0 143 63.5 251.5t180 168t270.5 59.5q152 0 268.5 -57.5t180 -162t63.5 -241.5v-10q0 -10 -31 -14l-174 -11h-8q-25 0 -25 11v12q0 121 -74.5 194.5t-199.5 73.5t-201 -73.5t-76 -194.5v-522q0 -119 76 -193t201 -74t199.5 73t74.5 194q0 10 9.5 17t23.5 5 l172 -8q33 -4 33 -10v-10q0 -197 -124 -322t-331 -141q-8 -2 -10 -6.5t4 -10.5q86 -80 86 -172q0 -25 -6 -49q-18 -68 -70.5 -97.5t-120.5 -29.5q-51 0 -102 14q-27 8 -23 39l11 64q6 31 39 24q25 -4 32 -4q63 0 78 56q2 6 2 20q0 70 -114 160l-15 6q-168 41 -265 164 t-97 301z" />
<glyph unicode="&#xc8;" horiz-adv-x="1212" d="M150 33v1368q0 33 32 33h905q33 0 33 -33v-139q0 -33 -33 -33h-688q-12 0 -12 -12v-379q0 -12 12 -13h459q33 0 33 -32v-140q0 -33 -33 -32h-459q-12 0 -12 -13v-391q0 -12 12 -12h688q33 0 33 -33v-139q0 -33 -33 -33h-905q-33 0 -32 33zM379 1827q0 18 26 19h162 q27 0 39 -23l106 -194q5 -7 5 -17q0 -23 -29 -22h-133q-27 0 -39 20l-131 197q-6 12 -6 20z" />
<glyph unicode="&#xc9;" horiz-adv-x="1212" d="M150 33v1368q0 33 32 33h905q33 0 33 -33v-139q0 -33 -33 -33h-688q-12 0 -12 -12v-379q0 -12 12 -13h459q33 0 33 -32v-140q0 -33 -33 -32h-459q-12 0 -12 -13v-391q0 -12 12 -12h688q33 0 33 -33v-139q0 -33 -33 -33h-905q-33 0 -32 33zM516 1612q0 10 4 17l107 194 q12 23 39 23h161q27 0 27 -19q0 -8 -6 -20l-131 -197q-12 -20 -39 -20h-133q-29 -1 -29 22z" />
<glyph unicode="&#xca;" horiz-adv-x="1212" d="M150 33v1368q0 33 32 33h905q33 0 33 -33v-139q0 -33 -33 -33h-688q-12 0 -12 -12v-379q0 -12 12 -13h459q33 0 33 -32v-140q0 -33 -33 -32h-459q-12 0 -12 -13v-391q0 -12 12 -12h688q33 0 33 -33v-139q0 -33 -33 -33h-905q-33 0 -32 33zM342 1602q0 10 8 18l150 201 q14 20 39 21h176q23 0 39 -21l151 -199q8 -8 8 -18t-7 -16.5t-21 -6.5h-119q-25 0 -39 21l-90 131q-4 4 -9 4t-7 -4l-91 -131q-14 -20 -38 -21h-121q-29 1 -29 21z" />
<glyph unicode="&#xcb;" horiz-adv-x="1212" d="M150 33v1368q0 33 32 33h905q33 0 33 -33v-139q0 -33 -33 -33h-688q-12 0 -12 -12v-379q0 -12 12 -13h459q33 0 33 -32v-140q0 -33 -33 -32h-459q-12 0 -12 -13v-391q0 -12 12 -12h688q33 0 33 -33v-139q0 -33 -33 -33h-905q-33 0 -32 33zM313 1729q0 57 36 92t93 35 q55 0 90 -35t35 -92t-34.5 -92t-90.5 -35q-57 0 -93 35t-36 92zM690 1729q0 57 35 92t92 35t92 -35t35 -92t-35 -92t-92 -35t-92 35t-35 92z" />
<glyph unicode="&#xcc;" horiz-adv-x="536" d="M19 1827q0 18 26 19h162q27 0 39 -23l106 -194q5 -7 5 -17q0 -23 -29 -22h-133q-27 0 -39 20l-131 197q-6 12 -6 20zM150 33v1368q0 33 32 33h172q33 0 33 -33v-1368q0 -33 -33 -33h-172q-32 0 -32 33z" />
<glyph unicode="&#xcd;" horiz-adv-x="536" d="M150 33v1368q0 33 32 33h172q33 0 33 -33v-1368q0 -33 -33 -33h-172q-32 0 -32 33zM156 1612q0 10 4 17l107 194q12 23 39 23h161q27 0 27 -19q0 -8 -6 -20l-131 -197q-12 -20 -39 -20h-133q-29 -1 -29 22z" />
<glyph unicode="&#xce;" horiz-adv-x="536" d="M-19 1602q0 10 8 18l150 201q14 20 39 21h176q23 0 39 -21l151 -199q8 -8 8 -18t-7 -16.5t-21 -6.5h-119q-25 0 -39 21l-90 131q-4 4 -9 4t-7 -4l-91 -131q-14 -20 -38 -21h-121q-29 1 -29 21zM150 33v1368q0 33 32 33h172q33 0 33 -33v-1368q0 -33 -33 -33h-172 q-32 0 -32 33z" />
<glyph unicode="&#xcf;" horiz-adv-x="536" d="M-47 1729q0 57 36 92t93 35q55 0 90 -35t35 -92t-34.5 -92t-90.5 -35q-57 0 -93 35t-36 92zM150 33v1368q0 33 32 33h172q33 0 33 -33v-1368q0 -33 -33 -33h-172q-32 0 -32 33zM330 1729q0 57 35 92t92 35t92 -35t35 -92t-35 -92t-92 -35t-92 35t-35 92z" />
<glyph unicode="&#xd0;" horiz-adv-x="1380" d="M150 692v99q0 33 32 32h70q12 0 12 13v565q0 33 33 33h491q146 0 256.5 -51.5t171 -146.5t60.5 -222v-594q0 -127 -60.5 -222.5t-171 -146.5t-256.5 -51h-491q-33 0 -33 33v614q0 12 -12 12h-70q-33 0 -32 33zM502 217q0 -12 12 -12h285q109 0 173 68.5t66 183.5v518 q0 117 -65.5 185.5t-175.5 68.5h-283q-12 0 -12 -12v-381q0 -12 12 -13h178q33 0 33 -32v-99q0 -33 -33 -33h-178q-12 0 -12 -12v-430z" />
<glyph unicode="&#xd1;" horiz-adv-x="1359" d="M150 33v1368q0 33 32 33h164q29 0 41 -23l574 -938q4 -8 9 -6t5 10v924q0 33 33 33h172q33 0 32 -33v-1368q0 -33 -32 -33h-168q-29 0 -41 23l-574 944q-4 8 -9 6t-5 -10l2 -930q0 -33 -33 -33h-170q-32 0 -32 33zM389 1704q0 10 4 17q31 61 77 92t101 31 q35 0 62.5 -11.5t68.5 -36.5q61 -39 99 -38q49 0 77 40q10 16 29 17q8 0 19 -6l55 -37q14 -8 14 -25q0 -12 -12 -35q-35 -57 -83 -84.5t-95 -27.5q-37 0 -65.5 13t-67.5 38q-27 18 -45.5 26.5t-38.5 8.5q-27 0 -45.5 -8.5t-36.5 -30.5q-10 -16 -27 -16q-8 0 -18 6l-56 41 q-16 10 -16 26z" />
<glyph unicode="&#xd2;" horiz-adv-x="1271" d="M115 483v467q0 147 65.5 261t183 176.5t271.5 62.5q156 0 273.5 -62.5t183 -176t65.5 -261.5v-467q0 -150 -65.5 -264.5t-183 -176.5t-273.5 -62q-154 0 -272.5 62t-183 177t-64.5 264zM352 475q0 -131 78 -211t205 -80q129 0 207 80t78 211v477q0 133 -78 213t-207 80 q-127 0 -205 -80t-78 -213v-477zM385 1818q0 18 26 19h162q27 0 39 -23l106 -194q5 -7 5 -17q0 -23 -29 -22h-133q-27 0 -39 20l-131 197q-6 12 -6 20z" />
<glyph unicode="&#xd3;" horiz-adv-x="1271" d="M115 483v467q0 147 65.5 261t183 176.5t271.5 62.5q156 0 273.5 -62.5t183 -176t65.5 -261.5v-467q0 -150 -65.5 -264.5t-183 -176.5t-273.5 -62q-154 0 -272.5 62t-183 177t-64.5 264zM352 475q0 -131 78 -211t205 -80q129 0 207 80t78 211v477q0 133 -78 213t-207 80 q-127 0 -205 -80t-78 -213v-477zM522 1603q0 10 4 17l107 194q12 23 39 23h161q27 0 27 -19q0 -8 -6 -20l-131 -197q-12 -20 -39 -20h-133q-29 -1 -29 22z" />
<glyph unicode="&#xd4;" horiz-adv-x="1271" d="M115 483v467q0 147 65.5 261t183 176.5t271.5 62.5q156 0 273.5 -62.5t183 -176t65.5 -261.5v-467q0 -150 -65.5 -264.5t-183 -176.5t-273.5 -62q-154 0 -272.5 62t-183 177t-64.5 264zM348 1593q0 10 8 18l150 201q14 20 39 21h176q23 0 39 -21l151 -199q8 -8 8 -18 t-7 -16.5t-21 -6.5h-119q-25 0 -39 21l-90 131q-4 4 -9 4t-7 -4l-91 -131q-14 -20 -38 -21h-121q-29 1 -29 21zM352 475q0 -131 78 -211t205 -80q129 0 207 80t78 211v477q0 133 -78 213t-207 80q-127 0 -205 -80t-78 -213v-477z" />
<glyph unicode="&#xd5;" horiz-adv-x="1271" d="M115 483v467q0 147 65.5 261t183 176.5t271.5 62.5q156 0 273.5 -62.5t183 -176t65.5 -261.5v-467q0 -150 -65.5 -264.5t-183 -176.5t-273.5 -62q-154 0 -272.5 62t-183 177t-64.5 264zM352 475q0 -131 78 -211t205 -80q129 0 207 80t78 211v477q0 133 -78 213t-207 80 q-127 0 -205 -80t-78 -213v-477zM356 1695q0 10 4 17q31 61 77 92t101 31q35 0 62.5 -11.5t68.5 -36.5q61 -39 99 -38q49 0 77 40q10 16 29 17q8 0 19 -6l55 -37q14 -8 14 -25q0 -12 -12 -35q-35 -57 -83 -84.5t-95 -27.5q-37 0 -65.5 13t-67.5 38q-27 18 -45.5 26.5 t-38.5 8.5q-27 0 -45.5 -8.5t-36.5 -30.5q-10 -16 -27 -16q-8 0 -18 6l-56 41q-16 10 -16 26z" />
<glyph unicode="&#xd6;" horiz-adv-x="1271" d="M115 483v467q0 147 65.5 261t183 176.5t271.5 62.5q156 0 273.5 -62.5t183 -176t65.5 -261.5v-467q0 -150 -65.5 -264.5t-183 -176.5t-273.5 -62q-154 0 -272.5 62t-183 177t-64.5 264zM319 1720q0 57 36 92t93 35q55 0 90 -35t35 -92t-34.5 -92t-90.5 -35q-57 0 -93 35 t-36 92zM352 475q0 -131 78 -211t205 -80q129 0 207 80t78 211v477q0 133 -78 213t-207 80q-127 0 -205 -80t-78 -213v-477zM696 1720q0 57 35 92t92 35t92 -35t35 -92t-35 -92t-92 -35t-92 35t-35 92z" />
<glyph unicode="&#xd7;" horiz-adv-x="894" d="M78 885q0 10 12 22l98 99q12 12 23 12q10 0 22 -12l209 -207q4 -4 8.5 -4t8.5 4l205 205q10 10 22 10q14 0 23 -10l100 -101q12 -12 12 -22t-12 -23l-207 -205q-4 -4 -4 -8t4 -8l203 -203q12 -12 12 -22t-12 -23l-98 -98q-12 -12 -23 -12q-10 0 -22 12l-203 203 q-4 4 -8.5 4t-8.5 -4l-206 -207q-12 -12 -23 -13q-10 0 -23 13l-98 100q-12 12 -12 23q0 10 12 22l207 207q4 4 4 8t-4 8l-209 207q-12 12 -12 23z" />
<glyph unicode="&#xd8;" horiz-adv-x="1286" d="M129 483v467q0 147 65.5 261t183.5 176.5t271 62.5q119 0 217 -37q12 -4 17 6l41 84q12 25 39 25h94q29 0 28 -23l-4 -16l-73 -143q-4 -11 4 -17q78 -68 118.5 -165t40.5 -214v-467q0 -150 -65.5 -264.5t-183 -176.5t-273.5 -62q-154 0 -280 65q-10 6 -17 -4l-49 -100 q-12 -25 -39 -25h-92q-29 0 -29 23l4 16l93 184q2 8 -2 17q-109 131 -109 327zM367 475q0 -31 2 -45q2 -8 7 -9t9 7l389 778q4 4 2 9.5t-8 7.5q-55 23 -119 22q-127 0 -204.5 -80t-77.5 -213v-477zM463 260q-4 -10 4 -16q76 -59 182 -60q129 0 207 80t78 211v477 q0 88 -33 148q-2 8 -7 8t-9 -8z" />
<glyph unicode="&#xd9;" horiz-adv-x="1302" d="M137 465v936q0 33 33 33h172q33 0 33 -33v-940q0 -121 75.5 -197t200.5 -76t201 76t76 197v940q0 33 33 33h172q33 0 32 -33v-936q0 -143 -63.5 -253t-180 -169t-270.5 -59q-151 0 -268 59t-181.5 169t-64.5 253zM402 1829q0 18 26 19h162q27 0 39 -23l106 -194 q5 -7 5 -17q0 -23 -29 -22h-133q-27 0 -39 20l-131 197q-6 12 -6 20z" />
<glyph unicode="&#xda;" horiz-adv-x="1302" d="M137 465v936q0 33 33 33h172q33 0 33 -33v-940q0 -121 75.5 -197t200.5 -76t201 76t76 197v940q0 33 33 33h172q33 0 32 -33v-936q0 -143 -63.5 -253t-180 -169t-270.5 -59q-151 0 -268 59t-181.5 169t-64.5 253zM539 1614q0 10 4 17l107 194q12 23 39 23h161 q27 0 27 -19q0 -8 -6 -20l-131 -197q-12 -20 -39 -20h-133q-29 -1 -29 22z" />
<glyph unicode="&#xdb;" horiz-adv-x="1302" d="M137 465v936q0 33 33 33h172q33 0 33 -33v-940q0 -121 75.5 -197t200.5 -76t201 76t76 197v940q0 33 33 33h172q33 0 32 -33v-936q0 -143 -63.5 -253t-180 -169t-270.5 -59q-151 0 -268 59t-181.5 169t-64.5 253zM364 1604q0 10 8 18l150 201q14 20 39 21h176 q23 0 39 -21l151 -199q8 -8 8 -18t-7 -16.5t-21 -6.5h-119q-25 0 -39 21l-90 131q-4 4 -9 4t-7 -4l-91 -131q-14 -20 -38 -21h-121q-29 1 -29 21z" />
<glyph unicode="&#xdc;" horiz-adv-x="1302" d="M137 465v936q0 33 33 33h172q33 0 33 -33v-940q0 -121 75.5 -197t200.5 -76t201 76t76 197v940q0 33 33 33h172q33 0 32 -33v-936q0 -143 -63.5 -253t-180 -169t-270.5 -59q-151 0 -268 59t-181.5 169t-64.5 253zM336 1731q0 57 36 92t93 35q55 0 90 -35t35 -92 t-34.5 -92t-90.5 -35q-57 0 -93 35t-36 92zM713 1731q0 57 35 92t92 35t92 -35t35 -92t-35 -92t-92 -35t-92 35t-35 92z" />
<glyph unicode="&#xdd;" horiz-adv-x="1226" d="M70 1413q0 20 28 21h187q27 0 39 -25l280 -563q4 -6 9 -6t8 6l282 563q12 25 39 25h188q29 0 29 -21q0 -8 -6 -18l-418 -807q-4 -12 -4 -15v-538q0 -33 -33 -33h-172q-32 0 -32 33v538q0 6 -5 15l-413 807q-6 10 -6 18zM500 1587q0 10 4 17l107 194q12 23 39 23h161 q27 0 27 -19q0 -8 -6 -20l-131 -197q-12 -20 -39 -20h-133q-29 -1 -29 22z" />
<glyph unicode="&#xde;" horiz-adv-x="1179" d="M137 33v1368q0 33 33 33h172q33 0 33 -33v-252q0 -12 12 -12h299q129 0 227.5 -53.5t152.5 -149.5t54 -221q0 -123 -58 -217.5t-159.5 -146.5t-226.5 -52h-289q-12 0 -12 -12v-252q0 -33 -33 -33h-172q-33 0 -33 33zM375 504q0 -12 12 -12h264q105 0 168.5 57t63.5 160 q0 102 -63.5 162.5t-168.5 60.5h-264q-12 0 -12 -12v-416z" />
<glyph unicode="&#xdf;" horiz-adv-x="1234" d="M129 35v975q2 207 130 323.5t349 116.5q233 0 367.5 -105.5t134.5 -291.5q0 -92 -39 -162t-115 -111q-16 -6 0 -16q80 -43 127 -135t47 -215q0 -199 -137 -306.5t-407 -107.5h-88q-33 0 -33 33v137q0 33 33 33h120q133 0 204 60.5t71 172.5q0 115 -63.5 175.5 t-186.5 62.5h-115q-33 0 -32 33v122q0 33 32 33h121q106 0 164.5 50.5t58.5 134.5q0 90 -59 145t-186 55q-106 0 -182 -57t-78 -158v-999q0 -33 -33 -33l-172 2q-33 0 -33 33z" />
<glyph unicode="&#xe0;" d="M68 293q0 160 111.5 249t314.5 89h217q12 0 12 12v47q0 80 -48 124t-143 44q-72 0 -118.5 -25.5t-63.5 -70.5q-8 -29 -37 -27l-184 23q-16 2 -24.5 9t-6.5 17q18 123 136 201t292 78q129 0 228.5 -45t153 -124t53.5 -179v-682q0 -33 -33 -33h-172q-33 0 -33 33v51 q0 8 -4 9t-10 -3q-111 -106 -295 -106q-152 0 -249 77.5t-97 231.5zM279 1431q0 18 26 19h162q27 0 39 -23l106 -194q5 -7 5 -17q0 -23 -29 -22h-133q-27 0 -39 20l-131 197q-6 12 -6 20zM305 309q0 -66 49 -101.5t125 -35.5q101 0 172.5 53.5t71.5 134.5v95q0 12 -12 12 h-170q-109 0 -172.5 -41t-63.5 -117z" />
<glyph unicode="&#xe1;" d="M68 293q0 160 111.5 249t314.5 89h217q12 0 12 12v47q0 80 -48 124t-143 44q-72 0 -118.5 -25.5t-63.5 -70.5q-8 -29 -37 -27l-184 23q-16 2 -24.5 9t-6.5 17q18 123 136 201t292 78q129 0 228.5 -45t153 -124t53.5 -179v-682q0 -33 -33 -33h-172q-33 0 -33 33v51 q0 8 -4 9t-10 -3q-111 -106 -295 -106q-152 0 -249 77.5t-97 231.5zM305 309q0 -66 49 -101.5t125 -35.5q101 0 172.5 53.5t71.5 134.5v95q0 12 -12 12h-170q-109 0 -172.5 -41t-63.5 -117zM416 1216q0 10 4 17l107 194q12 23 39 23h161q27 0 27 -19q0 -8 -6 -20l-131 -197 q-12 -20 -39 -20h-133q-29 -1 -29 22z" />
<glyph unicode="&#xe2;" d="M68 293q0 160 111.5 249t314.5 89h217q12 0 12 12v47q0 80 -48 124t-143 44q-72 0 -118.5 -25.5t-63.5 -70.5q-8 -29 -37 -27l-184 23q-16 2 -24.5 9t-6.5 17q18 123 136 201t292 78q129 0 228.5 -45t153 -124t53.5 -179v-682q0 -33 -33 -33h-172q-33 0 -33 33v51 q0 8 -4 9t-10 -3q-111 -106 -295 -106q-152 0 -249 77.5t-97 231.5zM242 1206q0 10 8 18l150 201q14 20 39 21h176q23 0 39 -21l151 -199q8 -8 8 -18t-7 -16.5t-21 -6.5h-119q-25 0 -39 21l-90 131q-4 4 -9 4t-7 -4l-91 -131q-14 -20 -38 -21h-121q-29 1 -29 21zM305 309 q0 -66 49 -101.5t125 -35.5q101 0 172.5 53.5t71.5 134.5v95q0 12 -12 12h-170q-109 0 -172.5 -41t-63.5 -117z" />
<glyph unicode="&#xe3;" d="M68 293q0 160 111.5 249t314.5 89h217q12 0 12 12v47q0 80 -48 124t-143 44q-72 0 -118.5 -25.5t-63.5 -70.5q-8 -29 -37 -27l-184 23q-16 2 -24.5 9t-6.5 17q18 123 136 201t292 78q129 0 228.5 -45t153 -124t53.5 -179v-682q0 -33 -33 -33h-172q-33 0 -33 33v51 q0 8 -4 9t-10 -3q-111 -106 -295 -106q-152 0 -249 77.5t-97 231.5zM250 1308q0 10 4 17q31 61 77 92t101 31q35 0 62.5 -11.5t68.5 -36.5q61 -39 99 -38q49 0 77 40q10 16 29 17q8 0 19 -6l55 -37q14 -8 14 -25q0 -12 -12 -35q-35 -57 -83 -84.5t-95 -27.5q-37 0 -65.5 13 t-67.5 38q-27 18 -45.5 26.5t-38.5 8.5q-27 0 -45.5 -8.5t-36.5 -30.5q-10 -16 -27 -16q-8 0 -18 6l-56 41q-16 10 -16 26zM305 309q0 -66 49 -101.5t125 -35.5q101 0 172.5 53.5t71.5 134.5v95q0 12 -12 12h-170q-109 0 -172.5 -41t-63.5 -117z" />
<glyph unicode="&#xe4;" d="M68 293q0 160 111.5 249t314.5 89h217q12 0 12 12v47q0 80 -48 124t-143 44q-72 0 -118.5 -25.5t-63.5 -70.5q-8 -29 -37 -27l-184 23q-16 2 -24.5 9t-6.5 17q18 123 136 201t292 78q129 0 228.5 -45t153 -124t53.5 -179v-682q0 -33 -33 -33h-172q-33 0 -33 33v51 q0 8 -4 9t-10 -3q-111 -106 -295 -106q-152 0 -249 77.5t-97 231.5zM213 1333q0 57 36 92t93 35q55 0 90 -35t35 -92t-34.5 -92t-90.5 -35q-57 0 -93 35t-36 92zM305 309q0 -66 49 -101.5t125 -35.5q101 0 172.5 53.5t71.5 134.5v95q0 12 -12 12h-170q-109 0 -172.5 -41 t-63.5 -117zM590 1333q0 57 35 92t92 35t92 -35t35 -92t-35 -92t-92 -35t-92 35t-35 92z" />
<glyph unicode="&#xe5;" d="M68 293q0 160 111.5 249t314.5 89h217q12 0 12 12v47q0 80 -48 124t-143 44q-72 0 -118.5 -25.5t-63.5 -70.5q-8 -29 -37 -27l-184 23q-16 2 -24.5 9t-6.5 17q18 123 136 201t292 78q129 0 228.5 -45t153 -124t53.5 -179v-682q0 -33 -33 -33h-172q-33 0 -33 33v51 q0 8 -4 9t-10 -3q-111 -106 -295 -106q-152 0 -249 77.5t-97 231.5zM305 309q0 -66 49 -101.5t125 -35.5q101 0 172.5 53.5t71.5 134.5v95q0 12 -12 12h-170q-109 0 -172.5 -41t-63.5 -117zM305 1390q0 94 64.5 157.5t158.5 63.5t158.5 -63.5t64.5 -157.5 q0 -92 -64.5 -156.5t-158.5 -64.5t-158.5 64.5t-64.5 156.5zM417 1390q0 -45 32 -76.5t79 -31.5q45 0 78 31.5t33 76.5q0 47 -33 79t-78 32q-47 0 -79 -32t-32 -79z" />
<glyph unicode="&#xe6;" horiz-adv-x="1714" d="M68 283q0 152 110.5 241.5t313.5 89.5h217q12 0 12 13v51q0 82 -49 131t-148 49q-70 0 -120 -25.5t-66 -70.5q-8 -29 -37 -27l-174 23q-16 2 -23.5 12t-5.5 25q23 117 139.5 192.5t276.5 75.5q113 0 203 -47t131 -113q8 -10 16 0q41 63 127 111.5t189 48.5 q141 0 258.5 -81t156.5 -216q27 -84 29 -293q0 -35 -33 -35h-614q-12 0 -12 -12q0 2 4 -59q12 -82 79.5 -125t168.5 -43q80 0 132 25.5t87 76.5q8 16 26 16q10 0 19 -6l98 -75q16 -12 16 -27q0 -8 -6 -19q-55 -90 -159.5 -148t-239.5 -58q-113 0 -203 45t-135 114 q-8 10 -14 4q-47 -74 -151.5 -118.5t-233.5 -44.5q-172 0 -278.5 73.5t-106.5 225.5zM305 301q0 -61 49 -99t131 -38q97 0 166.5 49t69.5 141v72q0 12 -12 12h-170q-109 0 -171.5 -34.5t-62.5 -102.5zM963 627q0 -13 12 -13h399q12 0 12 13q-10 66 -12 75q-16 70 -69.5 113 t-130.5 43q-78 0 -131.5 -43t-69.5 -113q-6 -25 -10 -75z" />
<glyph unicode="&#xe7;" horiz-adv-x="1087" d="M98 528q0 147 33 242q43 135 159 214t273 79q160 0 279 -80t157 -201q6 -18 13 -57v-8q0 -23 -27 -29l-170 -26h-8q-23 0 -29 24l-6 27q-14 61 -71.5 103t-137.5 42q-78 0 -132 -40t-73 -109q-20 -66 -20 -183q0 -113 18 -182q20 -72 73.5 -114t133.5 -42q78 0 134.5 40 t72.5 106l2 10q2 10 13.5 20.5t25.5 8.5l170 -27q27 -6 27 -29q0 -12 -9 -49q-33 -111 -125 -183.5t-219 -94.5q-8 0 -9 -5t5 -10q90 -84 90 -180q0 -23 -6 -47q-18 -68 -70.5 -97.5t-119.5 -29.5q-51 0 -103 14q-27 8 -22 39l10 64q6 31 39 24q25 -4 33 -4q63 0 78 56 q2 6 2 18q0 66 -107 156l-14 6q-119 23 -205 98.5t-125 190.5q-33 92 -33 245z" />
<glyph unicode="&#xe8;" horiz-adv-x="1110" d="M102 528q0 141 23 217q39 145 153.5 231.5t278.5 86.5q383 0 449 -420q10 -68 14 -168q0 -33 -33 -33h-635q-12 0 -12 -12q0 -55 12 -90q23 -74 86.5 -115t157.5 -41q76 2 132 32t91 81q10 16 27 16q10 0 18 -6l99 -78q14 -14 14 -26q0 -8 -6 -19q-59 -94 -161.5 -147 t-236.5 -53q-162 0 -271 76.5t-159 213.5q-41 113 -41 254zM303 1431q0 18 26 19h162q27 0 39 -23l106 -194q5 -7 5 -17q0 -23 -29 -22h-133q-27 0 -39 20l-131 197q-6 12 -6 20zM342 629q-2 -12 10 -13h412q12 0 12 13q-8 61 -12 73q-18 72 -72.5 114t-136.5 42 q-78 0 -128 -38t-69 -105q-14 -41 -16 -86z" />
<glyph unicode="&#xe9;" horiz-adv-x="1110" d="M102 528q0 141 23 217q39 145 153.5 231.5t278.5 86.5q383 0 449 -420q10 -68 14 -168q0 -33 -33 -33h-635q-12 0 -12 -12q0 -55 12 -90q23 -74 86.5 -115t157.5 -41q76 2 132 32t91 81q10 16 27 16q10 0 18 -6l99 -78q14 -14 14 -26q0 -8 -6 -19q-59 -94 -161.5 -147 t-236.5 -53q-162 0 -271 76.5t-159 213.5q-41 113 -41 254zM342 629q-2 -12 10 -13h412q12 0 12 13q-8 61 -12 73q-18 72 -72.5 114t-136.5 42q-78 0 -128 -38t-69 -105q-14 -41 -16 -86zM440 1216q0 10 4 17l107 194q12 23 39 23h161q27 0 27 -19q0 -8 -6 -20l-131 -197 q-12 -20 -39 -20h-133q-29 -1 -29 22z" />
<glyph unicode="&#xea;" horiz-adv-x="1110" d="M102 528q0 141 23 217q39 145 153.5 231.5t278.5 86.5q383 0 449 -420q10 -68 14 -168q0 -33 -33 -33h-635q-12 0 -12 -12q0 -55 12 -90q23 -74 86.5 -115t157.5 -41q76 2 132 32t91 81q10 16 27 16q10 0 18 -6l99 -78q14 -14 14 -26q0 -8 -6 -19q-59 -94 -161.5 -147 t-236.5 -53q-162 0 -271 76.5t-159 213.5q-41 113 -41 254zM266 1206q0 10 8 18l150 201q14 20 39 21h176q23 0 39 -21l151 -199q8 -8 8 -18t-7 -16.5t-21 -6.5h-119q-25 0 -39 21l-90 131q-4 4 -9 4t-7 -4l-91 -131q-14 -20 -38 -21h-121q-29 1 -29 21zM342 629 q-2 -12 10 -13h412q12 0 12 13q-8 61 -12 73q-18 72 -72.5 114t-136.5 42q-78 0 -128 -38t-69 -105q-14 -41 -16 -86z" />
<glyph unicode="&#xeb;" horiz-adv-x="1110" d="M102 528q0 141 23 217q39 145 153.5 231.5t278.5 86.5q383 0 449 -420q10 -68 14 -168q0 -33 -33 -33h-635q-12 0 -12 -12q0 -55 12 -90q23 -74 86.5 -115t157.5 -41q76 2 132 32t91 81q10 16 27 16q10 0 18 -6l99 -78q14 -14 14 -26q0 -8 -6 -19q-59 -94 -161.5 -147 t-236.5 -53q-162 0 -271 76.5t-159 213.5q-41 113 -41 254zM237 1333q0 57 36 92t93 35q55 0 90 -35t35 -92t-34.5 -92t-90.5 -35q-57 0 -93 35t-36 92zM342 629q-2 -12 10 -13h412q12 0 12 13q-8 61 -12 73q-18 72 -72.5 114t-136.5 42q-78 0 -128 -38t-69 -105 q-14 -41 -16 -86zM614 1333q0 57 35 92t92 35t92 -35t35 -92t-35 -92t-92 -35t-92 35t-35 92z" />
<glyph unicode="&#xec;" horiz-adv-x="479" d="M-18 1438q0 18 26 19h162q27 0 39 -23l106 -194q5 -7 5 -17q0 -23 -29 -22h-133q-27 0 -39 20l-131 197q-6 12 -6 20zM119 33v981q0 33 33 33h172q33 0 32 -33v-981q0 -33 -32 -33h-172q-33 0 -33 33z" />
<glyph unicode="&#xed;" horiz-adv-x="479" d="M119 33v981q0 33 33 33h172q33 0 32 -33v-981q0 -33 -32 -33h-172q-33 0 -33 33zM119 1223q0 10 4 17l107 194q12 23 39 23h161q27 0 27 -19q0 -8 -6 -20l-131 -197q-12 -20 -39 -20h-133q-29 -1 -29 22z" />
<glyph unicode="&#xee;" horiz-adv-x="479" d="M-55 1213q0 10 8 18l150 201q14 20 39 21h176q23 0 39 -21l151 -199q8 -8 8 -18t-7 -16.5t-21 -6.5h-119q-25 0 -39 21l-90 131q-4 4 -9 4t-7 -4l-91 -131q-14 -20 -38 -21h-121q-29 1 -29 21zM119 33v981q0 33 33 33h172q33 0 32 -33v-981q0 -33 -32 -33h-172 q-33 0 -33 33z" />
<glyph unicode="&#xef;" horiz-adv-x="563" d="M-41 1340q0 57 36 92t93 35q55 0 90 -35t35 -92t-34.5 -92t-90.5 -35q-57 0 -93 35t-36 92zM164 33v981q0 33 33 33h172q33 0 32 -33v-981q0 -33 -32 -33h-172q-33 0 -33 33zM336 1340q0 57 35 92t92 35t92 -35t35 -92t-35 -92t-92 -35t-92 35t-35 92z" />
<glyph unicode="&#xf0;" horiz-adv-x="1097" d="M82 485q0 141 31 228q27 84 90 142t151 77q72 20 154 20q111 0 172 -34q8 -2 10 -1t0 9q-39 96 -100 186q-6 10 -17 6l-190 -53q-4 -2 -12 -2q-20 0 -27 24l-18 68q-2 4 -2 12q0 20 24 27l129 37q16 4 6 16q-45 51 -143 146q-12 12 -12 22q0 8 7 13.5t21 5.5h181 q27 0 41 -19l104 -119q8 -8 16 -6l158 45q4 2 12 2q23 0 29 -26l16 -66l2 -10q0 -23 -24 -29l-96 -26q-14 -4 -7 -15q72 -102 116 -202.5t61 -221.5q22 -104 22 -254q0 -143 -26 -229q-45 -123 -160 -198.5t-266 -75.5q-152 0 -264.5 74.5t-157.5 199.5q-31 82 -31 227z M322 479q0 -113 20 -166q16 -68 67.5 -108.5t125.5 -40.5q72 0 124 41t70 108q19 55 19 166t-19 162q-18 68 -69.5 107.5t-124.5 39.5q-74 0 -125.5 -39.5t-69.5 -107.5q-18 -55 -18 -162z" />
<glyph unicode="&#xf1;" horiz-adv-x="1114" d="M127 33v981q0 33 33 33h172q33 0 33 -33v-56q0 -8 4 -10t8 4q86 111 252 111q168 0 267 -98.5t99 -268.5v-663q0 -33 -32 -33h-172q-33 0 -33 33v614q0 94 -54.5 152.5t-142.5 58.5t-142 -57.5t-54 -151.5v-616q0 -33 -33 -33h-172q-33 0 -33 33zM287 1292q0 10 4 17 q31 61 77 92t101 31q35 0 62.5 -11.5t68.5 -36.5q61 -39 99 -38q49 0 77 40q10 16 29 17q8 0 19 -6l55 -37q14 -8 14 -25q0 -12 -12 -35q-35 -57 -83 -84.5t-95 -27.5q-37 0 -65.5 13t-67.5 38q-27 18 -45.5 26.5t-38.5 8.5q-27 0 -45.5 -8.5t-36.5 -30.5q-10 -16 -27 -16 q-8 0 -18 6l-56 41q-16 10 -16 26z" />
<glyph unicode="&#xf2;" horiz-adv-x="1140" d="M98 526q0 131 33 234q47 143 164 223t280 80q156 0 269.5 -80t161.5 -221q37 -98 36 -234q0 -129 -34 -233q-47 -145 -162 -228t-273 -83q-161 0 -278 81.5t-162 227.5q-35 100 -35 233zM320 1431q0 18 26 19h162q27 0 39 -23l106 -194q5 -7 5 -17q0 -23 -29 -22h-133 q-27 0 -39 20l-131 197q-6 12 -6 20zM338 524q0 -100 20 -172q23 -78 79.5 -121t135.5 -43q76 0 130.5 43t76.5 121q23 66 23 172q0 100 -21 172q-23 78 -79 120t-134 42t-133 -42t-78 -120q-20 -72 -20 -172z" />
<glyph unicode="&#xf3;" horiz-adv-x="1140" d="M98 526q0 131 33 234q47 143 164 223t280 80q156 0 269.5 -80t161.5 -221q37 -98 36 -234q0 -129 -34 -233q-47 -145 -162 -228t-273 -83q-161 0 -278 81.5t-162 227.5q-35 100 -35 233zM338 524q0 -100 20 -172q23 -78 79.5 -121t135.5 -43q76 0 130.5 43t76.5 121 q23 66 23 172q0 100 -21 172q-23 78 -79 120t-134 42t-133 -42t-78 -120q-20 -72 -20 -172zM457 1216q0 10 4 17l107 194q12 23 39 23h161q27 0 27 -19q0 -8 -6 -20l-131 -197q-12 -20 -39 -20h-133q-29 -1 -29 22z" />
<glyph unicode="&#xf4;" horiz-adv-x="1140" d="M98 526q0 131 33 234q47 143 164 223t280 80q156 0 269.5 -80t161.5 -221q37 -98 36 -234q0 -129 -34 -233q-47 -145 -162 -228t-273 -83q-161 0 -278 81.5t-162 227.5q-35 100 -35 233zM283 1206q0 10 8 18l150 201q14 20 39 21h176q23 0 39 -21l151 -199q8 -8 8 -18 t-7 -16.5t-21 -6.5h-119q-25 0 -39 21l-90 131q-4 4 -9 4t-7 -4l-91 -131q-14 -20 -38 -21h-121q-29 1 -29 21zM338 524q0 -100 20 -172q23 -78 79.5 -121t135.5 -43q76 0 130.5 43t76.5 121q23 66 23 172q0 100 -21 172q-23 78 -79 120t-134 42t-133 -42t-78 -120 q-20 -72 -20 -172z" />
<glyph unicode="&#xf5;" horiz-adv-x="1140" d="M98 526q0 131 33 234q47 143 164 223t280 80q156 0 269.5 -80t161.5 -221q37 -98 36 -234q0 -129 -34 -233q-47 -145 -162 -228t-273 -83q-161 0 -278 81.5t-162 227.5q-35 100 -35 233zM291 1308q0 10 4 17q31 61 77 92t101 31q35 0 62.5 -11.5t68.5 -36.5 q61 -39 99 -38q49 0 77 40q10 16 29 17q8 0 19 -6l55 -37q14 -8 14 -25q0 -12 -12 -35q-35 -57 -83 -84.5t-95 -27.5q-37 0 -65.5 13t-67.5 38q-27 18 -45.5 26.5t-38.5 8.5q-27 0 -45.5 -8.5t-36.5 -30.5q-10 -16 -27 -16q-8 0 -18 6l-56 41q-16 10 -16 26zM338 524 q0 -100 20 -172q23 -78 79.5 -121t135.5 -43q76 0 130.5 43t76.5 121q23 66 23 172q0 100 -21 172q-23 78 -79 120t-134 42t-133 -42t-78 -120q-20 -72 -20 -172z" />
<glyph unicode="&#xf6;" horiz-adv-x="1140" d="M98 526q0 131 33 234q47 143 164 223t280 80q156 0 269.5 -80t161.5 -221q37 -98 36 -234q0 -129 -34 -233q-47 -145 -162 -228t-273 -83q-161 0 -278 81.5t-162 227.5q-35 100 -35 233zM254 1333q0 57 36 92t93 35q55 0 90 -35t35 -92t-34.5 -92t-90.5 -35q-57 0 -93 35 t-36 92zM338 524q0 -100 20 -172q23 -78 79.5 -121t135.5 -43q76 0 130.5 43t76.5 121q23 66 23 172q0 100 -21 172q-23 78 -79 120t-134 42t-133 -42t-78 -120q-20 -72 -20 -172zM631 1333q0 57 35 92t92 35t92 -35t35 -92t-35 -92t-92 -35t-92 35t-35 92z" />
<glyph unicode="&#xf7;" horiz-adv-x="1005" d="M66 578v139q0 33 32 33h807q33 0 33 -33v-139q0 -33 -33 -33h-807q-32 0 -32 33zM373 322q0 53 38 90t91 37t91 -38t38 -89q0 -53 -38 -91t-91 -38t-91 37.5t-38 91.5zM373 1001q0 51 38 89t91 38q51 0 90 -37.5t39 -89.5q0 -53 -38 -92t-91 -39t-91 39t-38 92z" />
<glyph unicode="&#xf8;" horiz-adv-x="1157" d="M113 526q0 131 32 234q47 143 164 223t281 80q109 0 203 -41q10 -4 16 6l61 90q8 14 25 15q12 0 20 -9l76 -55q14 -12 15 -27q0 -8 -7 -18l-63 -96q-6 -8 0 -17q55 -61 84 -149q37 -99 37 -234q0 -129 -35 -233q-47 -145 -162 -228t-272 -83q-137 0 -240 59q-10 6 -16 -4 l-72 -105q-8 -14 -24 -14q-12 0 -21 8l-76 56q-14 12 -14 26q0 10 6 19l80 118q6 8 0 17q-39 51 -64 129q-35 100 -34 233zM352 524q0 -61 10 -127q2 -8 7.5 -9t9.5 7l293 432q8 10 -4 17q-37 14 -84 14q-78 0 -133.5 -42t-77.5 -120q-20 -72 -21 -172zM465 238 q-4 -10 4 -17q53 -33 119 -33q76 0 130 43t77 121q22 66 22 172q0 100 -20 172q-2 6 -7.5 8.5t-9.5 -6.5z" />
<glyph unicode="&#xf9;" horiz-adv-x="1107" d="M115 332v682q0 33 32 33h172q33 0 33 -33v-615q0 -96 50.5 -153.5t140.5 -57.5q92 0 147 57.5t55 153.5v615q0 33 33 33h170q33 0 33 -33v-981q0 -33 -33 -33h-170q-33 0 -33 33v53q0 8 -5 10t-9 -6q-82 -104 -250 -104q-156 0 -261 90t-105 256zM297 1415q0 18 26 19 h162q27 0 39 -23l106 -194q5 -7 5 -17q0 -23 -29 -22h-133q-27 0 -39 20l-131 197q-6 12 -6 20z" />
<glyph unicode="&#xfa;" horiz-adv-x="1107" d="M115 332v682q0 33 32 33h172q33 0 33 -33v-615q0 -96 50.5 -153.5t140.5 -57.5q92 0 147 57.5t55 153.5v615q0 33 33 33h170q33 0 33 -33v-981q0 -33 -33 -33h-170q-33 0 -33 33v53q0 8 -5 10t-9 -6q-82 -104 -250 -104q-156 0 -261 90t-105 256zM434 1200q0 10 4 17 l107 194q12 23 39 23h161q27 0 27 -19q0 -8 -6 -20l-131 -197q-12 -20 -39 -20h-133q-29 -1 -29 22z" />
<glyph unicode="&#xfb;" horiz-adv-x="1107" d="M115 332v682q0 33 32 33h172q33 0 33 -33v-615q0 -96 50.5 -153.5t140.5 -57.5q92 0 147 57.5t55 153.5v615q0 33 33 33h170q33 0 33 -33v-981q0 -33 -33 -33h-170q-33 0 -33 33v53q0 8 -5 10t-9 -6q-82 -104 -250 -104q-156 0 -261 90t-105 256zM260 1190q0 10 8 18 l150 201q14 20 39 21h176q23 0 39 -21l151 -199q8 -8 8 -18t-7 -16.5t-21 -6.5h-119q-25 0 -39 21l-90 131q-4 4 -9 4t-7 -4l-91 -131q-14 -20 -38 -21h-121q-29 1 -29 21z" />
<glyph unicode="&#xfc;" horiz-adv-x="1107" d="M115 332v682q0 33 32 33h172q33 0 33 -33v-615q0 -96 50.5 -153.5t140.5 -57.5q92 0 147 57.5t55 153.5v615q0 33 33 33h170q33 0 33 -33v-981q0 -33 -33 -33h-170q-33 0 -33 33v53q0 8 -5 10t-9 -6q-82 -104 -250 -104q-156 0 -261 90t-105 256zM231 1317q0 57 36 92 t93 35q55 0 90 -35t35 -92t-34.5 -92t-90.5 -35q-57 0 -93 35t-36 92zM608 1317q0 57 35 92t92 35t92 -35t35 -92t-35 -92t-92 -35t-92 35t-35 92z" />
<glyph unicode="&#xfd;" horiz-adv-x="1001" d="M45 1024q0 23 29 23h184q29 0 37 -27l201 -678q4 -8 9 -8t7 8l195 678q8 27 36 27h185q18 0 25.5 -9.5t0.5 -27.5l-358 -1067q-51 -145 -100.5 -217t-134.5 -103t-240 -31h-15q-14 0 -14 33v131q0 33 14 33h13q84 0 131 15.5t76.5 58.5t54.5 129q4 10 0 16l-334 1002 q-2 6 -2 14zM387 1216q0 10 4 17l107 194q12 23 39 23h161q27 0 27 -19q0 -8 -6 -20l-131 -197q-12 -20 -39 -20h-133q-29 -1 -29 22z" />
<glyph unicode="&#xfe;" horiz-adv-x="1107" d="M129 -377v1778q0 33 33 33h172q33 0 33 -33v-412q0 -8 4 -9t10 3q80 80 213 80q150 0 250 -76t145 -211q35 -105 35 -250q0 -141 -37 -256q-45 -133 -147.5 -209.5t-245.5 -76.5q-129 0 -213 84q-6 6 -10 4t-4 -11v-438q0 -33 -33 -33h-172q-33 0 -33 33zM367 375 q0 -10 2 -17q14 -49 28 -71q57 -96 160 -97q119 0 172 99q49 86 49 233q0 160 -59 250q-57 86 -164 86q-98 0 -154 -90q-20 -31 -32 -80q-2 -6 -2 -16v-297z" />
<glyph unicode="&#xff;" horiz-adv-x="1001" d="M45 1024q0 23 29 23h184q29 0 37 -27l201 -678q4 -8 9 -8t7 8l195 678q8 27 36 27h185q18 0 25.5 -9.5t0.5 -27.5l-358 -1067q-51 -145 -100.5 -217t-134.5 -103t-240 -31h-15q-14 0 -14 33v131q0 33 14 33h13q84 0 131 15.5t76.5 58.5t54.5 129q4 10 0 16l-334 1002 q-2 6 -2 14zM184 1333q0 57 36 92t93 35q55 0 90 -35t35 -92t-34.5 -92t-90.5 -35q-57 0 -93 35t-36 92zM561 1333q0 57 35 92t92 35t92 -35t35 -92t-35 -92t-92 -35t-92 35t-35 92z" />
<glyph unicode="&#x152;" horiz-adv-x="1898" d="M115 465v502q0 139 58 249.5t159.5 172t226.5 61.5q174 0 311 -104q6 -4 10.5 -3.5t4.5 9.5v49q0 33 33 33h856q33 0 32 -33v-139q1 -33 -32 -33h-639q-12 0 -13 -12v-379q0 -12 13 -13h409q33 0 33 -32v-140q0 -33 -33 -32h-409q-12 0 -13 -13v-391q0 -12 13 -12h639 q33 0 32 -33v-139q0 -33 -32 -33h-856q-33 0 -33 33v47q0 8 -4 9t-11 -3q-135 -106 -311 -106q-125 0 -226.5 61t-159.5 172t-58 252zM352 459q0 -121 74 -198t190 -77q121 0 195 77t74 198v512q0 121 -74 197.5t-195 76.5q-117 0 -190.5 -76.5t-73.5 -197.5v-512z" />
<glyph unicode="&#x153;" horiz-adv-x="1775" d="M98 526q0 160 29 244q43 135 155.5 214t266.5 79q98 0 184 -41t150 -113q4 -4 9 -4t7 4q61 72 146 113t184 41q156 0 271.5 -82t156.5 -213q27 -78 29 -291q0 -35 -33 -35h-621q-12 0 -12 -12q4 -57 14 -86q20 -76 82 -119t160 -43q57 0 113.5 30t89.5 79q12 16 26 16 q10 0 19 -8l102 -82q14 -12 14 -24q0 -8 -6 -21q-63 -90 -161.5 -139t-225.5 -49q-109 0 -197.5 41t-150.5 114q-2 4 -7 4t-9 -4q-61 -72 -147.5 -113.5t-186.5 -41.5q-152 0 -264.5 79.5t-157.5 217.5q-29 94 -29 245zM336 526q0 -115 20 -182q16 -72 67.5 -114t125.5 -42 t126 43t68 113q19 49 19 182q0 131 -19 179q-16 70 -68 111.5t-126 41.5q-72 0 -124 -42t-71 -111q-18 -57 -18 -179zM1020 618q0 -12 12 -12h402q12 0 12 12q-4 57 -14 84q-16 70 -69.5 113t-131.5 43q-76 0 -128 -42t-69 -114q-10 -31 -14 -84z" />
<glyph unicode="&#x178;" horiz-adv-x="1226" d="M70 1413q0 20 28 21h187q27 0 39 -25l280 -563q4 -6 9 -6t8 6l282 563q12 25 39 25h188q29 0 29 -21q0 -8 -6 -18l-418 -807q-4 -12 -4 -15v-538q0 -33 -33 -33h-172q-32 0 -32 33v538q0 6 -5 15l-413 807q-6 10 -6 18zM297 1704q0 57 36 92t93 35q55 0 90 -35t35 -92 t-34.5 -92t-90.5 -35q-57 0 -93 35t-36 92zM674 1704q0 57 35 92t92 35t92 -35t35 -92t-35 -92t-92 -35t-92 35t-35 92z" />
<glyph unicode="&#x2c6;" horiz-adv-x="614" d="M20 1190q0 10 8 18l150 201q14 20 39 21h176q23 0 39 -21l151 -199q8 -8 8 -18t-7 -16.5t-21 -6.5h-119q-25 0 -39 21l-90 131q-4 4 -9 4t-7 -4l-91 -131q-14 -20 -38 -21h-121q-29 1 -29 21z" />
<glyph unicode="&#x2dc;" horiz-adv-x="716" d="M53 1292q0 10 4 17q31 61 77 92t101 31q35 0 62.5 -11.5t68.5 -36.5q61 -39 99 -38q49 0 77 40q10 16 29 17q8 0 19 -6l55 -37q14 -8 14 -25q0 -12 -12 -35q-35 -57 -83 -84.5t-95 -27.5q-37 0 -65.5 13t-67.5 38q-27 18 -45.5 26.5t-38.5 8.5q-27 0 -45.5 -8.5 t-36.5 -30.5q-10 -16 -27 -16q-8 0 -18 6l-56 41q-16 10 -16 26z" />
<glyph unicode="&#x2000;" horiz-adv-x="991" />
<glyph unicode="&#x2001;" horiz-adv-x="1982" />
<glyph unicode="&#x2002;" horiz-adv-x="991" />
<glyph unicode="&#x2003;" horiz-adv-x="1982" />
<glyph unicode="&#x2004;" horiz-adv-x="660" />
<glyph unicode="&#x2005;" horiz-adv-x="495" />
<glyph unicode="&#x2006;" horiz-adv-x="330" />
<glyph unicode="&#x2007;" horiz-adv-x="330" />
<glyph unicode="&#x2008;" horiz-adv-x="247" />
<glyph unicode="&#x2009;" horiz-adv-x="396" />
<glyph unicode="&#x200a;" horiz-adv-x="110" />
<glyph unicode="&#x2010;" horiz-adv-x="827" d="M66 547v139q0 33 32 33h629q33 0 33 -33v-139q0 -33 -33 -33h-629q-32 0 -32 33z" />
<glyph unicode="&#x2011;" horiz-adv-x="827" d="M66 547v139q0 33 32 33h629q33 0 33 -33v-139q0 -33 -33 -33h-629q-32 0 -32 33z" />
<glyph unicode="&#x2012;" horiz-adv-x="827" d="M66 547v139q0 33 32 33h629q33 0 33 -33v-139q0 -33 -33 -33h-629q-32 0 -32 33z" />
<glyph unicode="&#x2013;" horiz-adv-x="956" d="M66 510v139q0 33 32 33h760q33 0 33 -33v-139q0 -33 -33 -33h-760q-32 0 -32 33z" />
<glyph unicode="&#x2014;" horiz-adv-x="1368" d="M66 512v137q0 33 32 33h1172q33 0 33 -33v-137q0 -33 -33 -33h-1172q-32 0 -32 33z" />
<glyph unicode="&#x2018;" horiz-adv-x="370" d="M14 1026l156 383q8 25 37 25h125q16 0 24.5 -10.5t3.5 -26.5l-110 -383q-8 -27 -37 -27h-172q-18 0 -25.5 11.5t-1.5 27.5z" />
<glyph unicode="&#x2019;" horiz-adv-x="370" d="M10 1024l111 383q8 27 37 27h172q18 0 25 -11.5t1 -27.5l-155 -383q-8 -25 -37 -25h-125q-16 0 -24.5 10.5t-4.5 26.5z" />
<glyph unicode="&#x201a;" horiz-adv-x="1228" d="M104 -152l74 443q6 31 35 31h147q16 0 23.5 -10.5t3.5 -26.5l-117 -443q-6 -29 -37 -28h-100q-16 0 -24.5 9t-4.5 25z" />
<glyph unicode="&#x201c;" horiz-adv-x="673" d="M14 1024l138 383q10 27 38 27h117q16 0 24.5 -10.5t4.5 -26.5l-96 -381q-6 -29 -35 -29h-164q-18 0 -25.5 9.5t-1.5 27.5zM344 1024l137 383q10 27 39 27h117q16 0 24.5 -10.5t4.5 -26.5l-97 -381q-6 -29 -34 -29h-164q-19 0 -26 9.5t-1 27.5z" />
<glyph unicode="&#x201d;" horiz-adv-x="673" d="M8 1024l96 381q6 29 35 29h164q19 0 26 -9.5t1 -27.5l-137 -383q-10 -27 -39 -27h-117q-16 0 -24.5 10.5t-4.5 26.5zM338 1024l96 381q6 29 35 29h164q18 0 25.5 -9.5t0.5 -27.5l-137 -383q-10 -27 -39 -27h-116q-16 0 -24.5 10.5t-4.5 26.5z" />
<glyph unicode="&#x201e;" horiz-adv-x="704" d="M8 -147l96 381q6 29 35 29h164q19 0 26 -9.5t1 -27.5l-137 -383q-10 -27 -39 -27h-117q-16 0 -24.5 10.5t-4.5 26.5zM338 -147l96 381q6 29 35 29h164q18 0 25.5 -9.5t0.5 -27.5l-137 -383q-10 -27 -39 -27h-116q-16 0 -24.5 10.5t-4.5 26.5z" />
<glyph unicode="&#x2022;" horiz-adv-x="643" d="M66 559q0 106 74.5 180t183.5 74q104 0 177.5 -73.5t73.5 -180.5q0 -68 -33.5 -127t-92 -94t-125.5 -35q-70 0 -129.5 35t-94 93t-34.5 128z" />
<glyph unicode="&#x2026;" horiz-adv-x="1695" d="M109 156q0 63 50 109t113 46q66 0 117 -46t51 -109q0 -66 -48 -112t-120 -46q-71 0 -117 45t-46 113zM684 156q0 63 50 109t113 46q66 0 117 -46t51 -109q0 -66 -48 -112t-120 -46q-71 0 -117 45t-46 113zM1254 156q0 63 50 109t113 46q66 0 117 -46t51 -109 q0 -66 -48 -112t-120 -46q-71 0 -117 45t-46 113z" />
<glyph unicode="&#x202f;" horiz-adv-x="396" />
<glyph unicode="&#x2039;" horiz-adv-x="706" d="M98 575q0 10 8 23l209 313q12 20 39 21h156q27 0 27 -19q0 -8 -7 -20l-208 -309q-6 -8 0 -17l208 -309q7 -12 7 -20q0 -18 -27 -19h-156q-27 0 -39 21l-209 313q-8 16 -8 22z" />
<glyph unicode="&#x203a;" horiz-adv-x="753" d="M170 238q0 8 6 20l209 309q6 8 0 17l-209 309q-6 12 -6 20q0 18 27 19h155q27 0 39 -21l209 -313q8 -8 8 -23q0 -12 -8 -22l-209 -313q-12 -20 -39 -21h-155q-27 1 -27 19z" />
<glyph unicode="&#x205f;" horiz-adv-x="495" />
<glyph unicode="&#x20ac;" horiz-adv-x="1300" d="M115 567v64q0 33 32 33h123q12 0 13 12v82q0 12 -13 12h-123q-33 0 -32 33v63q0 33 32 33h123q12 0 13 12v101q0 131 56 230t160.5 153.5t239.5 54.5q186 0 307 -92t146 -250v-8q0 -25 -29 -29l-172 -22h-4q-27 0 -33 28q-16 78 -72.5 123t-142.5 45q-98 0 -158.5 -62.5 t-60.5 -164.5v-107q0 -12 12 -12h424q16 0 24.5 -10t4.5 -27l-20 -65q-8 -27 -37 -27h-396q-12 0 -12 -12v-82q0 -12 12 -12h355q16 0 24.5 -10.5t3.5 -26.5l-20 -66q-8 -27 -37 -26h-326q-12 0 -12 -13v-108q0 -100 60.5 -163t158.5 -63q86 0 143.5 46.5t73.5 125.5 q6 33 37 27l170 -29q35 -6 29 -39q-29 -156 -149.5 -245.5t-303.5 -89.5q-135 0 -238.5 54t-160.5 154.5t-57 231.5v98q0 12 -13 13h-123q-33 0 -32 32z" />
<glyph unicode="&#x2122;" horiz-adv-x="1361" d="M35 1352v49q0 33 33 33h481q33 0 33 -33v-49q0 -33 -33 -33h-166q-12 0 -12 -12v-559q0 -33 -33 -33h-68q-33 0 -32 33v559q0 12 -13 12h-157q-33 0 -33 33zM698 748v653q0 33 33 33h74q25 0 39 -21l141 -205q4 -4 9 -4t7 4l142 205q14 21 39 21h73q33 0 33 -33v-653 q0 -33 -33 -33h-69q-33 0 -33 33v452q0 8 -5 10t-9 -6l-101 -147q-14 -20 -39 -21h-12q-25 0 -39 21l-102 147q-4 8 -9.5 6t-5.5 -10v-452q0 -33 -32 -33h-68q-33 0 -33 33z" />
<glyph unicode="&#x25fc;" horiz-adv-x="1044" d="M0 0v1044h1044v-1044h-1044z" />
</font>
</defs>
</svg>
