<?xml version="1.0" standalone="no"?>
<!DOCTYPE svg PUBLIC "-//W3C//DTD SVG 1.1//EN" "http://www.w3.org/Graphics/SVG/1.1/DTD/svg11.dtd" >
<svg xmlns="http://www.w3.org/2000/svg" xmlns:xlink="http://www.w3.org/1999/xlink" version="1.1">
<metadata></metadata>
<defs>
<font id="barlowmedium_italic" horiz-adv-x="1069" >
<font-face units-per-em="2048" ascent="1638" descent="-410" />
<missing-glyph horiz-adv-x="397" />
<glyph horiz-adv-x="0" />
<glyph unicode="&#xd;" horiz-adv-x="397" />
<glyph unicode=" "  horiz-adv-x="397" />
<glyph unicode="&#x09;" horiz-adv-x="397" />
<glyph unicode="&#xa0;" horiz-adv-x="397" />
<glyph unicode="!" horiz-adv-x="657" d="M158 127q0 66 50 114t111 48q53 0 91.5 -37t38.5 -88q0 -63 -49.5 -110.5t-114.5 -47.5q-58 0 -92.5 35t-34.5 86zM272 506l93 897q2 14 11 22.5t23 8.5h131q12 0 19.5 -8.5t5.5 -22.5l-125 -897q-2 -14 -11 -22.5t-24 -8.5h-96q-14 0 -21.5 8.5t-5.5 22.5z" />
<glyph unicode="&#x22;" horiz-adv-x="589" d="M154 1018l26 377q6 31 33 30h127q29 0 25 -30l-64 -377q-2 -14 -11 -22.5t-24 -8.5h-86q-12 0 -20 8.5t-6 22.5zM463 1018l31 377q4 31 30 30h127q29 0 25 -30l-64 -377q-6 -31 -37 -31h-83q-15 0 -23 8.5t-6 22.5z" />
<glyph unicode="#" horiz-adv-x="1329" d="M137 422l15 108q6 31 34 31h136q12 0 12 10l76 279q4 10 -7 10h-108q-14 0 -21.5 8.5t-5.5 22.5l15 110q2 14 10 22.5t22 8.5h136q12 0 12 10l86 312q6 29 37 28l131 -2q29 0 20 -32l-82 -306q-4 -10 7 -10h272q12 0 12 10l86 312q2 14 12.5 21t22.5 7l131 -2 q31 0 23 -32l-84 -306q0 -10 8 -10h117q12 0 19 -8t5 -23l-14 -110q-2 -14 -11.5 -22.5t-23.5 -8.5h-139q-10 0 -15 -10l-73 -279q0 -10 6 -10h114q12 0 19.5 -8t5.5 -23l-12 -108q-2 -14 -11.5 -22.5t-23.5 -8.5h-137q-4 0 -9.5 -3t-5.5 -7l-86 -311q-6 -29 -34 -29l-131 2 q-31 0 -23 33l84 305q0 10 -6 10h-273q-10 0 -14 -10l-86 -311q-6 -29 -35 -29l-131 2q-33 0 -20 33l82 305q4 10 -7 10h-112q-14 0 -21.5 8.5t-5.5 22.5zM526 571q0 -10 9 -10h270q4 0 8 3t4 7l76 279q0 10 -6 10h-273q-10 0 -14 -10z" />
<glyph unicode="$" horiz-adv-x="1089" d="M104 299q0 14 5 51l10 82q2 14 11 22.5t22 8.5h127q14 0 21 -8.5t5 -22.5l-4 -39q-2 -12 -2 -35q0 -92 61.5 -148t176.5 -56q119 0 188.5 59t81.5 156q6 55 -20.5 96t-73.5 72.5t-138 80.5q-78 41 -151 87q-113 66 -168 135t-55 174q0 18 4 55q20 160 121.5 257 t269.5 118q10 4 12 12l13 123q2 14 11 22.5t23 8.5h68q12 0 19.5 -8.5t5.5 -22.5l-17 -121q0 -10 8 -10q162 -14 250 -98t88 -222q0 -16 -4 -57l-8 -59q-2 -14 -10 -22.5t-23 -8.5h-127q-14 0 -21 7t-5 20l2 24q2 14 2 41q0 94 -58.5 150.5t-173.5 56.5q-119 0 -188.5 -60.5 t-69.5 -168.5q0 -51 29 -87t73 -61.5t128 -62.5l96 -45q145 -70 213.5 -155t68.5 -202q0 -18 -4 -59q-20 -168 -131.5 -272.5t-296.5 -120.5q-10 0 -12 -11l-10 -106q-2 -14 -11.5 -22.5t-23.5 -8.5h-70q-12 0 -19 8.5t-5 22.5l14 108q2 10 -8 11q-152 18 -236 100t-84 211z " />
<glyph unicode="%" horiz-adv-x="1667" d="M262 1112q0 90 47 169t125 125t166 46q111 0 184.5 -76t73.5 -186q0 -92 -46 -171t-124 -126t-164 -47q-112 0 -187 75.5t-75 190.5zM352 16q0 4 8 21l910 1376q12 20 39 21h77q23 0 23 -17q0 -4 -8 -20l-909 -1377q-12 -20 -39 -20h-78q-23 0 -23 16zM371 1128 q0 -74 48 -123t120 -49q84 0 147.5 64.5t63.5 155.5q0 72 -47.5 119.5t-116.5 47.5q-86 0 -150.5 -64.5t-64.5 -150.5zM913 246q0 90 47.5 169t125 126t163.5 47q113 0 186.5 -76t73.5 -188q0 -90 -46 -169t-123.5 -126t-163.5 -47q-113 0 -188 75.5t-75 188.5zM1022 260 q0 -74 47 -122t121 -48q84 0 146.5 66.5t62.5 154.5q0 72 -46 119t-116 47q-86 0 -150.5 -64.5t-64.5 -152.5z" />
<glyph unicode="&#x26;" horiz-adv-x="1345" d="M96 274q0 162 91.5 270.5t248.5 205.5q8 8 2 14q-82 119 -111.5 185.5t-29.5 121.5q0 25 2 37q18 154 129 248t272 94q152 0 243 -79t91 -210q0 -145 -85 -242.5t-242 -191.5q-8 -4 -5 -14l218 -303l8 -11q4 -6 12 0q84 92 141 164q12 16 27 17q8 0 16 -7l90 -55 q12 -8 13 -20q0 -8 -10 -23q-109 -137 -183 -213q-8 -4 2 -20l144 -205q8 -9 8 -19q0 -8 -7 -13t-22 -5h-145q-25 0 -35 16l-84 113q-2 8 -12 2q-201 -147 -420 -147q-166 0 -266.5 73.5t-100.5 216.5zM291 307q0 -74 50 -115.5t142 -41.5q145 -1 301 114q10 6 4 15l-59 83 q-37 51 -59 80q-41 55 -127 174q-6 8 -15 2q-102 -70 -161.5 -132t-73.5 -144q-2 -12 -2 -35zM489 1108q-4 -41 16.5 -89t94.5 -159q6 -8 14 -2q115 74 172.5 135.5t57.5 141.5q0 63 -44 99t-118 36q-78 0 -131 -44t-62 -118z" />
<glyph unicode="'" horiz-adv-x="288" d="M154 1026l28 373q4 31 31 31h137q29 0 25 -31l-64 -373q-6 -31 -37 -31h-92q-30 0 -28 31z" />
<glyph unicode="(" horiz-adv-x="577" d="M23 440q0 119 14 232q33 260 123 487t213 383q16 18 37 19h122q25 0 25 -17q0 -8 -6 -20q-104 -160 -186 -381t-113 -469q-14 -121 -14 -246q0 -174 28.5 -325.5t75.5 -270.5q4 -12 4 -14q0 -10 -8 -16.5t-21 -6.5h-127q-22 1 -32 19q-63 117 -99 278.5t-36 347.5z" />
<glyph unicode=")" horiz-adv-x="577" d="M109 -188q0 8 6 20q106 160 187 378t110 464q16 141 16 252q0 174 -28.5 327.5t-77.5 270.5q-2 4 -3 12q0 25 29 25h123q25 0 33 -19q66 -119 101.5 -280.5t35.5 -350.5q0 -125 -14 -239q-31 -256 -120 -479.5t-210 -378.5q-18 -19 -41 -19h-125q-23 0 -22 17z" />
<glyph unicode="*" horiz-adv-x="790" d="M143 1022q0 14 21 29l209 110q10 6 2 13l-182 110q-14 10 -15 23q0 6 8 18l37 53q20 27 41 13l178 -115q4 -2 8.5 0t4.5 8l26 215q2 14 11.5 22.5t23.5 8.5h55q14 0 21.5 -8.5t5.5 -22.5l-27 -215q-2 -6 2.5 -9t8.5 1l206 113q8 6 19 6q14 0 20 -17l21 -53q2 -4 2 -12 q0 -18 -19 -29l-208 -110q-8 -6 -2 -13l182 -110q12 -6 12 -21q0 -10 -6 -20l-35 -54q-10 -16 -22 -16q-10 0 -19 6l-178 115q-4 4 -8 1t-4 -9l-27 -217q-2 -14 -11 -22.5t-24 -8.5h-55q-12 0 -19.5 8t-5.5 23l27 217q0 6 -4 9t-8 -1l-207 -115q-8 -6 -16 -6q-14 0 -21 16 l-25 54q-4 8 -4 12z" />
<glyph unicode="+" horiz-adv-x="983" d="M100 578l15 108q2 14 10 22.5t22 8.5h302q4 0 7 3t3 7l39 315q2 14 11 22.5t21 8.5h107q12 0 19.5 -8t5.5 -23l-37 -315q-4 -10 8 -10h299q14 0 21.5 -8.5t4.5 -22.5l-14 -108q-2 -14 -10 -22.5t-23 -8.5h-299q-12 0 -12 -10l-37 -304q-2 -14 -11 -22t-22 -8h-106 q-14 0 -21.5 8t-5.5 22l39 304q0 10 -10 10h-299q-14 0 -21.5 8t-5.5 23z" />
<glyph unicode="," horiz-adv-x="524" d="M59 -143l131 434q10 29 35 28h113q14 0 20.5 -9t-0.5 -25l-165 -435q-10 -27 -35 -26h-74q-33 0 -25 33z" />
<glyph unicode="-" horiz-adv-x="794" d="M100 571l13 109q2 14 11 22.5t23 8.5h594q12 0 19.5 -8.5t5.5 -22.5l-12 -109q-2 -14 -11.5 -22t-21.5 -8h-594q-14 0 -21.5 8t-5.5 22z" />
<glyph unicode="." horiz-adv-x="538" d="M100 127q0 63 51.5 109.5t110.5 46.5q51 0 90 -36t39 -87q0 -66 -49 -113t-115 -47q-57 0 -92 36t-35 91z" />
<glyph unicode="/" horiz-adv-x="770" d="M25.5 9q-5.5 9 1.5 26l628 1374q10 25 37 25h129q16 0 21.5 -9.5t-0.5 -25.5l-631 -1374q-10 -25 -37 -25h-129q-14 0 -19.5 9z" />
<glyph unicode="0" horiz-adv-x="1124" d="M131 344q0 20 4 70l74 606q25 199 157 315.5t332 116.5q184 0 289 -98.5t105 -268.5q0 -20 -5 -65l-75 -606q-25 -199 -159 -316.5t-335 -117.5q-180 0 -283.5 97t-103.5 267zM322 360q0 -96 58 -153t159 -57q114 0 190 68.5t90 182.5l78 627q2 14 2 41q0 98 -58.5 154.5 t-162.5 56.5q-113 0 -187.5 -68.5t-91.5 -183.5l-75 -627q-2 -14 -2 -41z" />
<glyph unicode="1" horiz-adv-x="681" d="M197 1194l10 94q2 20 26 35l216 102q18 9 38 9h142q14 0 21 -8.5t5 -22.5l-168 -1372q-6 -31 -34 -31h-131q-14 0 -21.5 8t-5.5 23l147 1200q2 4 -2 7t-8 1l-205 -70q-4 -2 -12 -2q-10 0 -15 7.5t-3 19.5z" />
<glyph unicode="2" horiz-adv-x="1081" d="M72 31l12 106q2 20 18 39q174 176 467 494l43 45q213 225 228 352q2 10 2 31q0 84 -55.5 133t-149.5 49q-102 0 -171 -59.5t-79 -155.5l-6 -51q-2 -14 -11.5 -22.5t-21.5 -8.5h-133q-14 0 -21.5 8t-5.5 23l9 78q27 162 154.5 260t307.5 98q176 0 276.5 -92t100.5 -240 q0 -98 -57 -208.5t-174 -239.5q-143 -166 -412 -441l-45 -47q-4 -4 -3 -8t7 -4h578q14 0 21 -8t5 -23l-12 -108q-2 -14 -11 -22.5t-24 -8.5h-811q-14 0 -21 8t-5 23z" />
<glyph unicode="3" horiz-adv-x="1042" d="M98 418q6 31 35 31h133q12 0 20.5 -8.5t6.5 -22.5l-2 -43q0 -23 4 -56q10 -76 60.5 -119.5t129.5 -43.5q76 0 131.5 34.5t85.5 102.5q37 70 50 160q4 49 4 71q0 61 -17 115q-35 131 -180 131q-31 0 -72 -18q-6 -4 -18 -4q-14 0 -23 12l-53 80q-6 10 -6 16q0 12 14 27 l377 366q12 12 -2 13h-526q-14 0 -21.5 8t-5.5 22l15 111q2 14 11 22.5t23 8.5h750q14 0 21.5 -8.5t5.5 -22.5l-15 -119q-4 -25 -18 -39l-346 -342q-6 -4 -4 -8t10 -6q201 -16 256 -209q16 -51 16 -133q0 -45 -6 -98q-10 -94 -55 -201q-59 -125 -168 -194.5t-254 -69.5 q-143 0 -238.5 76.5t-120.5 205.5q-12 57 -8 152z" />
<glyph unicode="4" horiz-adv-x="1134" d="M96 416l13 92q4 23 12 39l491 864q12 23 37 23h139q23 0 23 -19q0 -6 -6 -18l-467 -824q-2 -4 0 -8t6 -4h393q4 0 7.5 3t3.5 7l36 293q2 14 10.5 22.5t22.5 8.5h131q14 0 21.5 -8t5.5 -23l-37 -293q0 -10 8 -10h76q14 0 21.5 -8t5.5 -23l-15 -114q-2 -14 -11 -22.5 t-22 -8.5h-75q-8 0 -13 -10l-41 -344q-2 -14 -11 -22.5t-23 -8.5h-131q-12 0 -19.5 8t-5.5 23l41 344q4 10 -8 10h-592q-14 0 -21.5 8t-5.5 23z" />
<glyph unicode="5" horiz-adv-x="1038" d="M119 348q0 14 9 23.5t24 9.5h135q25 0 28 -29q0 -12 4 -33q10 -76 60.5 -119.5t130.5 -43.5t141.5 47t89.5 127q20 41 31 114q6 35 6 78q0 33 -2 51q-6 78 -58 120t-136 42q-72 0 -132.5 -29.5t-91.5 -87.5q-14 -25 -39 -24h-141q-14 0 -21 8t-5 23l96 778q2 14 11 22.5 t22 8.5h723q14 0 21 -8.5t5 -22.5l-12 -109q-2 -14 -11.5 -22t-23.5 -8h-551q-10 0 -12 -11l-53 -424q-2 -6 1 -8t9 2q104 84 252 84q139 0 230 -71.5t110 -200.5q4 -29 4 -84q0 -59 -6 -102q-10 -90 -45 -179q-53 -131 -169 -207.5t-264 -76.5q-143 0 -239 73.5t-121 200.5 q-10 51 -10 88z" />
<glyph unicode="6" horiz-adv-x="1038" d="M123 360q0 45 6 91l78 630q20 168 146 268.5t309 100.5q162 0 259 -84t97 -223q0 -16 -4 -49l-4 -31q-2 -14 -10.5 -22.5t-22.5 -8.5h-131q-14 0 -21.5 5t-5.5 16l2 18q2 10 2 29q0 80 -51 129t-133 49q-96 0 -163.5 -59.5t-80.5 -157.5l-33 -254q0 -6 4.5 -7t8.5 3 q98 96 258 96q119 0 195.5 -49t113.5 -143q31 -74 31 -172q0 -41 -6 -89q-16 -127 -68 -219q-59 -117 -162.5 -179t-240.5 -62q-147 0 -240.5 69.5t-120.5 196.5q-12 49 -12 108zM313 379q0 -47 13 -88q16 -66 64 -99.5t122 -33.5q143 0 215 131q37 63 49 157q4 41 4 60 q0 68 -20 108q-43 119 -178 119q-70 0 -124.5 -31.5t-86.5 -91.5q-39 -70 -54 -174q-4 -41 -4 -57z" />
<glyph unicode="7" horiz-adv-x="956" d="M166 1169l29 234q2 14 10 22.5t22 8.5h797q14 0 21.5 -8.5t5.5 -22.5l-15 -121q-2 -12 -12 -37l-594 -1220q-10 -25 -37 -25h-143q-23 0 -23 16q0 6 6 19l594 1216q4 12 -6 13h-475q-8 0 -12 -11l-10 -84q-2 -14 -10.5 -22t-22.5 -8h-101q-12 0 -19 8t-5 22z" />
<glyph unicode="8" horiz-adv-x="1046" d="M104 338q0 35 7 72q12 113 67 206q55 90 137 142q8 6 2 12q-57 43 -90 109q-35 66 -34 149q0 141 88 254q63 84 161.5 129t216.5 45q133 0 222.5 -50t126.5 -149q27 -59 26 -141q0 -127 -78 -229q-55 -72 -125 -117q-8 -8 0 -14q78 -51 107 -144q18 -55 18 -123 q0 -39 -6 -81q-16 -133 -80 -230q-61 -92 -162.5 -143t-230.5 -51q-125 0 -214 52t-130 150q-29 74 -29 152zM301 369q0 -68 23 -117q47 -100 176 -100q127 0 196 92q52 69 66 182q2 14 2 43q0 49 -8 82q-16 66 -65.5 100.5t-125.5 34.5q-143 0 -217 -131q-33 -57 -43 -133 q-4 -37 -4 -53zM379 1020q0 -59 24 -100q23 -45 69 -71t110 -26q133 0 211 105q41 53 47 127q4 33 4 45q0 45 -15 74q-23 55 -70.5 84.5t-119.5 29.5q-139 0 -215 -110q-45 -78 -45 -158z" />
<glyph unicode="9" horiz-adv-x="1042" d="M121 291q0 16 4 49l4 31q2 14 11.5 22t21.5 8h131q33 0 29 -18l-3 -21q-2 -10 -2 -32q0 -78 50.5 -126t132.5 -48q96 0 164.5 59t80.5 158l31 254q2 6 -2 7t-10 -3q-98 -96 -258 -96q-231 0 -309 192q-31 82 -31 176q0 41 6 84q14 121 68 219q59 117 163.5 179.5 t241.5 62.5q147 0 240.5 -69.5t120.5 -196.5q10 -56 10 -109q0 -43 -6 -90l-76 -631q-20 -168 -146 -268t-309 -100q-164 0 -261 84t-97 223zM360 926q0 -63 19 -107q43 -119 180 -119q68 0 122 32t87 91q39 63 53 174q4 20 4 62q0 47 -12 84q-16 66 -63.5 99.5t-122.5 33.5 q-143 0 -213 -131q-39 -63 -49 -158q-4 -41 -5 -61z" />
<glyph unicode=":" horiz-adv-x="692" d="M182 150q0 63 51.5 109t110.5 46q53 0 91 -36t38 -87q0 -66 -49 -112.5t-115 -46.5q-55 0 -91 35.5t-36 91.5zM266 831q0 63 51.5 109.5t110.5 46.5q51 0 90 -36t39 -87q0 -66 -49 -112.5t-115 -46.5q-55 0 -91 35.5t-36 90.5z" />
<glyph unicode=";" horiz-adv-x="620" d="M127 -137l100 422q6 29 35 28h115q33 0 20 -32l-139 -424q-10 -27 -37 -27h-71q-31 0 -23 33zM231 809q0 63 50.5 111.5t111.5 48.5q53 0 92 -37t39 -88q0 -63 -49 -110.5t-117 -47.5q-55 0 -91 35t-36 88z" />
<glyph unicode="&#x3c;" horiz-adv-x="983" d="M90 494l16 124q4 27 25 35l834 371q12 4 14 4q10 0 15 -7t3 -20l-16 -129q-2 -25 -27 -34l-645 -277q-12 -6 -2 -12l578 -277q20 -10 18 -34l-16 -127q-2 -17 -12.5 -24t-24.5 1l-741 371q-23 10 -19 35z" />
<glyph unicode="=" horiz-adv-x="983" d="M100 373l15 108q2 14 10 22.5t22 8.5h785q14 0 21.5 -8.5t4.5 -22.5l-14 -108q-2 -14 -10 -22.5t-23 -8.5h-784q-14 0 -21.5 8t-5.5 23zM100 787l15 108q2 14 10 22.5t22 8.5h785q14 0 21.5 -8.5t4.5 -22.5l-14 -108q-2 -14 -10 -22.5t-23 -8.5h-784q-14 0 -21.5 8 t-5.5 23z" />
<glyph unicode="&#x3e;" horiz-adv-x="983" d="M43 111l16 127q2 25 27 34l645 277q12 6 2 12l-579 277q-18 10 -17 34l17 129q2 16 12 23.5t24 -0.5l742 -371q23 -10 18 -35l-16 -124q-4 -27 -25 -35l-833 -371q-13 -4 -15 -4q-10 0 -15 7t-3 20z" />
<glyph unicode="?" horiz-adv-x="958" d="M160 1034l4 35q20 172 147 277.5t312 105.5q166 0 262 -87t96 -232q0 -16 -4 -54q-12 -90 -50 -155.5t-84 -106.5t-118 -92q-76 -51 -114 -91t-44 -95l-10 -82q-2 -14 -11 -22.5t-24 -8.5h-133q-12 0 -19.5 8t-4.5 23l10 92q12 92 65.5 151.5t147.5 126.5q66 45 104.5 80 t65 84t26.5 115q0 78 -51 123t-137 45q-98 0 -164.5 -57.5t-77.5 -147.5l-6 -43q-4 -29 -33 -29l-131 4q-14 0 -21 9.5t-3 23.5zM293 117q0 61 46 106t107 45q51 0 86 -33.5t35 -84.5q0 -59 -47 -103.5t-106 -44.5q-52 0 -86.5 33t-34.5 82z" />
<glyph unicode="@" horiz-adv-x="1636" d="M119 360q0 88 18 183q43 227 178.5 397t321.5 261t381 91q170 0 296 -64.5t194.5 -181t68.5 -272.5q0 -100 -27 -201q-49 -195 -153.5 -301t-247.5 -106q-141 0 -195 94q-6 8 -14 2q-43 -45 -98.5 -68.5t-112.5 -23.5q-113 0 -176.5 58.5t-63.5 150.5q0 55 29 166 q27 111 60 174q43 96 125.5 149.5t177.5 53.5q102 0 149 -64q4 -6 8 -5t4 7l7 23q6 29 34 28h74q31 0 23 -32l-101 -402q-8 -31 -8 -61q0 -55 27.5 -89t79.5 -34q78 0 139 71.5t94 202.5q25 102 25 189q0 193 -119 301t-322 108q-164 0 -317.5 -74.5t-264 -221 t-145.5 -349.5q-14 -70 -14 -143q0 -199 112.5 -317.5t315.5 -118.5q94 0 184 21.5t146 53.5q10 8 20 9q10 0 21 -13l30 -47q6 -10 7 -16q0 -14 -17 -27q-78 -51 -193.5 -81.5t-232.5 -30.5q-164 0 -282.5 67.5t-182 192.5t-63.5 290zM625 426l2 -18q-4 -53 29.5 -86 t91.5 -33q55 0 99 33.5t68 85.5q18 31 29 71l25 94q12 51 15 74t3 47q0 47 -31.5 78t-85.5 31q-53 0 -100 -33t-74 -82q-23 -41 -47 -147q-25 -84 -24 -115z" />
<glyph unicode="A" horiz-adv-x="1251" d="M31 18l4 17l598 1374q10 25 37 25h182q25 0 31 -25l264 -1374v-8q0 -27 -29 -27h-143q-25 0 -31 25l-41 229q0 2 -2 5t-6 3h-555q-6 0 -10 -8l-99 -229q-10 -25 -36 -25h-142q-23 0 -22 18zM403 430q-5 -12 7 -12h454q12 0 8 12l-135 764q-2 8 -6 8t-6 -8z" />
<glyph unicode="B" horiz-adv-x="1239" d="M127 31l168 1372q2 14 11 22.5t24 8.5h469q186 0 288.5 -81t102.5 -237q0 -18 -4 -63q-27 -219 -225 -305q-13 -7 -5 -13q170 -84 170 -278q0 -18 -4 -64q-23 -188 -155.5 -290.5t-329.5 -102.5h-483q-14 0 -21.5 8t-5.5 23zM336 182q0 -10 8 -10h315q123 0 200 76 t77 203q0 94 -59.5 147t-163.5 53h-310q-10 0 -10 -10zM416 825q-4 -10 8 -10h297q125 0 201.5 69.5t76.5 184.5q0 90 -58 142.5t-165 52.5h-297q-8 -1 -12 -11z" />
<glyph unicode="C" horiz-adv-x="1206" d="M137 383q0 20 4 70l66 530q16 139 90 244.5t190.5 164t260.5 58.5q199 0 315.5 -104.5t116.5 -282.5q0 -20 -4 -66q-2 -20 -33 -24l-133 -8h-6q-10 0 -16.5 4t-4.5 8v12q4 33 4 47q0 111 -70.5 177.5t-189.5 66.5q-131 0 -222 -80t-108 -211l-67 -545q-2 -14 -2 -43 q0 -113 69.5 -180t192.5 -67q131 0 221 79.5t107 210.5q0 10 9 17.5t23 5.5l129 -8q29 -4 29 -10l-2 -11q-16 -135 -89 -238.5t-189.5 -160.5t-260.5 -57q-196 0 -313 108.5t-117 292.5z" />
<glyph unicode="D" horiz-adv-x="1226" d="M127 31l168 1372q2 14 11 22.5t24 8.5h471q188 0 296.5 -94.5t108.5 -256.5q0 -18 -4 -59l-76 -614q-23 -186 -159 -298t-342 -112h-471q-15 0 -22 8t-5 23zM336 180q0 -10 8 -10h309q115 0 193 72.5t94 195.5l68 557q2 16 2 47q0 104 -58.5 163t-165.5 59h-307 q-8 0 -12 -11z" />
<glyph unicode="E" horiz-adv-x="1187" d="M127 31l168 1372q2 14 11 22.5t24 8.5h864q12 0 19.5 -8.5t5.5 -22.5l-13 -109q-2 -14 -11 -22t-24 -8h-692q-8 0 -12 -11l-53 -436q0 -10 8 -10h473q14 0 21.5 -8t5.5 -23l-13 -108q-6 -31 -35 -31h-473q-10 0 -10 -10l-55 -447q0 -10 8 -10h694q14 0 21.5 -8t5.5 -23 l-14 -108q-2 -14 -11.5 -22.5t-21.5 -8.5h-864q-14 0 -21.5 8t-5.5 23z" />
<glyph unicode="F" horiz-adv-x="1122" d="M127 31l168 1372q2 14 11 22.5t24 8.5h862q12 0 19.5 -8.5t5.5 -22.5l-13 -109q-2 -14 -11 -22t-24 -8h-690q-8 0 -12 -11l-53 -436q0 -10 8 -10h471q14 0 21.5 -8t5.5 -23l-13 -108q-6 -31 -35 -31h-471q-10 0 -10 -10l-74 -596q-2 -14 -11 -22.5t-21 -8.5h-131 q-14 0 -21.5 8t-5.5 23z" />
<glyph unicode="G" horiz-adv-x="1204" d="M137 385q0 20 4 70l64 524q16 141 91 247.5t191.5 165t260.5 58.5q131 0 228 -49t150.5 -136t53.5 -198q0 -20 -4 -61v-13q-2 -14 -11.5 -22t-23.5 -8h-131q-12 0 -20.5 6t-6.5 14l2 18q2 14 2 41q0 106 -69.5 171t-190.5 65q-133 0 -223 -80t-107 -213l-65 -536 q-2 -16 -2 -46q0 -113 72.5 -180t195.5 -67q129 0 215 70.5t100 193.5l19 155q4 10 -8 11h-256q-14 0 -21.5 8t-5.5 22l14 107q2 14 10.5 22.5t22.5 8.5h428q12 0 19.5 -8.5t5.5 -22.5l-31 -250q-29 -236 -174 -362.5t-369 -126.5q-196 0 -313 108.5t-117 292.5z" />
<glyph unicode="H" horiz-adv-x="1282" d="M127 31l168 1372q2 14 11 22.5t24 8.5h131q12 0 19 -8.5t5 -22.5l-71 -586q0 -10 8 -10h563q10 0 10 10l74 586q2 14 10 22.5t23 8.5h131q14 0 21.5 -8.5t5.5 -22.5l-170 -1372q-2 -14 -10.5 -22.5t-22.5 -8.5h-131q-14 0 -21.5 8t-5.5 23l74 596q0 10 -8 10h-564 q-10 0 -10 -10l-74 -596q-2 -14 -11 -22.5t-21 -8.5h-131q-14 0 -21.5 8t-5.5 23z" />
<glyph unicode="I" horiz-adv-x="516" d="M127 31l168 1372q2 14 11 22.5t24 8.5h131q12 0 19 -8.5t5 -22.5l-168 -1372q-2 -14 -11 -22.5t-21 -8.5h-131q-15 0 -22 8t-5 23z" />
<glyph unicode="J" horiz-adv-x="1159" d="M57 362q0 18 4 64l11 84q6 31 34 31h132q14 0 21 -8.5t5 -22.5l-10 -84q-2 -14 -2 -41q0 -106 66.5 -168.5t183.5 -62.5q127 0 215 74.5t102 197.5l121 977q2 14 10 22.5t23 8.5h129q14 0 21 -8.5t5 -22.5l-120 -977q-16 -131 -88 -231.5t-185.5 -155.5t-253.5 -55 q-194 0 -309 102t-115 276z" />
<glyph unicode="K" horiz-adv-x="1224" d="M127 31l168 1372q2 14 11 22.5t24 8.5h131q12 0 19 -8.5t5 -22.5l-77 -639q0 -6 3 -8t9 4l643 657q14 16 37 17h149q23 0 23 -15q0 -10 -12 -22l-529 -563q-6 -8 -2 -15l401 -782q4 -6 5 -17q0 -20 -29 -20h-148q-27 0 -34 20l-344 660q-2 4 -6.5 5t-6.5 -3l-188 -188 q-6 -12 -6 -15l-56 -448q-2 -14 -11 -22.5t-21 -8.5h-131q-15 0 -22 8t-5 23z" />
<glyph unicode="L" horiz-adv-x="1132" d="M127 31l168 1372q2 14 11 22.5t24 8.5h131q12 0 19 -8.5t5 -22.5l-149 -1223q0 -10 8 -10h674q14 0 21.5 -8t4.5 -23l-14 -108q-2 -14 -10 -22.5t-23 -8.5h-843q-15 0 -22 8t-5 23z" />
<glyph unicode="M" horiz-adv-x="1406" d="M129 31l168 1372q2 14 11 22.5t24 8.5h133q25 0 33 -21l266 -549q4 -12 12 0l404 549q12 20 37 21h133q14 0 21 -8.5t5 -22.5l-168 -1372q-2 -14 -11 -22.5t-23 -8.5h-132q-12 0 -19 8t-5 23l127 1040q2 8 -3 9t-9 -5l-326 -454q-14 -20 -39 -21h-63q-25 0 -33 21 l-211 454q-4 6 -8 5t-7 -9l-127 -1040q-2 -14 -11 -22.5t-21 -8.5h-131q-15 0 -22 8t-5 23z" />
<glyph unicode="N" horiz-adv-x="1327" d="M127 31l168 1372q2 14 11 22.5t24 8.5h127q25 0 32 -21l484 -1014q2 -6 6 -5t6 9l123 1000q2 14 11 22.5t22 8.5h131q14 0 21 -8.5t5 -22.5l-168 -1372q-2 -14 -11 -22.5t-23 -8.5h-129q-25 0 -33 20l-483 1020q-2 6 -6.5 5t-6.5 -9l-121 -1005q-2 -14 -11 -22.5 t-21 -8.5h-131q-15 0 -22 8t-5 23z" />
<glyph unicode="O" horiz-adv-x="1234" d="M139 397q0 49 4 76l60 488q18 145 93 255.5t193.5 172t264.5 61.5q201 0 318.5 -112.5t117.5 -301.5q0 -49 -4 -75l-60 -488q-16 -145 -92 -257t-194.5 -173t-266.5 -61q-198 0 -316 112.5t-118 302.5zM330 412q0 -119 71.5 -189.5t192.5 -70.5q137 0 230.5 86t111.5 227 l59 498q4 37 4 53q0 121 -71.5 192.5t-194.5 71.5q-133 0 -227 -87t-111 -230l-61 -498q-4 -37 -4 -53z" />
<glyph unicode="P" horiz-adv-x="1177" d="M115 31l170 1374q2 14 10 22.5t22 8.5h527q166 0 263 -95.5t97 -255.5q0 -20 -4 -65q-23 -186 -150.5 -298t-314.5 -112h-348q-8 0 -12 -10l-70 -569q-2 -14 -10 -22.5t-23 -8.5h-131q-14 0 -21 8t-5 23zM397 780q0 -10 9 -10h329q119 0 198 80t79 205q0 96 -58.5 153.5 t-156.5 57.5h-330q-10 0 -10 -11z" />
<glyph unicode="Q" horiz-adv-x="1157" d="M115 385q0 23 4 68l63 516q16 143 90 251.5t188.5 169t256.5 60.5q194 0 307 -110.5t113 -297.5q0 -49 -4 -73l-64 -516q-23 -182 -138.5 -306t-287.5 -153q-8 -4 -12 -12l-21 -175q-2 -14 -11 -22t-24 -8h-131q-12 0 -19 8t-5 22l20 175q2 8 -8 12q-150 27 -233.5 130 t-83.5 261zM307 410q0 -117 66.5 -186.5t183.5 -69.5q127 0 216 82.5t106 218.5l63 524q4 33 4 49q0 115 -67.5 183.5t-182.5 68.5q-129 0 -217 -83t-104 -218l-66 -524q-2 -16 -2 -45z" />
<glyph unicode="R" horiz-adv-x="1218" d="M127 31l168 1374q2 14 11 22.5t24 8.5h524q162 0 257 -93.5t95 -248.5q0 -20 -4 -66q-16 -141 -101 -240.5t-216 -134.5q-8 -2 -8 -12l208 -604q2 -4 2 -12q0 -25 -28 -25h-135q-25 0 -31 23l-201 606q0 4 -3 6t-7 2h-281q-10 0 -10 -10l-74 -596q-2 -14 -11 -22.5 t-21 -8.5h-131q-14 0 -21.5 8t-5.5 23zM412 801q0 -10 10 -10h330q113 0 187.5 77.5t74.5 196.5q0 92 -55.5 146.5t-149.5 54.5h-330q-10 -1 -10 -11z" />
<glyph unicode="S" horiz-adv-x="1167" d="M102 332q0 14 4 51l7 49q2 14 11 22.5t21 8.5h127q14 0 21.5 -8.5t5.5 -22.5l-4 -39q-2 -8 -2 -26q0 -94 78 -153.5t215 -59.5q145 0 224 67.5t79 173.5q0 78 -67.5 129t-239.5 127q-129 55 -204 97.5t-124 109t-49 164.5q0 131 63.5 228.5t177 148.5t263.5 51 q205 0 324.5 -96.5t119.5 -257.5q0 -16 -4 -54l-4 -30q-2 -14 -10.5 -22.5t-22.5 -8.5h-129q-14 0 -21.5 7t-5.5 20l2 24q2 10 3 33q0 94 -74 154.5t-207 60.5q-135 0 -210 -61.5t-75 -171.5q0 -55 32 -94.5t92.5 -70t180.5 -79.5q125 -53 203 -97t129 -113t51 -169 q0 -16 -4 -49q-23 -176 -165 -283.5t-363 -107.5q-209 0 -329 94t-120 254z" />
<glyph unicode="T" horiz-adv-x="1140" d="M195 1292l14 111q2 14 10 22.5t23 8.5h932q14 0 21 -8.5t5 -22.5l-14 -111q-2 -14 -11.5 -22t-21.5 -8h-371q-10 0 -10 -11l-149 -1220q-6 -31 -35 -31h-131q-14 0 -21.5 8t-5.5 23l152 1220q0 10 -11 11h-350q-14 0 -21 8t-5 22z" />
<glyph unicode="U" horiz-adv-x="1273" d="M162 385q0 20 4 70l115 948q6 31 34 31h131q14 0 21.5 -8.5t5.5 -22.5l-119 -952q-2 -14 -2 -43q0 -115 72 -184.5t192 -69.5q133 0 225.5 81.5t108.5 215.5l117 952q2 14 10 22.5t23 8.5h131q14 0 21.5 -8.5t4.5 -22.5l-116 -948q-16 -139 -90 -247t-192 -166t-263 -58 q-201 0 -317.5 108.5t-116.5 292.5z" />
<glyph unicode="V" horiz-adv-x="1193" d="M199 1399v6q0 29 30 29h142q12 0 20 -7.5t10 -19.5l189 -1116q0 -8 5 -8t7 8l461 1116q10 27 37 27h137q25 0 25 -19l-5 -16l-593 -1374q-10 -25 -35 -25h-146q-28 0 -30 25z" />
<glyph unicode="W" horiz-adv-x="1726" d="M180 1399v8q0 27 27 27h143q25 0 29 -27l135 -1008q0 -6 5 -6t7 6l365 1008q10 27 37 27h139q25 0 29 -27l133 -1008q2 -6 6 -6t6 6l381 1008q10 27 37 27h133q14 0 20.5 -9.5t-0.5 -25.5l-524 -1372q-10 -27 -35 -27h-137q-25 0 -29 27l-126 1044q-2 6 -6.5 6t-6.5 -6 l-377 -1044q-10 -27 -34 -27h-129q-27 0 -31 27z" />
<glyph unicode="X" horiz-adv-x="1200" d="M37 16q0 10 8 21l483 674q2 4 2 12l-319 674q-2 6 -2 14q0 23 27 23h143q25 0 33 -21l250 -534q6 -12 12 0l381 534q14 20 39 21h141q23 0 22 -17q0 -10 -8 -20l-481 -676q-4 -8 -2 -12l317 -672q4 -12 4 -14q0 -23 -28 -23h-141q-25 0 -33 20l-250 533q-6 12 -12 0 l-381 -533q-14 -20 -39 -20h-144q-22 0 -22 16z" />
<glyph unicode="Y" horiz-adv-x="1161" d="M205 1407q0 27 28 27h142q25 0 33 -23l227 -588q6 -8 12 0l373 588q14 23 39 23h141q23 0 23 -19q0 -8 -6 -18l-502 -787q-2 -2 -4 -5t-2 -7l-70 -565q-2 -14 -10 -22.5t-23 -8.5h-131q-14 0 -21.5 8t-4.5 23l69 565q0 8 -2 12l-309 787q-2 4 -2 10z" />
<glyph unicode="Z" horiz-adv-x="1093" d="M45 31l16 127q2 20 17 37l819 1056q8 12 -4 13h-666q-14 0 -21 8t-5 22l12 109q6 31 35 31h862q14 0 21.5 -8.5t5.5 -22.5l-17 -127q-2 -20 -16 -37l-823 -1057q-8 -12 4 -12h669q14 0 21.5 -8t5.5 -23l-14 -108q-2 -14 -10.5 -22.5t-22.5 -8.5h-862q-15 0 -22 8t-5 23z " />
<glyph unicode="[" horiz-adv-x="780" d="M-4 -236l223 1811q2 14 11.5 22.5t21.5 8.5h397q14 0 21.5 -8.5t5.5 -22.5l-12 -111q-6 -31 -35 -30h-226q-12 0 -12 -11l-184 -1509q-4 -10 8 -10h227q14 0 21.5 -8.5t5.5 -22.5l-12 -109q-6 -31 -35 -30h-399q-15 0 -22 8t-5 22z" />
<glyph unicode="\" horiz-adv-x="770" d="M195 1399v8q0 27 26 27h129q29 0 31 -25l293 -1374v-8q0 -27 -29 -27h-129q-25 0 -31 25z" />
<glyph unicode="]" horiz-adv-x="780" d="M188 -236l13 109q2 14 11 22.5t24 8.5h227q8 0 12 10l184 1509q0 10 -8 11h-227q-14 0 -21.5 8t-5.5 22l15 111q2 14 11 22.5t23 8.5h398q12 0 19 -8.5t5 -22.5l-221 -1811q-2 -14 -11 -22t-24 -8h-399q-12 0 -19.5 8t-5.5 22z" />
<glyph unicode="^" horiz-adv-x="909" d="M121 641l4 16l371 752q12 25 39 25h112q27 0 33 -25l188 -752v-8q0 -27 -28 -26h-103q-25 0 -30 24l-136 574q-2 6 -6 6t-6 -6l-276 -574q-10 -25 -37 -24h-103q-22 0 -22 18z" />
<glyph unicode="_" horiz-adv-x="989" d="M14 31l11 92q2 14 11 22.5t23 8.5h830q14 0 21.5 -8.5t4.5 -22.5l-12 -92q-2 -14 -10 -22.5t-23 -8.5h-831q-12 0 -19.5 8t-5.5 23z" />
<glyph unicode="`" horiz-adv-x="430" d="M205 1417q0 10 7 16.5t20 6.5h122q27 0 35 -23l80 -200q2 -5 2 -15t-7 -16t-19 -6h-101q-27 0 -35 20l-102 203q-2 4 -2 14z" />
<glyph unicode="a" horiz-adv-x="1085" d="M117 387q0 55 10 137q16 147 59 248q59 135 164 211t252 76q70 0 126 -26.5t93 -78.5q4 -4 7 -3t6 7l6 54q2 14 11 22t21 8h132q14 0 21 -8t5 -22l-121 -981q-2 -14 -10 -22.5t-22 -8.5h-132q-14 0 -21 8t-5 23l6 53q2 6 -2 8t-8 -2q-49 -51 -112.5 -78.5t-131.5 -27.5 q-143 0 -229 72.5t-113 205.5q-12 59 -12 125zM309 424q0 -92 25 -158q43 -112 176 -112h2q111 0 186 110q60 90 80 258q6 59 6 105q0 98 -26 157q-45 104 -156 105q-115 0 -188 -98q-74 -96 -99 -271q-6 -51 -6 -96z" />
<glyph unicode="b" horiz-adv-x="1087" d="M104 31l170 1372q2 14 10.5 22.5t22.5 8.5h131q14 0 21.5 -8.5t5.5 -22.5l-55 -445q0 -12 12 -4q49 51 111.5 78t130.5 27q147 0 234 -76t112 -211q10 -57 10 -110q0 -59 -10 -138q-20 -160 -68 -262q-57 -133 -161.5 -205.5t-248.5 -72.5q-68 0 -124 27.5t-93 78.5 q-4 4 -8 2t-4 -8l-8 -53q-2 -14 -10.5 -22.5t-22.5 -8.5h-131q-14 0 -21.5 8t-5.5 23zM350 412q0 -88 25 -148q45 -110 155 -110h2q133 0 205 112q62 92 82 254q6 49 6 92q0 111 -37 179q-51 98 -163 98q-113 0 -183 -105q-63 -94 -84 -262q-8 -82 -8 -110z" />
<glyph unicode="c" horiz-adv-x="1044" d="M125 389q0 70 8 135q18 147 62 248q53 131 171.5 209t268.5 78t251 -78t120 -197q8 -27 8 -57q0 -14 -8.5 -22.5t-22.5 -10.5l-131 -18h-6q-20 0 -25 22l-4 27q-6 70 -61.5 117t-143.5 47t-151.5 -47t-91.5 -125q-25 -59 -43 -195q-8 -68 -9 -127q0 -29 5 -65 q10 -82 61 -129t139 -47q84 0 151.5 46t94.5 117l2 9l2 2q2 8 13.5 18t23.5 8l125 -22q29 -6 22 -33l-14 -39q-51 -125 -171 -200.5t-269 -75.5q-150 0 -247 78.5t-122 213.5q-8 47 -8 113z" />
<glyph unicode="d" horiz-adv-x="1087" d="M117 387q0 55 10 137q16 147 59 248q59 135 164 211t252 76q70 0 126 -26.5t93 -78.5q4 -4 7 -3t6 7l53 445q2 14 11 22.5t24 8.5h131q12 0 19 -8.5t5 -22.5l-168 -1372q-2 -14 -10 -22.5t-22 -8.5h-132q-14 0 -21 8t-5 23l6 53q2 6 -2 8t-8 -2q-49 -51 -112.5 -78.5 t-131.5 -27.5q-143 0 -229 72.5t-113 205.5q-12 59 -12 125zM309 424q0 -92 25 -158q43 -112 176 -112h2q111 0 186 110q60 90 80 258q6 59 6 105q0 98 -26 157q-45 104 -156 105q-115 0 -188 -98q-74 -96 -99 -271q-6 -51 -6 -96z" />
<glyph unicode="e" d="M129 408q0 57 6 118q10 78 21.5 130.5t29.5 97.5q53 141 170 223t271 82q195 0 281.5 -109.5t86.5 -316.5q0 -39 -8 -154q-6 -31 -35 -30h-626q-10 0 -11 -11q-4 -53 -4 -69q0 -20 4 -41q10 -82 70.5 -129t157.5 -47q80 2 142.5 34.5t102.5 94.5q12 18 27 18q6 0 16 -6 l74 -51q12 -8 13 -23q0 -8 -7 -20q-66 -100 -170 -157.5t-237 -57.5q-141 0 -229.5 64.5t-124.5 184.5q-20 74 -21 175zM338 612q-4 -10 8 -10h451q10 0 10 10q4 49 4 66q0 94 -54.5 152.5t-150.5 58.5q-86 0 -146.5 -43t-90.5 -119q-18 -45 -31 -115z" />
<glyph unicode="f" horiz-adv-x="729" d="M131 893l14 119q2 14 11.5 22t23.5 8h121q10 0 10 11l4 34q16 135 57.5 209t118 106t209.5 32h58q14 0 21 -8.5t5 -22.5l-14 -111q-2 -14 -10 -22t-23 -8h-39q-100 0 -140 -39t-52 -148l-4 -22q0 -10 10 -11h197q12 0 19 -8t5 -22l-14 -119q-2 -14 -10.5 -22.5 t-22.5 -8.5h-197q-8 0 -12 -10l-100 -821q-2 -14 -10.5 -22.5t-22.5 -8.5h-131q-14 0 -21.5 8t-5.5 23l101 821q4 10 -8 10h-121q-14 0 -21.5 8.5t-5.5 22.5z" />
<glyph unicode="g" horiz-adv-x="1079" d="M117 367q0 66 10 157q20 164 63 262q53 123 159 198t237 75q160 0 241 -101q2 -6 6.5 -4t6.5 9l6 49q2 14 10 22t23 8h131q14 0 21 -8t5 -22l-118 -959q-31 -246 -180.5 -353.5t-375.5 -107.5q-29 0 -90 5q-29 0 -24 32l20 121q2 14 11.5 22.5t23.5 6.5q27 -2 78 -2 q166 0 247 64.5t101 217.5l4 35q0 6 -4 7t-8 -3q-98 -98 -254 -98q-129 0 -225.5 69.5t-118.5 204.5q-6 43 -6 93zM311 395q0 -39 6 -61q10 -76 63.5 -124t135.5 -48q86 0 147.5 48t86.5 124q10 31 17 65.5t19 126.5q12 111 13 142q0 16 -4 49q-6 76 -55.5 124t-133.5 48 q-82 0 -144.5 -48t-94.5 -124q-33 -68 -45 -191q-10 -92 -11 -131z" />
<glyph unicode="h" horiz-adv-x="1077" d="M102 31l170 1372q2 14 10.5 22.5t22.5 8.5h131q14 0 21.5 -8.5t5.5 -22.5l-55 -449q-2 -6 2 -8t8 2q94 109 262 109q147 0 230 -81t83 -220q0 -18 -4 -60l-82 -665q-2 -14 -10 -22.5t-23 -8.5h-131q-14 0 -21 8t-5 23l78 626q2 12 2 37q0 86 -49.5 139.5t-135.5 53.5 q-88 0 -151.5 -52.5t-85.5 -140.5l-82 -663q-2 -14 -10.5 -22.5t-22.5 -8.5h-131q-14 0 -21.5 8t-5.5 23z" />
<glyph unicode="i" horiz-adv-x="497" d="M119 31l121 981q2 14 11 22t21 8h131q14 0 21.5 -8t5.5 -22l-121 -981q-2 -14 -10 -22.5t-23 -8.5h-131q-14 0 -21 8t-5 23zM242 1311q0 63 42 104t105 41q51 0 83 -29.5t32 -78.5q0 -63 -42 -106.5t-104 -43.5q-53 0 -84.5 31t-31.5 82z" />
<glyph unicode="j" horiz-adv-x="477" d="M-176 -393l14 106q4 31 35 31q106 2 160.5 49t66.5 148l131 1071q2 14 11.5 22t21.5 8h131q14 0 21.5 -8t5.5 -22l-131 -1069q-25 -199 -125 -283t-316 -84q-30 0 -26 31zM236 1307q0 59 44 102t101 43q49 0 83 -31.5t34 -79.5q0 -63 -42 -105t-106 -42q-53 0 -83.5 31.5 t-30.5 81.5z" />
<glyph unicode="k" horiz-adv-x="1017" d="M102 31l170 1372q2 14 10.5 22.5t22.5 8.5h131q14 0 21.5 -8.5t5.5 -22.5l-96 -774q0 -6 3 -8.5t9 4.5l409 401q16 16 39 16h154q23 0 23 -14q0 -10 -13 -22l-280 -293q-4 -4 -4 -15l215 -661q2 -4 2 -12q0 -25 -29 -25h-137q-27 0 -33 23l-162 548q-2 4 -7 5.5t-7 -3.5 l-211 -208q-4 -8 -4 -15l-41 -319q-2 -14 -10.5 -22.5t-22.5 -8.5h-131q-14 0 -21.5 8t-5.5 23z" />
<glyph unicode="l" horiz-adv-x="473" d="M104 31l170 1372q2 14 10.5 22.5t22.5 8.5h131q14 0 21.5 -8.5t5.5 -22.5l-170 -1372q-2 -14 -10.5 -22.5t-22.5 -8.5h-131q-14 0 -21.5 8t-5.5 23z" />
<glyph unicode="m" horiz-adv-x="1640" d="M102 31l121 981q2 14 11.5 22t23.5 8h131q12 0 19.5 -8t5.5 -22l-6 -56q-2 -6 2 -8t8 2q104 106 266 107q98 0 166 -40t98 -116q6 -8 15 0q55 80 138 118t179 38q135 0 211 -76t76 -213q0 -18 -4 -63l-82 -674q-6 -31 -35 -31h-129q-14 0 -21.5 8t-5.5 23l78 633 q2 14 2 43q0 84 -46 132t-128 48q-92 0 -156.5 -59.5t-76.5 -159.5l-78 -637q-6 -31 -35 -31h-129q-14 0 -21.5 8t-5.5 23l78 633q2 14 2 43q0 84 -46 132t-128 48q-92 0 -153.5 -59.5t-73.5 -159.5l-80 -637q-2 -14 -10.5 -22.5t-22.5 -8.5h-131q-14 0 -21.5 8t-5.5 23z " />
<glyph unicode="n" horiz-adv-x="1077" d="M102 31l121 981q2 14 11.5 22t23.5 8h131q12 0 19.5 -8t5.5 -22l-6 -58q-2 -6 2 -8t8 2q94 109 262 109q147 0 230 -81t83 -220q0 -18 -4 -60l-82 -665q-2 -14 -10 -22.5t-23 -8.5h-131q-14 0 -21 8t-5 23l78 626q2 12 2 37q0 86 -49.5 139.5t-135.5 53.5 q-88 0 -151.5 -52.5t-85.5 -140.5l-82 -663q-2 -14 -10.5 -22.5t-22.5 -8.5h-131q-14 0 -21.5 8t-5.5 23z" />
<glyph unicode="o" horiz-adv-x="1101" d="M127 412q0 57 6 112q20 150 66 246q59 135 178 212t270 77q143 0 239.5 -77t125.5 -210q12 -57 12 -131q0 -55 -6 -115q-16 -145 -66 -252q-61 -137 -178 -213.5t-262 -76.5q-150 0 -248 76.5t-125 213.5q-12 59 -12 138zM319 410q0 -35 5 -80q14 -82 69.5 -129 t138.5 -47q82 0 146.5 46t101.5 130q33 88 45 192q8 90 9 127q0 27 -5 64q-16 84 -70 130t-138 46q-82 0 -147.5 -46t-102.5 -130q-29 -70 -45 -191q-6 -57 -7 -112z" />
<glyph unicode="p" horiz-adv-x="1095" d="M68 -360l168 1372q2 14 11 22t21 8h131q14 0 21.5 -8t5.5 -22l-6 -54q-2 -6 2 -8t8 2q51 51 113.5 79t130.5 28q143 0 229 -73t113 -206q12 -57 12 -131q0 -68 -8 -131q-20 -152 -62 -248q-59 -135 -163.5 -210.5t-251.5 -75.5q-70 0 -125.5 26.5t-91.5 77.5q-4 4 -8.5 3 t-6.5 -7l-53 -444q-2 -14 -11 -22.5t-24 -8.5h-131q-12 0 -19 8t-5 23zM360 410q0 -88 27 -152q45 -104 156 -104q115 0 190 98q76 102 96 270q6 55 7 101q0 92 -25 153q-43 113 -178 113q-111 0 -187 -111q-59 -90 -77 -258q-8 -82 -9 -110z" />
<glyph unicode="q" horiz-adv-x="1095" d="M115 377q0 59 10 141q20 160 68 262q59 133 162.5 206t246.5 73q70 0 126 -27.5t91 -79.5q4 -4 8 -2t7 8l6 54q2 14 11 22t21 8h132q14 0 21 -8t5 -22l-168 -1372q-2 -14 -11 -22.5t-24 -8.5h-131q-12 0 -19 8t-5 23l53 444q2 6 -2 7t-8 -3q-49 -51 -112.5 -77.5 t-131.5 -26.5q-147 0 -234 75.5t-112 210.5q-10 55 -10 107zM311 426q0 -104 35 -174q51 -98 166 -98q111 0 180 104q64 90 84 262q8 57 8 117q0 84 -22 141q-49 111 -160 111q-133 0 -205 -113q-63 -98 -80 -254q-6 -51 -6 -96z" />
<glyph unicode="r" horiz-adv-x="737" d="M102 31l121 981q2 14 11.5 22t23.5 8h131q12 0 19.5 -8t5.5 -22l-11 -94q-2 -8 2.5 -9.5t8.5 4.5q102 139 258 140q59 0 104 -23q14 -8 15 -22q0 -4 -5 -17l-43 -133q-4 -20 -22 -20q-10 0 -16 2q-27 10 -66 10q-20 0 -31 -2q-92 -4 -160.5 -66.5t-80.5 -163.5l-74 -587 q-2 -14 -10.5 -22.5t-22.5 -8.5h-131q-14 0 -21.5 8t-5.5 23z" />
<glyph unicode="s" horiz-adv-x="968" d="M88 242q0 18 2 26l2 13q2 14 11.5 22t21.5 8h123q14 0 22.5 -4t5.5 -10l-2 -16q-1 -6 -1 -11q1 -50 51 -90q56 -44 145 -43q96 0 158.5 44t62.5 110q0 53 -48 80.5t-153 58.5q-104 31 -171.5 61.5t-114.5 86t-47 139.5q0 154 117.5 245t301.5 91q162 0 258.5 -73 t96.5 -189q0 -23 -2 -33q-2 -12 -11.5 -19.5t-21.5 -7.5h-121q-12 0 -20.5 4t-5.5 10l2 13q1 6 1 12q1 51 -47 87q-52 40 -149 40q-94 0 -153.5 -38t-59.5 -103q0 -53 49 -82t156 -62q106 -31 173.5 -59.5t116 -83.5t48.5 -141q0 -25 -2 -37q-18 -139 -135 -221t-295 -82 q-166 0 -265.5 71.5t-99.5 182.5z" />
<glyph unicode="t" horiz-adv-x="733" d="M135 911l12 101q2 14 11.5 22t23.5 8h109q8 0 12 11l27 229q2 14 11 22.5t24 8.5h122q14 0 20.5 -8.5t4.5 -22.5l-27 -229q-4 -10 9 -11h202q14 0 21.5 -8t5.5 -22l-12 -101q-2 -14 -11.5 -22t-23.5 -8h-203q-10 0 -10 -11l-66 -534q-2 -14 -2 -41q0 -66 33 -93.5 t104 -27.5h48q14 0 21 -8t5 -23l-14 -106q-4 -31 -33 -33l-82 -2q-137 0 -206.5 44t-69.5 161q0 16 4 57l76 606q0 10 -11 11h-108q-14 0 -21.5 8t-5.5 22z" />
<glyph unicode="u" d="M123 274q0 33 2 50l84 688q2 14 11 22t24 8h129q14 0 21 -8t5 -22l-77 -627q-2 -14 -3 -41q0 -88 47.5 -138t135.5 -50q100 0 166.5 62.5t79.5 166.5l77 627q2 14 11.5 22t21.5 8h131q12 0 19.5 -8t5.5 -22l-121 -981q-2 -14 -10.5 -22.5t-22.5 -8.5h-129q-14 0 -21.5 8 t-4.5 23l8 61q0 14 -13 4q-91 -110 -253 -110h-3q-137 0 -229 75.5t-92 212.5z" />
<glyph unicode="v" horiz-adv-x="974" d="M145 1008v8q0 27 29 26h148q12 0 20 -7t8 -19l127 -733q2 -8 6 -7.5t6 9.5l306 731q10 27 36 26l148 -2q14 0 19.5 -9t-1.5 -25l-436 -981q-10 -25 -37 -25h-151q-25 0 -31 25z" />
<glyph unicode="w" horiz-adv-x="1476" d="M143 1008v4q0 31 31 30h135q25 0 29 -26l94 -731q2 -6 6 -6t6 6l279 729q10 27 35 26h123q25 0 28 -26l105 -731q2 -6 6 -6.5t6 6.5l283 733q10 27 34 26l136 -2q16 0 22 -9t-2 -25l-401 -979q-10 -27 -37 -27h-139q-29 0 -31 27l-107 678q-2 6 -6 6t-6 -6l-264 -678 q-10 -27 -35 -27h-141q-29 0 -31 27z" />
<glyph unicode="x" horiz-adv-x="991" d="M18 14q0 8 11 23l379 477q4 6 0 12l-261 480q-6 10 -6 16q0 20 29 20h139q25 0 35 -20l182 -340q4 -4 8.5 -4t6.5 4l266 340q16 20 41 20h149q23 0 23 -14q0 -12 -8 -22l-379 -480q-2 -4 -2 -12l262 -477l4 -17q0 -20 -27 -20h-141q-25 0 -35 20l-182 340q-2 4 -6 4.5 t-8 -4.5l-267 -340q-16 -20 -41 -20h-149q-23 0 -23 14z" />
<glyph unicode="y" horiz-adv-x="946" d="M8 -379l15 105q4 31 14 30h12q80 0 128 18.5t84 69t77 150.5q2 4 0 12l-205 1002v6q0 29 29 28h139q25 0 31 -24l133 -737q2 -8 6 -8.5t6 8.5l307 735q10 27 37 26h140q23 0 22 -18q0 -10 -4 -16l-487 -1080q-63 -141 -116.5 -210.5t-131.5 -98.5t-211 -29h-15 q-4 0 -8 9.5t-2 21.5z" />
<glyph unicode="z" horiz-adv-x="894" d="M25 31l14 127q2 18 18 37l600 655q4 4 2 8t-8 4h-485q-14 0 -21.5 8.5t-5.5 22.5l15 119q2 14 11 22t23 8h697q14 0 21 -8t5 -22l-16 -127q-4 -27 -18 -39l-607 -656q-4 -4 -3 -8t7 -4h506q14 0 21.5 -8t5.5 -23l-14 -116q-2 -14 -11.5 -22.5t-21.5 -8.5h-711 q-12 0 -19 8t-5 23z" />
<glyph unicode="{" horiz-adv-x="653" d="M102 625l13 100q2 27 32 33q53 8 84 52t41 128l52 426q16 123 78.5 182.5t177.5 59.5h133q14 0 21 -8.5t5 -22.5l-12 -111q-6 -31 -35 -30h-57q-111 0 -129 -144l-45 -372q-12 -94 -44 -150.5t-89 -85.5q-10 -6 0 -12q78 -45 78 -172q0 -16 -5 -66l-47 -383 q-2 -14 -2 -39q0 -106 94 -106h58q14 0 21 -8.5t5 -22.5l-12 -109q-2 -14 -11 -22t-24 -8h-135q-198 0 -198 184q0 14 4 55l53 437q4 41 4 53q0 113 -84 129q-27 6 -25 33z" />
<glyph unicode="|" horiz-adv-x="356" d="M27 -133l204 1659q2 14 10.5 22t22.5 8h131q14 0 21.5 -8t5.5 -22l-205 -1659q-2 -14 -10 -22.5t-23 -8.5h-131q-14 0 -21 8.5t-5 22.5z" />
<glyph unicode="}" horiz-adv-x="653" d="M-2 -236l14 109q2 14 11.5 22.5t21.5 8.5h57q113 0 131 145l46 383q12 94 43.5 151.5t89.5 86.5q10 6 0 12q-78 43 -78 164q0 33 6 72l45 372q2 12 2 37q0 106 -96 107h-58q-14 0 -21 8t-5 22l14 111q2 14 11.5 22.5t21.5 8.5h135q100 0 149.5 -45t49.5 -140 q0 -16 -4 -57l-52 -426q-4 -37 -4 -53q0 -111 86 -127q25 -6 23 -33l-12 -100q-2 -27 -31 -33q-53 -10 -85 -54t-42 -128l-53 -437q-16 -123 -78 -181t-176 -58h-135q-14 0 -21.5 8t-5.5 22z" />
<glyph unicode="~" horiz-adv-x="1019" d="M104 559q0 8 7 21q43 74 117.5 118.5t156.5 44.5q51 0 88 -14t76 -39q10 -6 43 -26.5t63.5 -30.5t63.5 -10q39 0 67.5 18t61.5 55q12 12 24 13q10 0 19 -7l74 -53q12 -8 12 -22q0 -8 -6 -19q-45 -72 -115 -114.5t-147 -42.5q-56 0 -96 16t-89 49q-45 27 -78.5 41 t-74.5 14q-82 0 -148 -71q-12 -16 -24 -17q-8 0 -17 6l-65 48q-12 10 -13 22z" />
<glyph unicode="&#xa1;" horiz-adv-x="657" d="M199 53l129 897q2 15 10 23t22 8h99q12 0 19 -8t5 -23l-94 -897q-2 -14 -10 -22t-23 -8h-131q-14 0 -21 8t-5 22zM301 1294q0 63 48 109.5t114 46.5q55 0 92 -35t37 -88q0 -63 -50 -111.5t-114 -48.5q-53 0 -90 37t-37 90z" />
<glyph unicode="&#xa2;" horiz-adv-x="1044" d="M147 569q0 72 9 140q18 147 61 247q45 106 132 179t200 96q10 4 10 12l14 135q4 31 31 31h105q29 0 24 -31l-18 -127q-2 -8 8 -12q123 -16 206 -91t99 -179q8 -27 8 -58q0 -14 -8 -22t-22 -10l-132 -19h-6q-20 0 -24 23l-2 26q-8 70 -63.5 117t-143.5 47 q-86 0 -150.5 -47t-93.5 -125q-25 -59 -43 -194q-8 -68 -8 -127q0 -29 4 -66q10 -82 61.5 -129t139.5 -47q84 0 151.5 46t94.5 118l4 8v2q2 8 13 18.5t23 8.5l125 -23q29 -6 23 -33l-14 -39q-45 -111 -144.5 -183.5t-228.5 -88.5q-10 -4 -12 -12l-13 -127q-4 -31 -30 -31 h-105q-29 0 -24 31l20 135q0 10 -8 12q-106 25 -176 98.5t-88 182.5q-8 43 -9 108z" />
<glyph unicode="&#xa3;" horiz-adv-x="1210" d="M188 31l15 114q2 23 24 37q49 33 81 91.5t40 134.5l25 198q0 10 -8 10h-136q-14 0 -21 8.5t-5 22.5l12 98q2 14 10 22.5t23 8.5h135q8 0 12 10l29 246q25 197 151.5 307.5t319.5 110.5q139 0 224 -73.5t116 -207.5v-6q0 -25 -27 -30l-125 -23l-8 -2q-18 0 -24 25 q-18 76 -61.5 111.5t-115.5 35.5q-109 0 -176 -60.5t-82 -183.5l-30 -250q-4 -10 8 -10h364q12 0 19.5 -8t5.5 -23l-12 -98q-2 -14 -10.5 -22.5t-22.5 -8.5h-365q-4 0 -7 -3t-3 -7l-24 -194q-16 -141 -109 -230q-6 -4 -4 -8t8 -4h662q14 0 21 -8t5 -23l-14 -108 q-2 -14 -10 -22.5t-23 -8.5h-860q-14 0 -21.5 8t-5.5 23z" />
<glyph unicode="&#xa4;" horiz-adv-x="1073" d="M53 233q0 10 13 23l127 115q6 6 2 14q-43 80 -43 182q0 74 24.5 145.5t69.5 131.5q6 8 0 14l-105 125q-8 12 -8 18q0 10 14 25l86 70q14 10 23 10q10 0 20 -10l103 -119q2 -6 12 -2q111 66 227 65q123 0 216 -69q8 -6 14 0l139 125q10 10 23 10q10 0 18 -8l70 -72 q8 -8 8 -20q0 -10 -12 -23l-148 -133q-4 -4 -2 -14q35 -76 35 -162q0 -148 -94 -279q-4 -10 0 -14l108 -125q6 -8 6 -18q0 -12 -14 -25l-88 -72q-10 -10 -20 -10t-21 10l-102 121q-4 6 -15 2q-102 -66 -223 -65q-119 0 -203 59q-8 4 -14 -2l-127 -115q-14 -10 -22 -10 t-19 10l-70 72q-8 8 -8 20zM317 588q0 -92 63.5 -156.5t156.5 -64.5q72 0 135 38.5t102 103t39 140.5q0 94 -61.5 158.5t-153.5 64.5q-72 0 -136.5 -38.5t-104.5 -104t-40 -141.5z" />
<glyph unicode="&#xa5;" horiz-adv-x="1363" d="M297 332l6 53q2 14 11.5 22.5t23.5 8.5h254q10 0 10 10l19 141q0 10 -11 11h-254q-12 0 -19 8t-5 22l6 54q2 14 10 22t23 8h204q14 0 11 13l-273 692q-2 4 -2 12q0 10 7.5 17.5t19.5 7.5h141q27 0 33 -23l229 -588q4 -8 13 0l370 588q14 23 39 23h144q20 -1 20 -17 q0 -8 -6 -20l-442 -692q-6 -12 6 -13h200q14 0 21.5 -8t5.5 -22l-6 -54q-2 -14 -11.5 -22t-21.5 -8h-252q-10 0 -10 -11l-18 -141q0 -10 10 -10h250q14 0 21 -8.5t5 -22.5l-8 -53q-2 -14 -10 -22.5t-23 -8.5h-250q-8 0 -12 -10l-31 -258q-2 -14 -11 -22.5t-23 -8.5h-131 q-12 0 -19.5 8t-5.5 23l31 258q0 10 -8 10h-254q-14 0 -21.5 8t-5.5 23z" />
<glyph unicode="&#xa6;" horiz-adv-x="356" d="M27 -133l84 678q2 14 11 22t21 8h131q14 0 21.5 -8t5.5 -22l-84 -678q-2 -14 -10 -22.5t-23 -8.5h-131q-14 0 -21 8.5t-5 22.5zM147 848l84 678q2 14 10.5 22t22.5 8h131q14 0 21.5 -8t5.5 -22l-84 -678q-2 -14 -10.5 -22.5t-22.5 -8.5h-131q-14 0 -21.5 8.5t-5.5 22.5z " />
<glyph unicode="&#xa7;" horiz-adv-x="935" d="M68 -137q0 33 2 51l2 47q4 31 32 31h132q14 0 21 -7.5t5 -17.5l-2 -24q-2 -12 -2 -35q0 -76 39 -120t106 -44q80 0 135.5 61.5t55.5 147.5q0 53 -29.5 88t-72.5 55.5t-123 50.5q-90 35 -142.5 71t-81.5 97q-27 59 -26 134q0 72 21.5 136t60.5 111q61 82 159 113 q12 4 2 10q-70 35 -112.5 100.5t-42.5 151.5q0 98 53 185t145.5 139.5t204.5 52.5q143 0 229.5 -80t86.5 -213q0 -29 -2 -43l-4 -31q-2 -14 -11.5 -22t-21.5 -8h-131q-14 0 -21.5 6t-7.5 16l4 21q2 10 2 28q0 70 -40 114t-105 44q-80 0 -136.5 -62.5t-56.5 -146.5 q0 -72 55.5 -117t155.5 -77q74 -27 125 -55.5t88 -78.5q49 -68 49 -163q0 -141 -80 -254q-59 -92 -155 -117q-6 0 -7 -3t5 -5q154 -90 153 -250q0 -109 -55 -194t-149.5 -133t-206.5 -48q-146 0 -225.5 77t-79.5 210zM309 475q0 -47 19 -82q45 -78 139 -78q107 0 162 78 q45 61 45 154q0 57 -21 90q-51 68 -135 68q-49 0 -92 -25t-72 -66q-45 -61 -45 -139z" />
<glyph unicode="&#xa8;" horiz-adv-x="673" d="M172 1305q0 55 38 92t91 37q43 0 69 -27t26 -68q0 -57 -35 -95t-88 -38q-45 0 -73 27t-28 72zM523 1305q0 55 37.5 92t91.5 37q45 0 70.5 -26t25.5 -69q0 -57 -36 -95t-89 -38q-45 0 -72.5 27t-27.5 72z" />
<glyph unicode="&#xa9;" horiz-adv-x="1689" d="M168 616q0 51 6 103q25 207 138.5 374t288.5 262t380 95q188 0 332.5 -81t224.5 -224.5t80 -323.5q0 -49 -6 -102q-25 -209 -138.5 -377t-289.5 -263t-383 -95q-187 0 -331 80.5t-223 225t-79 326.5zM283 631q0 -156 66.5 -277t187 -188.5t278.5 -67.5q172 0 320.5 81 t244 222.5t117.5 317.5q6 43 6 86q0 154 -66.5 274.5t-188.5 188t-281 67.5q-172 0 -319.5 -79.5t-243 -221t-115.5 -315.5q-6 -45 -6 -88zM647 539q0 20 2 32l35 295q12 98 83 157.5t173 59.5q94 0 149.5 -49t55.5 -133q0 -18 -2 -29q-2 -8 -10.5 -13t-22.5 -5h-49 q-33 0 -29 10v10l2 19q0 43 -29.5 67.5t-76.5 24.5q-53 0 -89 -29.5t-42 -81.5l-39 -313q-6 -49 22.5 -79.5t81.5 -30.5t90 30.5t43 79.5q0 8 9.5 14.5t21.5 6.5h51q29 0 29 -9l-2 -10q-10 -94 -81 -152.5t-173 -58.5q-94 0 -148.5 50.5t-54.5 136.5z" />
<glyph unicode="&#xaa;" horiz-adv-x="647" d="M63 528l9 72q2 14 11 22.5t21 8.5h492q14 0 21.5 -8.5t5.5 -22.5l-11 -72q-2 -14 -10 -22t-22 -8h-492q-12 0 -19.5 8t-5.5 22zM113 903q0 117 83 185.5t218 68.5h139q8 0 12 10l4 39l2 23q0 55 -34.5 89t-98.5 34q-49 0 -89 -21.5t-58 -56.5q-14 -27 -37 -25l-49 6 q-31 4 -23 33q23 72 97.5 117t171.5 45q109 0 171 -54.5t62 -144.5q0 -20 -2 -30l-53 -439q-2 -14 -11.5 -22t-23.5 -8h-51q-12 0 -19.5 8t-5.5 22l2 23q0 14 -12 4q-74 -70 -195 -70q-90 0 -145 42t-55 122zM225 924q0 -90 119 -90q76 0 132 39.5t65 103.5l10 78 q0 10 -8 10h-125q-88 0 -140.5 -35t-52.5 -106z" />
<glyph unicode="&#xab;" horiz-adv-x="1050" d="M168 573q0 8 10 23l258 317q12 18 37 19h129q23 0 23 -17q0 -10 -9 -20l-256 -313q-6 -6 -2 -13l181 -313q4 -8 4 -14q0 -10 -8.5 -16.5t-20.5 -6.5h-127q-25 0 -35 19l-178 317q-6 10 -6 18zM494 571q0 14 8 25l258 317q16 18 39 19h127q23 0 22 -17q0 -10 -8 -20 l-256 -313q-6 -6 -2 -13l180 -313q4 -12 4 -14q0 -23 -28 -23h-127q-23 0 -35 19l-178 317q-4 6 -4 16z" />
<glyph unicode="&#xac;" horiz-adv-x="983" d="M100 578l15 108q2 14 10 22.5t22 8.5h785q14 0 21.5 -8.5t4.5 -22.5l-43 -348q-2 -14 -11 -22.5t-21 -8.5h-109q-12 0 -19 8.5t-5 22.5l22 199q4 10 -8 10h-637q-14 0 -21.5 8t-5.5 23z" />
<glyph unicode="&#xad;" horiz-adv-x="794" d="M100 571l13 109q2 14 11 22.5t23 8.5h594q12 0 19.5 -8.5t5.5 -22.5l-12 -109q-2 -14 -11.5 -22t-21.5 -8h-594q-14 0 -21.5 8t-5.5 22z" />
<glyph unicode="&#xae;" horiz-adv-x="892" d="M135 1006q0 121 61.5 225t165 165.5t222.5 61.5q102 0 182 -45t125 -123t45 -176q0 -127 -61.5 -233.5t-165 -168t-224.5 -61.5q-100 0 -180 46t-125 127t-45 182zM225 1016q0 -121 76 -200t195 -79q92 0 174 48.5t131 131t49 183.5q0 119 -77 195.5t-200 76.5 q-92 0 -171.5 -48t-128 -130t-48.5 -178zM410 901l36 309q2 14 11.5 22.5t21.5 8.5h103q45 0 69.5 -26.5t24.5 -71.5q-1 -74 -62 -109q-8 -4 -6 -12l29 -117q2 -4 2 -10q0 -25 -29 -25h-16q-25 0 -31 25l-28 119q-4 8 -11 8h-18q-12 0 -12 -10l-15 -111q-2 -14 -10 -22.5 t-23 -8.5h-12q-12 0 -19 8.5t-5 22.5zM504 1087q-4 -10 8 -10h39q20 0 34.5 13.5t18.5 35.5v7q0 45 -41 45h-39q-8 -1 -12 -11z" />
<glyph unicode="&#xaf;" horiz-adv-x="552" d="M113 1235l8 76q2 14 11 22t24 8h491q14 0 21.5 -8t5.5 -22l-10 -76q-2 -14 -10.5 -22.5t-22.5 -8.5h-494q-12 0 -19 8.5t-5 22.5z" />
<glyph unicode="&#xb0;" horiz-adv-x="753" d="M170 1278q0 100 51 187t136 138.5t182 51.5q127 0 207.5 -83t80.5 -208q0 -102 -51 -189.5t-136 -138.5t-183 -51q-125 0 -206 83t-81 210zM301 1294q0 -76 49 -125t123 -49q90 0 156.5 67.5t66.5 162.5q0 76 -49 125t-125 49q-57 0 -108.5 -31t-82 -84t-30.5 -115z" />
<glyph unicode="&#xb1;" horiz-adv-x="983" d="M100 31l15 108q2 14 10 22.5t22 8.5h785q14 0 21.5 -8.5t4.5 -22.5l-14 -108q-2 -14 -10 -22.5t-23 -8.5h-784q-14 0 -21.5 8t-5.5 23zM100 699l15 108q2 14 10 22.5t22 8.5h302q4 0 7 3t3 7l39 315q2 14 11 22.5t21 8.5h107q12 0 19.5 -8t5.5 -23l-37 -315q-4 -10 8 -10 h299q14 0 21.5 -8.5t4.5 -22.5l-14 -108q-2 -14 -10 -22.5t-23 -8.5h-299q-12 0 -12 -10l-37 -304q-2 -14 -11 -22t-22 -8h-106q-14 0 -21.5 8t-5.5 22l39 304q0 10 -10 10h-299q-14 0 -21.5 8t-5.5 23z" />
<glyph unicode="&#xb2;" horiz-adv-x="659" d="M31 918l8 61q2 20 18 39q182 180 297 301q135 141 135 221q0 45 -30.5 73t-83.5 28q-57 0 -96 -33t-46 -88l-2 -17q-2 -14 -11 -22t-23 -8h-72q-12 0 -19.5 8t-5.5 22l4 37q16 98 95.5 157.5t189.5 59.5q109 0 170.5 -56t61.5 -144q0 -61 -33 -127t-103 -142 q-66 -76 -221 -235l-39 -39q-4 -4 -3 -8t7 -4h318q14 0 21 -8.5t5 -22.5l-8 -53q-2 -14 -10 -22.5t-23 -8.5h-475q-14 0 -21 8t-5 23z" />
<glyph unicode="&#xb3;" horiz-adv-x="641" d="M53 1125q0 14 9.5 22t21.5 8h72q29 0 28 -30l-2 -21q0 -8 4 -24q4 -41 33 -66t74 -25q74 0 113 64q31 43 36 106q2 14 2 41q0 45 -12 76q-25 61 -98 62q-20 0 -37 -9l-16 -4q-16 0 -25 15l-25 39q-6 10 -6 18q0 12 13 25l208 194q6 4 4.5 8t-8.5 4h-288q-12 0 -19.5 8.5 t-5.5 22.5l6 53q2 14 11.5 22.5t21.5 8.5h438q12 0 19.5 -8t5.5 -23l-6 -61q-4 -25 -19 -39l-186 -178q-4 -4 -2 -8t8 -7q102 -14 135 -114q14 -37 14 -92q0 -16 -4 -58q-8 -78 -45 -141q-37 -66 -102.5 -103.5t-144.5 -37.5q-88 0 -146.5 47t-75.5 125q-8 31 -4 80z" />
<glyph unicode="&#xb4;" horiz-adv-x="430" d="M172 1196q0 8 6 21l129 200q14 23 39 23h123q25 0 25 -17q0 -4 -8 -20l-154 -203q-12 -20 -37 -20h-102q-21 0 -21 16z" />
<glyph unicode="&#xb5;" horiz-adv-x="1089" d="M53 -379l80 655v9q0 10 4 39l84 688q2 14 11.5 22t23.5 8h133q12 0 19.5 -8t5.5 -22l-82 -674q0 -2 -1 -5t1 -7q4 -80 51 -125t131 -45q100 0 167 62.5t79 166.5l78 627q2 14 11 22t21 8h129q14 0 21.5 -8t5.5 -22l-121 -981q-2 -14 -10 -22.5t-23 -8.5h-129q-14 0 -21 8 t-5 23l8 61q0 6 -4 7t-8 -3q-94 -111 -256 -110q-88 0 -154 28q-4 2 -8 -1t-4 -7l-47 -385q-2 -14 -11.5 -22.5t-21.5 -8.5h-133q-12 0 -19.5 8.5t-5.5 22.5z" />
<glyph unicode="&#xb6;" horiz-adv-x="1179" d="M139 909q0 18 4 64q16 131 87 235.5t181.5 165t243.5 60.5h478q12 0 19 -8.5t5 -22.5l-219 -1782q-2 -14 -10 -22.5t-23 -8.5h-84q-12 0 -19 8.5t-5 22.5l202 1659q0 10 -8 10h-231q-10 0 -10 -10l-205 -1659q-2 -14 -10.5 -22.5t-22.5 -8.5h-86q-12 0 -19.5 8.5 t-5.5 22.5l107 881q4 10 -8 10q-162 12 -261.5 121.5t-99.5 275.5z" />
<glyph unicode="&#xb7;" horiz-adv-x="288" d="M-54 127q0 63 51.5 109.5t110.5 46.5q51 0 90 -36t39 -87q0 -66 -49 -113t-115 -47q-57 0 -92 36t-35 91z" />
<glyph unicode="&#xb8;" horiz-adv-x="299" d="M-78 -336l15 47q8 29 38 23q20 -4 33 -4q41 0 69.5 25.5t28.5 72.5q0 66 -69 135q-10 14 -10 21q0 16 26 16h58q20 0 34 -14q90 -84 91 -176q0 -37 -13 -70q-25 -68 -78 -96.5t-116 -28.5q-51 0 -88 12q-25 6 -19 37z" />
<glyph unicode="&#xb9;" horiz-adv-x="372" d="M121 1643l4 37q4 27 29 36l55 23q19 8 39 8h80q14 0 21 -8t5 -23l-98 -798q-2 -14 -11 -22.5t-22 -8.5h-69q-14 0 -21.5 8t-5.5 23l86 696q0 12 -10 10l-53 -10h-9q-25 0 -20 29z" />
<glyph unicode="&#xba;" horiz-adv-x="710" d="M80 526l10 78q2 14 11.5 22.5t21.5 8.5h543q14 0 21 -8.5t5 -22.5l-10 -78q-2 -14 -10 -22t-23 -8h-543q-14 0 -21 8t-5 22zM164 1026q0 39 6 76q10 90 41 160q41 90 114.5 139t168.5 49q88 0 148 -49t81 -137q8 -33 8 -80q0 -39 -6 -80q-10 -90 -41 -162 q-41 -90 -114.5 -140t-163.5 -50q-91 0 -150 50t-82 140q-10 41 -10 84zM291 1038q0 -31 4 -63q6 -51 40 -82t85 -31q47 0 89 31t62 82t31 127q6 43 6 80q0 72 -34.5 114.5t-96.5 42.5q-49 0 -89 -29.5t-62 -82.5q-25 -53 -31 -125q-4 -45 -4 -64z" />
<glyph unicode="&#xbb;" horiz-adv-x="1050" d="M172 236q0 10 8 20l258 313q4 6 0 13l-180 313q-4 8 -4 14q0 10 8 16.5t21 6.5h127q27 0 34 -19l179 -317q6 -8 6 -18q0 -8 -11 -23l-258 -317q-12 -18 -36 -19h-127q-25 1 -25 17zM506 236q0 10 8 20l258 313q4 6 0 13l-180 313q-4 8 -4 14q0 10 8 16.5t21 6.5h127 q27 0 34 -19l179 -317q6 -8 6 -18q0 -8 -11 -23l-258 -317q-12 -18 -36 -19h-127q-25 1 -25 17z" />
<glyph unicode="&#xbc;" horiz-adv-x="1597" d="M121 1329l4 37q4 27 29 36l55 23q19 8 39 8h80q14 0 21 -8t5 -23l-98 -798q-2 -14 -11 -22.5t-22 -8.5h-69q-14 0 -21.5 8t-5.5 23l86 696q0 12 -10 10l-53 -10h-9q-25 0 -20 29zM187 16q0 4 8 21l987 1376q12 20 37 21h78q25 0 24 -17q0 -4 -8 -20l-985 -1377 q-12 -20 -37 -20h-80q-24 0 -24 16zM973 256l6 49q2 16 12 39l281 494q10 23 37 22h71q25 0 25 -18q0 -8 -6 -19l-260 -465q-4 -12 4 -12h213q10 0 10 10l21 154q2 14 10 22.5t22 8.5h72q14 0 21.5 -8.5t5.5 -22.5l-19 -154q-4 -10 8 -10h27q14 0 21.5 -8t5.5 -23l-9 -59 q-2 -14 -10 -22.5t-22 -8.5h-29q-4 0 -7 -3t-3 -7l-23 -184q-2 -14 -11 -22.5t-21 -8.5h-72q-14 0 -21.5 8t-5.5 23l23 184q0 10 -8 10h-342q-14 0 -21.5 8.5t-5.5 22.5z" />
<glyph unicode="&#xbd;" horiz-adv-x="1564" d="M121 1329l4 37q4 27 29 36l55 23q19 8 39 8h80q14 0 21 -8t5 -23l-98 -798q-2 -14 -11 -22.5t-22 -8.5h-69q-14 0 -21.5 8t-5.5 23l86 696q0 12 -10 10l-53 -10h-9q-25 0 -20 29zM187 16q0 4 8 21l987 1376q12 20 37 21h78q25 0 24 -17q0 -4 -8 -20l-985 -1377 q-12 -20 -37 -20h-80q-24 0 -24 16zM965 31l8 61q2 20 18 39q182 180 297 301q135 141 135 221q0 45 -30.5 73t-83.5 28q-57 0 -96 -33t-46 -88l-2 -17q-2 -14 -11 -22t-23 -8h-72q-12 0 -19.5 8t-5.5 22l4 37q16 98 95.5 157.5t189.5 59.5q109 0 170.5 -56t61.5 -144 q0 -61 -33 -127t-103 -142q-66 -76 -221 -235l-39 -39q-4 -4 -3 -8t7 -4h318q14 0 21 -8.5t5 -22.5l-8 -53q-2 -14 -10 -22.5t-23 -8.5h-475q-14 0 -21 8t-5 23z" />
<glyph unicode="&#xbe;" horiz-adv-x="1789" d="M53 826q0 14 9.5 22t21.5 8h72q29 0 28 -30l-2 -21q0 -8 4 -24q4 -41 33 -66t74 -25q74 0 113 64q31 43 36 106q2 14 2 41q0 45 -12 76q-25 61 -98 62q-20 0 -37 -9l-16 -4q-16 0 -25 15l-25 39q-6 10 -6 18q0 12 13 25l208 194q6 4 4.5 8t-8.5 4h-288q-12 0 -19.5 8.5 t-5.5 22.5l6 53q2 14 11.5 22.5t21.5 8.5h438q12 0 19.5 -8t5.5 -23l-6 -61q-4 -25 -19 -39l-186 -178q-4 -4 -2 -8t8 -7q102 -14 135 -114q14 -37 14 -92q0 -16 -4 -58q-8 -78 -45 -141q-37 -66 -102.5 -103.5t-144.5 -37.5q-88 0 -146.5 47t-75.5 125q-8 31 -4 80zM386 16 q0 4 8 21l987 1376q12 20 37 21h78q25 0 24 -17q0 -4 -8 -20l-985 -1377q-12 -20 -37 -20h-80q-24 0 -24 16zM1172 256l6 49q2 16 12 39l281 494q10 23 37 22h71q25 0 25 -18q0 -8 -6 -19l-260 -465q-4 -12 4 -12h213q10 0 10 10l21 154q2 14 10 22.5t22 8.5h72 q14 0 21.5 -8.5t5.5 -22.5l-19 -154q-4 -10 8 -10h27q14 0 21.5 -8t5.5 -23l-9 -59q-2 -14 -10 -22.5t-22 -8.5h-29q-4 0 -7 -3t-3 -7l-23 -184q-2 -14 -11 -22.5t-21 -8.5h-72q-14 0 -21.5 8t-5.5 23l23 184q0 10 -8 10h-342q-14 0 -21.5 8.5t-5.5 22.5z" />
<glyph unicode="&#xbf;" horiz-adv-x="958" d="M23 -109q0 16 4 54q12 90 50 155.5t84 106.5t118 92q76 51 113.5 91t43.5 95l10 82q2 14 11.5 22.5t23.5 8.5h133q13 0 20 -8t5 -23l-10 -92q-10 -92 -63.5 -151.5t-149.5 -126.5q-66 -45 -105 -80t-65.5 -84t-26.5 -115q0 -78 51.5 -123t137.5 -45q98 0 164.5 57.5 t76.5 147.5l6 43q2 14 11.5 21.5t21.5 7.5l131 -4q14 0 21.5 -9.5t5.5 -23.5l-4 -35q-20 -172 -148.5 -277.5t-312.5 -105.5q-166 0 -262 87t-96 232zM436 874q0 59 47 103.5t107 44.5q51 0 86 -33t35 -82q0 -61 -46.5 -106t-107.5 -45q-51 0 -86 33.5t-35 84.5z" />
<glyph unicode="&#xc0;" horiz-adv-x="1251" d="M31 18l4 17l598 1374q10 25 37 25h182q25 0 31 -25l264 -1374v-8q0 -27 -29 -27h-143q-25 0 -31 25l-41 229q0 2 -2 5t-6 3h-555q-6 0 -10 -8l-99 -229q-10 -25 -36 -25h-142q-23 0 -22 18zM403 430q-5 -12 7 -12h454q12 0 8 12l-135 764q-2 8 -6 8t-6 -8zM543 1808 q0 10 7 16.5t20 6.5h122q27 0 35 -23l80 -200q2 -5 2 -15t-7 -16t-19 -6h-101q-27 0 -35 20l-102 203q-2 4 -2 14z" />
<glyph unicode="&#xc1;" horiz-adv-x="1251" d="M31 18l4 17l598 1374q10 25 37 25h182q25 0 31 -25l264 -1374v-8q0 -27 -29 -27h-143q-25 0 -31 25l-41 229q0 2 -2 5t-6 3h-555q-6 0 -10 -8l-99 -229q-10 -25 -36 -25h-142q-23 0 -22 18zM403 430q-5 -12 7 -12h454q12 0 8 12l-135 764q-2 8 -6 8t-6 -8zM647 1587 q0 8 6 21l129 200q14 23 39 23h123q25 0 25 -17q0 -4 -8 -20l-154 -203q-12 -20 -37 -20h-102q-21 0 -21 16z" />
<glyph unicode="&#xc2;" horiz-adv-x="1251" d="M31 18l4 17l598 1374q10 25 37 25h182q25 0 31 -25l264 -1374v-8q0 -27 -29 -27h-143q-25 0 -31 25l-41 229q0 2 -2 5t-6 3h-555q-6 0 -10 -8l-99 -229q-10 -25 -36 -25h-142q-23 0 -22 18zM403 430q-5 -12 7 -12h454q12 0 8 12l-135 764q-2 8 -6 8t-6 -8zM477 1575 q0 10 8 20l172 205q16 18 39 18h137q23 0 33 -18l125 -205q4 -12 4 -14q0 -23 -27 -23h-90q-27 0 -35 19l-82 147q-2 4 -6 4t-8 -4l-119 -147q-16 -18 -36 -19h-93q-22 1 -22 17z" />
<glyph unicode="&#xc3;" horiz-adv-x="1251" d="M31 18l4 17l598 1374q10 25 37 25h182q25 0 31 -25l264 -1374v-8q0 -27 -29 -27h-143q-25 0 -31 25l-41 229q0 2 -2 5t-6 3h-555q-6 0 -10 -8l-99 -229q-10 -25 -36 -25h-142q-23 0 -22 18zM403 430q-5 -12 7 -12h454q12 0 8 12l-135 764q-2 8 -6 8t-6 -8zM490 1675 q0 10 6 23q35 57 82 84.5t98 27.5q33 0 57.5 -11t61.5 -36q55 -39 90 -39q51 0 90 45q12 16 27 17q8 0 16 -6l35 -29q10 -6 10 -21q0 -16 -14 -36q-39 -51 -87 -78t-91 -27q-35 0 -61.5 13.5t-57.5 37.5q-25 20 -42 28.5t-38 8.5q-29 0 -49.5 -9t-42.5 -34q-12 -14 -25 -14 q-8 0 -18 6l-37 29q-10 10 -10 20z" />
<glyph unicode="&#xc4;" horiz-adv-x="1251" d="M31 18l4 17l598 1374q10 25 37 25h182q25 0 31 -25l264 -1374v-8q0 -27 -29 -27h-143q-25 0 -31 25l-41 229q0 2 -2 5t-6 3h-555q-6 0 -10 -8l-99 -229q-10 -25 -36 -25h-142q-23 0 -22 18zM403 430q-5 -12 7 -12h454q12 0 8 12l-135 764q-2 8 -6 8t-6 -8zM467 1696 q0 55 38 92t91 37q43 0 69 -27t26 -68q0 -57 -35 -95t-88 -38q-45 0 -73 27t-28 72zM818 1696q0 55 37.5 92t91.5 37q45 0 70.5 -26t25.5 -69q0 -57 -36 -95t-89 -38q-45 0 -72.5 27t-27.5 72z" />
<glyph unicode="&#xc5;" horiz-adv-x="1251" d="M31 18l4 17l598 1374q10 25 37 25h182q25 0 31 -25l264 -1374v-8q0 -27 -29 -27h-143q-25 0 -31 25l-41 229q0 2 -2 5t-6 3h-555q-6 0 -10 -8l-99 -229q-10 -25 -36 -25h-142q-23 0 -22 18zM403 430q-5 -12 7 -12h454q12 0 8 12l-135 764q-2 8 -6 8t-6 -8zM549 1741 q0 63 34 118.5t90 89t118 33.5q82 0 135 -54t53 -134q0 -66 -33.5 -122t-89 -89t-118.5 -33q-82 0 -135.5 53.5t-53.5 137.5zM649 1751q0 -45 28 -75t73 -30q53 0 92 40t39 98q0 45 -28.5 73.5t-74.5 28.5q-51 0 -90 -40t-39 -95z" />
<glyph unicode="&#xc6;" horiz-adv-x="1857" d="M35 18q0 10 6 19l860 1374q12 23 37 23h924q14 0 21 -8.5t5 -22.5l-12 -109q-2 -14 -11.5 -22t-23.5 -8h-651q-10 0 -10 -11l-54 -436q-4 -10 9 -10h430q14 0 21 -8t5 -23l-14 -108q-2 -14 -10 -22.5t-23 -8.5h-430q-12 0 -12 -10l-55 -447q0 -10 10 -10h651 q12 0 19.5 -8t5.5 -23l-13 -108q-2 -14 -11 -22.5t-21 -8.5h-824q-14 0 -21 8t-5 23l28 221q0 10 -10 10h-457q-10 0 -12 -8l-143 -231q-14 -23 -39 -23h-148q-23 0 -22 18zM496 430q-6 -12 6 -12h375q10 0 10 10l94 762q0 8 -4 9t-8 -7z" />
<glyph unicode="&#xc7;" horiz-adv-x="1206" d="M137 383q0 20 4 70l66 530q16 139 90 244.5t190.5 164t260.5 58.5q199 0 315.5 -104.5t116.5 -282.5q0 -20 -4 -66l-2 -10q0 -10 -31 -14l-133 -8h-6q-10 0 -16.5 4t-4.5 8v12q4 33 4 47q0 111 -70.5 177.5t-189.5 66.5q-131 0 -222 -80t-108 -211l-67 -545 q-2 -14 -2 -43q0 -113 69.5 -180t192.5 -67q131 0 221 79.5t107 210.5q0 10 9 17.5t23 5.5l129 -8q29 -4 29 -10l-2 -11q-23 -195 -161 -319.5t-343 -136.5q-6 0 -8 -4.5t2 -8.5q68 -74 68 -155q0 -37 -13 -70q-27 -68 -78 -96.5t-114 -28.5q-51 0 -88 12q-25 6 -19 37 l15 47q8 29 39 23q20 -4 32 -4q33 0 56.5 16.5t33.5 46.5q6 18 7 37q0 74 -95 158q-4 4 -7 5t-5 1q-137 35 -214 135t-77 250z" />
<glyph unicode="&#xc8;" horiz-adv-x="1187" d="M127 31l168 1372q2 14 11 22.5t24 8.5h864q12 0 19.5 -8.5t5.5 -22.5l-13 -109q-2 -14 -11 -22t-24 -8h-692q-8 0 -12 -11l-53 -436q0 -10 8 -10h473q14 0 21.5 -8t5.5 -23l-13 -108q-6 -31 -35 -31h-473q-10 0 -10 -10l-55 -447q0 -10 8 -10h694q14 0 21.5 -8t5.5 -23 l-14 -108q-2 -14 -11.5 -22.5t-21.5 -8.5h-864q-14 0 -21.5 8t-5.5 23zM539 1831q0 10 7 16.5t20 6.5h122q27 0 35 -23l80 -200q2 -5 2 -15t-7 -16t-19 -6h-101q-27 0 -35 20l-102 203q-2 4 -2 14z" />
<glyph unicode="&#xc9;" horiz-adv-x="1187" d="M127 31l168 1372q2 14 11 22.5t24 8.5h864q12 0 19.5 -8.5t5.5 -22.5l-13 -109q-2 -14 -11 -22t-24 -8h-692q-8 0 -12 -11l-53 -436q0 -10 8 -10h473q14 0 21.5 -8t5.5 -23l-13 -108q-6 -31 -35 -31h-473q-10 0 -10 -10l-55 -447q0 -10 8 -10h694q14 0 21.5 -8t5.5 -23 l-14 -108q-2 -14 -11.5 -22.5t-21.5 -8.5h-864q-14 0 -21.5 8t-5.5 23zM643 1610q0 8 6 21l129 200q14 23 39 23h123q25 0 25 -17q0 -4 -8 -20l-154 -203q-12 -20 -37 -20h-102q-21 0 -21 16z" />
<glyph unicode="&#xca;" horiz-adv-x="1187" d="M127 31l168 1372q2 14 11 22.5t24 8.5h864q12 0 19.5 -8.5t5.5 -22.5l-13 -109q-2 -14 -11 -22t-24 -8h-692q-8 0 -12 -11l-53 -436q0 -10 8 -10h473q14 0 21.5 -8t5.5 -23l-13 -108q-6 -31 -35 -31h-473q-10 0 -10 -10l-55 -447q0 -10 8 -10h694q14 0 21.5 -8t5.5 -23 l-14 -108q-2 -14 -11.5 -22.5t-21.5 -8.5h-864q-14 0 -21.5 8t-5.5 23zM473 1598q0 10 8 20l172 205q16 18 39 18h137q23 0 33 -18l125 -205q4 -12 4 -14q0 -23 -27 -23h-90q-27 0 -35 19l-82 147q-2 4 -6 4t-8 -4l-119 -147q-16 -18 -36 -19h-93q-22 1 -22 17z" />
<glyph unicode="&#xcb;" horiz-adv-x="1187" d="M127 31l168 1372q2 14 11 22.5t24 8.5h864q12 0 19.5 -8.5t5.5 -22.5l-13 -109q-2 -14 -11 -22t-24 -8h-692q-8 0 -12 -11l-53 -436q0 -10 8 -10h473q14 0 21.5 -8t5.5 -23l-13 -108q-6 -31 -35 -31h-473q-10 0 -10 -10l-55 -447q0 -10 8 -10h694q14 0 21.5 -8t5.5 -23 l-14 -108q-2 -14 -11.5 -22.5t-21.5 -8.5h-864q-14 0 -21.5 8t-5.5 23zM462 1719q0 55 38 92t91 37q43 0 69 -27t26 -68q0 -57 -35 -95t-88 -38q-45 0 -73 27t-28 72zM813 1719q0 55 37.5 92t91.5 37q45 0 70.5 -26t25.5 -69q0 -57 -36 -95t-89 -38q-45 0 -72.5 27t-27.5 72 z" />
<glyph unicode="&#xcc;" horiz-adv-x="516" d="M127 31l168 1372q2 14 11 22.5t24 8.5h131q12 0 19 -8.5t5 -22.5l-168 -1372q-2 -14 -11 -22.5t-21 -8.5h-131q-15 0 -22 8t-5 23zM168 1831q0 10 7 16.5t20 6.5h122q27 0 35 -23l80 -200q2 -5 2 -15t-7 -16t-19 -6h-101q-27 0 -35 20l-102 203q-2 4 -2 14z" />
<glyph unicode="&#xcd;" horiz-adv-x="516" d="M127 31l168 1372q2 14 11 22.5t24 8.5h131q12 0 19 -8.5t5 -22.5l-168 -1372q-2 -14 -11 -22.5t-21 -8.5h-131q-15 0 -22 8t-5 23zM272 1610q0 8 6 21l129 200q14 23 39 23h123q25 0 25 -17q0 -4 -8 -20l-154 -203q-12 -20 -37 -20h-102q-21 0 -21 16z" />
<glyph unicode="&#xce;" horiz-adv-x="516" d="M103 1598q0 10 8 20l172 205q16 18 39 18h137q23 0 33 -18l125 -205q4 -12 4 -14q0 -23 -27 -23h-90q-27 0 -35 19l-82 147q-2 4 -6 4t-8 -4l-119 -147q-16 -18 -36 -19h-93q-22 1 -22 17zM127 31l168 1372q2 14 11 22.5t24 8.5h131q12 0 19 -8.5t5 -22.5l-168 -1372 q-2 -14 -11 -22.5t-21 -8.5h-131q-15 0 -22 8t-5 23z" />
<glyph unicode="&#xcf;" horiz-adv-x="516" d="M92 1719q0 55 38 92t91 37q43 0 69 -27t26 -68q0 -57 -35 -95t-88 -38q-45 0 -73 27t-28 72zM127 31l168 1372q2 14 11 22.5t24 8.5h131q12 0 19 -8.5t5 -22.5l-168 -1372q-2 -14 -11 -22.5t-21 -8.5h-131q-15 0 -22 8t-5 23zM443 1719q0 55 37.5 92t91.5 37 q45 0 70.5 -26t25.5 -69q0 -57 -36 -95t-89 -38q-45 0 -72.5 27t-27.5 72z" />
<glyph unicode="&#xd0;" horiz-adv-x="1347" d="M209 705l10 77q2 14 11.5 22.5t21.5 8.5h80q8 0 12 10l70 580q6 31 35 31h471q190 0 297.5 -93.5t107.5 -255.5q0 -20 -4 -61l-76 -614q-20 -186 -157.5 -298t-344.5 -112h-471q-14 0 -21 8t-5 23l78 633q0 10 -9 10h-79q-14 0 -21.5 8t-5.5 23zM455 180q0 -10 10 -10 h307q117 0 193.5 72.5t93.5 195.5l67 557q2 16 2 47q0 104 -58 163t-165 59h-307q-10 0 -10 -11l-53 -430q-4 -10 8 -10h198q14 0 21.5 -8t5.5 -23l-10 -77q-2 -14 -11.5 -22.5t-21.5 -8.5h-199q-8 0 -12 -10z" />
<glyph unicode="&#xd1;" horiz-adv-x="1327" d="M127 31l168 1372q2 14 11 22.5t24 8.5h127q25 0 32 -21l484 -1014q2 -6 6 -5t6 9l123 1000q2 14 11 22.5t22 8.5h131q14 0 21 -8.5t5 -22.5l-168 -1372q-2 -14 -11 -22.5t-23 -8.5h-129q-25 0 -33 20l-483 1020q-2 6 -6.5 5t-6.5 -9l-121 -1005q-2 -14 -11 -22.5 t-21 -8.5h-131q-15 0 -22 8t-5 23zM525 1700q0 10 6 23q35 57 82 84.5t98 27.5q33 0 57.5 -11t61.5 -36q55 -39 90 -39q51 0 90 45q12 16 27 17q8 0 16 -6l35 -29q10 -6 10 -21q0 -16 -14 -36q-39 -51 -87 -78t-91 -27q-35 0 -61.5 13.5t-57.5 37.5q-25 20 -42 28.5t-38 8.5 q-29 0 -49.5 -9t-42.5 -34q-12 -14 -25 -14q-8 0 -18 6l-37 29q-10 10 -10 20z" />
<glyph unicode="&#xd2;" horiz-adv-x="1234" d="M139 397q0 49 4 76l60 488q18 145 93 255.5t193.5 172t264.5 61.5q201 0 318.5 -112.5t117.5 -301.5q0 -49 -4 -75l-60 -488q-16 -145 -92 -257t-194.5 -173t-266.5 -61q-198 0 -316 112.5t-118 302.5zM330 412q0 -119 71.5 -189.5t192.5 -70.5q137 0 230.5 86t111.5 227 l59 498q4 37 4 53q0 121 -71.5 192.5t-194.5 71.5q-133 0 -227 -87t-111 -230l-61 -498q-4 -37 -4 -53zM537 1825q0 10 7 16.5t20 6.5h122q27 0 35 -23l80 -200q2 -5 2 -15t-7 -16t-19 -6h-101q-27 0 -35 20l-102 203q-2 4 -2 14z" />
<glyph unicode="&#xd3;" horiz-adv-x="1234" d="M139 397q0 49 4 76l60 488q18 145 93 255.5t193.5 172t264.5 61.5q201 0 318.5 -112.5t117.5 -301.5q0 -49 -4 -75l-60 -488q-16 -145 -92 -257t-194.5 -173t-266.5 -61q-198 0 -316 112.5t-118 302.5zM330 412q0 -119 71.5 -189.5t192.5 -70.5q137 0 230.5 86t111.5 227 l59 498q4 37 4 53q0 121 -71.5 192.5t-194.5 71.5q-133 0 -227 -87t-111 -230l-61 -498q-4 -37 -4 -53zM641 1604q0 8 6 21l129 200q14 23 39 23h123q25 0 25 -17q0 -4 -8 -20l-154 -203q-12 -20 -37 -20h-102q-21 0 -21 16z" />
<glyph unicode="&#xd4;" horiz-adv-x="1234" d="M139 397q0 49 4 76l60 488q18 145 93 255.5t193.5 172t264.5 61.5q201 0 318.5 -112.5t117.5 -301.5q0 -49 -4 -75l-60 -488q-16 -145 -92 -257t-194.5 -173t-266.5 -61q-198 0 -316 112.5t-118 302.5zM330 412q0 -119 71.5 -189.5t192.5 -70.5q137 0 230.5 86t111.5 227 l59 498q4 37 4 53q0 121 -71.5 192.5t-194.5 71.5q-133 0 -227 -87t-111 -230l-61 -498q-4 -37 -4 -53zM471 1592q0 10 8 20l172 205q16 18 39 18h137q23 0 33 -18l125 -205q4 -12 4 -14q0 -23 -27 -23h-90q-27 0 -35 19l-82 147q-2 4 -6 4t-8 -4l-119 -147q-16 -18 -36 -19 h-93q-22 1 -22 17z" />
<glyph unicode="&#xd5;" horiz-adv-x="1234" d="M139 397q0 49 4 76l60 488q18 145 93 255.5t193.5 172t264.5 61.5q201 0 318.5 -112.5t117.5 -301.5q0 -49 -4 -75l-60 -488q-16 -145 -92 -257t-194.5 -173t-266.5 -61q-198 0 -316 112.5t-118 302.5zM330 412q0 -119 71.5 -189.5t192.5 -70.5q137 0 230.5 86t111.5 227 l59 498q4 37 4 53q0 121 -71.5 192.5t-194.5 71.5q-133 0 -227 -87t-111 -230l-61 -498q-4 -37 -4 -53zM484 1692q0 10 6 23q35 57 82 84.5t98 27.5q33 0 57.5 -11t61.5 -36q55 -39 90 -39q51 0 90 45q12 16 27 17q8 0 16 -6l35 -29q10 -6 10 -21q0 -16 -14 -36 q-39 -51 -87 -78t-91 -27q-35 0 -61.5 13.5t-57.5 37.5q-25 20 -42 28.5t-38 8.5q-29 0 -49.5 -9t-42.5 -34q-12 -14 -25 -14q-8 0 -18 6l-37 29q-10 10 -10 20z" />
<glyph unicode="&#xd6;" horiz-adv-x="1234" d="M139 397q0 49 4 76l60 488q18 145 93 255.5t193.5 172t264.5 61.5q201 0 318.5 -112.5t117.5 -301.5q0 -49 -4 -75l-60 -488q-16 -145 -92 -257t-194.5 -173t-266.5 -61q-198 0 -316 112.5t-118 302.5zM330 412q0 -119 71.5 -189.5t192.5 -70.5q137 0 230.5 86t111.5 227 l59 498q4 37 4 53q0 121 -71.5 192.5t-194.5 71.5q-133 0 -227 -87t-111 -230l-61 -498q-4 -37 -4 -53zM460 1713q0 55 38 92t91 37q43 0 69 -27t26 -68q0 -57 -35 -95t-88 -38q-45 0 -73 27t-28 72zM811 1713q0 55 37.5 92t91.5 37q45 0 70.5 -26t25.5 -69q0 -57 -36 -95 t-89 -38q-45 0 -72.5 27t-27.5 72z" />
<glyph unicode="&#xd7;" horiz-adv-x="854" d="M94 397q0 14 15 27l235 217q10 8 2 16l-186 222q-8 8 -8 18q0 14 14 27l82 75q10 10 22 11q12 0 21 -11l188 -221q6 -6 17 0l235 217q10 10 25 11q12 0 20 -11l64 -75q6 -9 6 -19q0 -14 -15 -27l-235 -217q-4 -2 -5 -7t3 -9l180 -213q8 -8 8 -18q0 -14 -14 -27l-80 -74 q-14 -10 -24 -10t-21 10l-180 213q-6 8 -14 0l-238 -217q-12 -12 -27 -12q-8 0 -18 10l-64 76q-8 8 -8 18z" />
<glyph unicode="&#xd8;" horiz-adv-x="1251" d="M94 -70q0 8 6 19l119 194q4 8 0 15q-66 104 -65 237q0 39 6 78l59 488q18 145 93 255.5t194 172t264 61.5q121 0 205 -39q8 -4 14 4l58 94q12 23 34 23h86q25 0 25 -19q0 -8 -6 -18l-90 -149q-6 -9 0 -15q113 -113 112 -293q0 -37 -6 -77l-59 -488q-18 -145 -93 -257 t-195 -173t-265 -61q-160 0 -268 71q-2 4 -6.5 2t-6.5 -6l-71 -115q-12 -23 -35 -22h-84q-25 0 -25 18zM346 414q0 -25 2 -35q4 -16 12 -2l521 862q6 10 -2 14q-53 27 -129 27q-133 0 -227.5 -87t-112.5 -230l-62 -498q-2 -18 -2 -51zM420 233q-2 -8 2 -14q72 -68 188 -67 q135 0 229.5 86t110.5 227l62 498q4 37 4 53q0 74 -29 131q-2 6 -6 5t-8 -5z" />
<glyph unicode="&#xd9;" horiz-adv-x="1273" d="M162 385q0 20 4 70l115 948q6 31 34 31h131q14 0 21.5 -8.5t5.5 -22.5l-119 -952q-2 -14 -2 -43q0 -115 72 -184.5t192 -69.5q133 0 225.5 81.5t108.5 215.5l117 952q2 14 10 22.5t23 8.5h131q14 0 21.5 -8.5t4.5 -22.5l-116 -948q-16 -139 -90 -247t-192 -166t-263 -58 q-201 0 -317.5 108.5t-116.5 292.5zM559 1833q0 10 7 16.5t20 6.5h122q27 0 35 -23l80 -200q2 -5 2 -15t-7 -16t-19 -6h-101q-27 0 -35 20l-102 203q-2 4 -2 14z" />
<glyph unicode="&#xda;" horiz-adv-x="1273" d="M162 385q0 20 4 70l115 948q6 31 34 31h131q14 0 21.5 -8.5t5.5 -22.5l-119 -952q-2 -14 -2 -43q0 -115 72 -184.5t192 -69.5q133 0 225.5 81.5t108.5 215.5l117 952q2 14 10 22.5t23 8.5h131q14 0 21.5 -8.5t4.5 -22.5l-116 -948q-16 -139 -90 -247t-192 -166t-263 -58 q-201 0 -317.5 108.5t-116.5 292.5zM663 1612q0 8 6 21l129 200q14 23 39 23h123q25 0 25 -17q0 -4 -8 -20l-154 -203q-12 -20 -37 -20h-102q-21 0 -21 16z" />
<glyph unicode="&#xdb;" horiz-adv-x="1273" d="M162 385q0 20 4 70l115 948q6 31 34 31h131q14 0 21.5 -8.5t5.5 -22.5l-119 -952q-2 -14 -2 -43q0 -115 72 -184.5t192 -69.5q133 0 225.5 81.5t108.5 215.5l117 952q2 14 10 22.5t23 8.5h131q14 0 21.5 -8.5t4.5 -22.5l-116 -948q-16 -139 -90 -247t-192 -166t-263 -58 q-201 0 -317.5 108.5t-116.5 292.5zM494 1600q0 10 8 20l172 205q16 18 39 18h137q23 0 33 -18l125 -205q4 -12 4 -14q0 -23 -27 -23h-90q-27 0 -35 19l-82 147q-2 4 -6 4t-8 -4l-119 -147q-16 -18 -36 -19h-93q-22 1 -22 17z" />
<glyph unicode="&#xdc;" horiz-adv-x="1273" d="M162 385q0 20 4 70l115 948q6 31 34 31h131q14 0 21.5 -8.5t5.5 -22.5l-119 -952q-2 -14 -2 -43q0 -115 72 -184.5t192 -69.5q133 0 225.5 81.5t108.5 215.5l117 952q2 14 10 22.5t23 8.5h131q14 0 21.5 -8.5t4.5 -22.5l-116 -948q-16 -139 -90 -247t-192 -166t-263 -58 q-201 0 -317.5 108.5t-116.5 292.5zM483 1721q0 55 38 92t91 37q43 0 69 -27t26 -68q0 -57 -35 -95t-88 -38q-45 0 -73 27t-28 72zM834 1721q0 55 37.5 92t91.5 37q45 0 70.5 -26t25.5 -69q0 -57 -36 -95t-89 -38q-45 0 -72.5 27t-27.5 72z" />
<glyph unicode="&#xdd;" horiz-adv-x="1161" d="M205 1407q0 27 28 27h142q25 0 33 -23l227 -588q6 -8 12 0l373 588q14 23 39 23h141q23 0 23 -19q0 -8 -6 -18l-502 -787q-2 -2 -4 -5t-2 -7l-70 -565q-2 -14 -10 -22.5t-23 -8.5h-131q-14 0 -21.5 8t-4.5 23l69 565q0 8 -2 12l-309 787q-2 4 -2 10zM604 1585q0 8 6 21 l129 200q14 23 39 23h123q25 0 25 -17q0 -4 -8 -20l-154 -203q-12 -20 -37 -20h-102q-21 0 -21 16z" />
<glyph unicode="&#xde;" horiz-adv-x="1136" d="M115 31l168 1372q6 31 34 31h132q14 0 21 -8.5t5 -22.5l-33 -266q-4 -10 9 -11h313q166 0 263 -95t97 -253q0 -18 -4 -63q-14 -121 -79.5 -213t-166 -143.5t-219.5 -51.5h-305q-8 0 -12 -10l-33 -266q-2 -14 -10 -22.5t-23 -8.5h-131q-14 0 -21 8t-5 23zM360 479 q0 -10 9 -10h288q121 0 198 77t77 204q0 96 -57.5 150t-157.5 54h-287q-12 0 -12 -10z" />
<glyph unicode="&#xdf;" horiz-adv-x="1185" d="M104 31l123 995q25 199 160 312.5t338 113.5t313.5 -88t110.5 -248q0 -119 -52.5 -208t-146.5 -132q-12 -6 -2 -12q66 -35 102.5 -109.5t36.5 -177.5q0 -20 -4 -69q-23 -195 -165 -301.5t-394 -106.5h-104q-14 0 -21.5 8t-5.5 23l13 106q2 14 11 22.5t23 8.5h131 q158 0 243 81t85 226q0 102 -59.5 156.5t-175.5 56.5h-123q-12 0 -19.5 8.5t-5.5 22.5l10 94q2 14 11.5 22.5t23.5 8.5h129q125 0 195.5 66.5t70.5 181.5q0 90 -58 140t-181 50q-111 0 -198 -64.5t-99 -175.5l-125 -1011q-2 -14 -10.5 -22.5t-22.5 -8.5h-131q-14 0 -21.5 8 t-5.5 23z" />
<glyph unicode="&#xe0;" horiz-adv-x="1085" d="M117 387q0 55 10 137q16 147 59 248q59 135 164 211t252 76q70 0 126 -26.5t93 -78.5q4 -4 7 -3t6 7l6 54q2 14 11 22t21 8h132q14 0 21 -8t5 -22l-121 -981q-2 -14 -10 -22.5t-22 -8.5h-132q-14 0 -21 8t-5 23l6 53q2 6 -2 8t-8 -2q-49 -51 -112.5 -78.5t-131.5 -27.5 q-143 0 -229 72.5t-113 205.5q-12 59 -12 125zM309 424q0 -92 25 -158q43 -113 178 -112q111 0 186 110q60 90 80 258q6 59 6 105q0 98 -26 157q-45 104 -156 105q-115 0 -188 -98q-74 -96 -99 -271q-6 -51 -6 -96zM461 1417q0 10 7 16.5t20 6.5h122q27 0 35 -23l80 -200 q2 -5 2 -15t-7 -16t-19 -6h-101q-27 0 -35 20l-102 203q-2 4 -2 14z" />
<glyph unicode="&#xe1;" horiz-adv-x="1085" d="M117 387q0 55 10 137q16 147 59 248q59 135 164 211t252 76q70 0 126 -26.5t93 -78.5q4 -4 7 -3t6 7l6 54q2 14 11 22t21 8h132q14 0 21 -8t5 -22l-121 -981q-2 -14 -10 -22.5t-22 -8.5h-132q-14 0 -21 8t-5 23l6 53q2 6 -2 8t-8 -2q-49 -51 -112.5 -78.5t-131.5 -27.5 q-143 0 -229 72.5t-113 205.5q-12 59 -12 125zM309 424q0 -92 25 -158q43 -113 178 -112q111 0 186 110q60 90 80 258q6 59 6 105q0 98 -26 157q-45 104 -156 105q-115 0 -188 -98q-74 -96 -99 -271q-6 -51 -6 -96zM565 1196q0 8 6 21l129 200q14 23 39 23h123q25 0 25 -17 q0 -4 -8 -20l-154 -203q-12 -20 -37 -20h-102q-21 0 -21 16z" />
<glyph unicode="&#xe2;" horiz-adv-x="1085" d="M117 387q0 55 10 137q16 147 59 248q59 135 164 211t252 76q70 0 126 -26.5t93 -78.5q4 -4 7 -3t6 7l6 54q2 14 11 22t21 8h132q14 0 21 -8t5 -22l-121 -981q-2 -14 -10 -22.5t-22 -8.5h-132q-14 0 -21 8t-5 23l6 53q2 6 -2 8t-8 -2q-49 -51 -112.5 -78.5t-131.5 -27.5 q-143 0 -229 72.5t-113 205.5q-12 59 -12 125zM309 424q0 -92 25 -158q43 -113 178 -112q111 0 186 110q60 90 80 258q6 59 6 105q0 98 -26 157q-45 104 -156 105q-115 0 -188 -98q-74 -96 -99 -271q-6 -51 -6 -96zM395 1184q0 10 8 20l172 205q16 18 39 18h137q23 0 33 -18 l125 -205q4 -12 4 -14q0 -23 -27 -23h-90q-27 0 -35 19l-82 147q-2 4 -6 4t-8 -4l-119 -147q-16 -18 -36 -19h-93q-22 1 -22 17z" />
<glyph unicode="&#xe3;" horiz-adv-x="1085" d="M117 387q0 55 10 137q16 147 59 248q59 135 164 211t252 76q70 0 126 -26.5t93 -78.5q4 -4 7 -3t6 7l6 54q2 14 11 22t21 8h132q14 0 21 -8t5 -22l-121 -981q-2 -14 -10 -22.5t-22 -8.5h-132q-14 0 -21 8t-5 23l6 53q2 6 -2 8t-8 -2q-49 -51 -112.5 -78.5t-131.5 -27.5 q-143 0 -229 72.5t-113 205.5q-12 59 -12 125zM309 424q0 -92 25 -158q43 -113 178 -112q111 0 186 110q60 90 80 258q6 59 6 105q0 98 -26 157q-45 104 -156 105q-115 0 -188 -98q-74 -96 -99 -271q-6 -51 -6 -96zM408 1284q0 10 6 23q35 57 82 84.5t98 27.5q33 0 57.5 -11 t61.5 -36q55 -39 90 -39q51 0 90 45q12 16 27 17q8 0 16 -6l35 -29q10 -6 10 -21q0 -16 -14 -36q-39 -51 -87 -78t-91 -27q-35 0 -61.5 13.5t-57.5 37.5q-25 20 -42 28.5t-38 8.5q-29 0 -49.5 -9t-42.5 -34q-12 -14 -25 -14q-8 0 -18 6l-37 29q-10 10 -10 20z" />
<glyph unicode="&#xe4;" horiz-adv-x="1085" d="M117 387q0 55 10 137q16 147 59 248q59 135 164 211t252 76q70 0 126 -26.5t93 -78.5q4 -4 7 -3t6 7l6 54q2 14 11 22t21 8h132q14 0 21 -8t5 -22l-121 -981q-2 -14 -10 -22.5t-22 -8.5h-132q-14 0 -21 8t-5 23l6 53q2 6 -2 8t-8 -2q-49 -51 -112.5 -78.5t-131.5 -27.5 q-143 0 -229 72.5t-113 205.5q-12 59 -12 125zM309 424q0 -92 25 -158q43 -113 178 -112q111 0 186 110q60 90 80 258q6 59 6 105q0 98 -26 157q-45 104 -156 105q-115 0 -188 -98q-74 -96 -99 -271q-6 -51 -6 -96zM385 1305q0 55 38 92t91 37q43 0 69 -27t26 -68 q0 -57 -35 -95t-88 -38q-45 0 -73 27t-28 72zM736 1305q0 55 37.5 92t91.5 37q45 0 70.5 -26t25.5 -69q0 -57 -36 -95t-89 -38q-45 0 -72.5 27t-27.5 72z" />
<glyph unicode="&#xe5;" horiz-adv-x="1085" d="M117 387q0 55 10 137q16 147 59 248q59 135 164 211t252 76q70 0 126 -26.5t93 -78.5q4 -4 7 -3t6 7l6 54q2 14 11 22t21 8h132q14 0 21 -8t5 -22l-121 -981q-2 -14 -10 -22.5t-22 -8.5h-132q-14 0 -21 8t-5 23l6 53q2 6 -2 8t-8 -2q-49 -51 -112.5 -78.5t-131.5 -27.5 q-143 0 -229 72.5t-113 205.5q-12 59 -12 125zM309 424q0 -92 25 -158q43 -113 178 -112q111 0 186 110q60 90 80 258q6 59 6 105q0 98 -26 157q-45 104 -156 105q-115 0 -188 -98q-74 -96 -99 -271q-6 -51 -6 -96zM467 1350q0 63 34 118.5t90 89t118 33.5q82 0 135 -54 t53 -134q0 -66 -33.5 -122t-89 -89t-118.5 -33q-82 0 -135.5 53.5t-53.5 137.5zM567 1360q0 -45 28 -75t73 -30q53 0 92 40t39 98q0 45 -28.5 73.5t-74.5 28.5q-51 0 -90 -40t-39 -95z" />
<glyph unicode="&#xe6;" horiz-adv-x="1658" d="M70 231q0 170 122.5 274.5t331.5 104.5h219q12 0 13 11l8 63q2 12 2 35q0 78 -47 124t-144 46q-76 0 -134 -32t-81 -85q-12 -27 -36 -24l-131 18q-12 2 -18.5 11t-2.5 24q35 113 151.5 185.5t268.5 72.5q111 0 191.5 -49t109.5 -119q4 -8 12 0q47 66 138.5 117t189.5 51 q137 0 235.5 -79t118.5 -212q4 -37 4 -70q0 -84 -16 -221q-6 -33 -35 -33h-602q-10 0 -10 -10q-6 -55 -6 -88q0 -88 64.5 -133t166.5 -45q82 0 139.5 29.5t98.5 89.5q12 18 24 18q8 0 17 -6l75 -55q14 -10 15 -25q0 -8 -6 -18q-57 -92 -168 -154.5t-244 -62.5 q-106 0 -188 44t-115 115q-6 10 -10 2q-59 -76 -163 -118.5t-227 -42.5q-149 0 -240 60t-91 187zM262 270q0 -61 49 -96t131 -35q105 0 186 53.5t93 153.5l12 88q0 10 -8 10h-188q-127 0 -201 -43t-74 -131zM948 621q0 -11 8 -11h437q10 0 10 11q2 25 2 69q0 86 -53.5 142.5 t-143.5 56.5q-84 0 -148.5 -49t-90.5 -127q-12 -35 -21 -92z" />
<glyph unicode="&#xe7;" horiz-adv-x="1044" d="M125 389q0 70 8 135q18 147 62 248q53 131 171.5 209t268.5 78t251 -78t120 -197q8 -27 8 -57q0 -14 -8.5 -22.5t-22.5 -10.5l-131 -18h-6q-20 0 -25 22l-4 27q-6 70 -61.5 117t-143.5 47t-151.5 -47t-91.5 -125q-25 -59 -43 -195q-8 -68 -9 -127q0 -29 5 -65 q10 -82 61 -129t139 -47q84 0 151.5 46t94.5 117l2 9l2 2q2 8 13.5 18t23.5 8l125 -22q29 -6 22 -33l-14 -39q-45 -111 -143.5 -183.5t-225.5 -88.5q-14 -4 -6 -13q72 -78 72 -159q0 -37 -12 -70q-25 -68 -78 -96.5t-117 -28.5q-51 0 -88 12q-23 6 -16 37l12 47q12 29 41 23 q20 -4 31 -4q41 0 69.5 25.5t28.5 72.5q0 72 -86 152l-12 6q-113 20 -185.5 96t-93.5 188q-8 47 -8 113z" />
<glyph unicode="&#xe8;" d="M129 408q0 57 6 118q10 78 21.5 130.5t29.5 97.5q53 141 170 223t271 82q195 0 281.5 -109.5t86.5 -316.5q0 -39 -8 -154q-6 -31 -35 -30h-626q-10 0 -11 -11q-4 -53 -4 -69q0 -20 4 -41q10 -82 70.5 -129t157.5 -47q80 2 142.5 34.5t102.5 94.5q12 18 27 18q6 0 16 -6 l74 -51q12 -8 13 -23q0 -8 -7 -20q-66 -100 -170 -157.5t-237 -57.5q-141 0 -229.5 64.5t-124.5 184.5q-20 74 -21 175zM338 612q-4 -10 8 -10h451q10 0 10 10q4 49 4 66q0 94 -54.5 152.5t-150.5 58.5q-86 0 -146.5 -43t-90.5 -119q-18 -45 -31 -115zM453 1433q0 10 7 16.5 t20 6.5h122q27 0 35 -23l80 -200q2 -5 2 -15t-7 -16t-19 -6h-101q-27 0 -35 20l-102 203q-2 4 -2 14z" />
<glyph unicode="&#xe9;" d="M129 408q0 57 6 118q10 78 21.5 130.5t29.5 97.5q53 141 170 223t271 82q195 0 281.5 -109.5t86.5 -316.5q0 -39 -8 -154q-6 -31 -35 -30h-626q-10 0 -11 -11q-4 -53 -4 -69q0 -20 4 -41q10 -82 70.5 -129t157.5 -47q80 2 142.5 34.5t102.5 94.5q12 18 27 18q6 0 16 -6 l74 -51q12 -8 13 -23q0 -8 -7 -20q-66 -100 -170 -157.5t-237 -57.5q-141 0 -229.5 64.5t-124.5 184.5q-20 74 -21 175zM338 612q-4 -10 8 -10h451q10 0 10 10q4 49 4 66q0 94 -54.5 152.5t-150.5 58.5q-86 0 -146.5 -43t-90.5 -119q-18 -45 -31 -115zM557 1212q0 8 6 21 l129 200q14 23 39 23h123q25 0 25 -17q0 -4 -8 -20l-154 -203q-12 -20 -37 -20h-102q-21 0 -21 16z" />
<glyph unicode="&#xea;" d="M129 408q0 57 6 118q10 78 21.5 130.5t29.5 97.5q53 141 170 223t271 82q195 0 281.5 -109.5t86.5 -316.5q0 -39 -8 -154q-6 -31 -35 -30h-626q-10 0 -11 -11q-4 -53 -4 -69q0 -20 4 -41q10 -82 70.5 -129t157.5 -47q80 2 142.5 34.5t102.5 94.5q12 18 27 18q6 0 16 -6 l74 -51q12 -8 13 -23q0 -8 -7 -20q-66 -100 -170 -157.5t-237 -57.5q-141 0 -229.5 64.5t-124.5 184.5q-20 74 -21 175zM338 612q-4 -10 8 -10h451q10 0 10 10q4 49 4 66q0 94 -54.5 152.5t-150.5 58.5q-86 0 -146.5 -43t-90.5 -119q-18 -45 -31 -115zM387 1200q0 10 8 20 l172 205q16 18 39 18h137q23 0 33 -18l125 -205q4 -12 4 -14q0 -23 -27 -23h-90q-27 0 -35 19l-82 147q-2 4 -6 4t-8 -4l-119 -147q-16 -18 -36 -19h-93q-22 1 -22 17z" />
<glyph unicode="&#xeb;" d="M129 408q0 57 6 118q10 78 21.5 130.5t29.5 97.5q53 141 170 223t271 82q195 0 281.5 -109.5t86.5 -316.5q0 -39 -8 -154q-6 -31 -35 -30h-626q-10 0 -11 -11q-4 -53 -4 -69q0 -20 4 -41q10 -82 70.5 -129t157.5 -47q80 2 142.5 34.5t102.5 94.5q12 18 27 18q6 0 16 -6 l74 -51q12 -8 13 -23q0 -8 -7 -20q-66 -100 -170 -157.5t-237 -57.5q-141 0 -229.5 64.5t-124.5 184.5q-20 74 -21 175zM338 612q-4 -10 8 -10h451q10 0 10 10q4 49 4 66q0 94 -54.5 152.5t-150.5 58.5q-86 0 -146.5 -43t-90.5 -119q-18 -45 -31 -115zM376 1321q0 55 38 92 t91 37q43 0 69 -27t26 -68q0 -57 -35 -95t-88 -38q-45 0 -73 27t-28 72zM727 1321q0 55 37.5 92t91.5 37q45 0 70.5 -26t25.5 -69q0 -57 -36 -95t-89 -38q-45 0 -72.5 27t-27.5 72z" />
<glyph unicode="&#xec;" horiz-adv-x="452" d="M92 31l121 981q2 14 11 22t24 8h131q12 0 19.5 -8t4.5 -22l-118 -981q-2 -14 -11.5 -22.5t-23.5 -8.5h-131q-15 0 -22 8t-5 23zM129 1437q0 10 7 16.5t20 6.5h122q27 0 35 -23l80 -200q2 -5 2 -15t-7 -16t-19 -6h-101q-27 0 -35 20l-102 203q-2 4 -2 14z" />
<glyph unicode="&#xed;" horiz-adv-x="452" d="M92 31l121 981q2 14 11 22t24 8h131q12 0 19.5 -8t4.5 -22l-118 -981q-2 -14 -11.5 -22.5t-23.5 -8.5h-131q-15 0 -22 8t-5 23zM233 1216q0 8 6 21l129 200q14 23 39 23h123q25 0 25 -17q0 -4 -8 -20l-154 -203q-12 -20 -37 -20h-102q-21 0 -21 16z" />
<glyph unicode="&#xee;" horiz-adv-x="452" d="M64 1204q0 10 8 20l172 205q16 18 39 18h137q23 0 33 -18l125 -205q4 -12 4 -14q0 -23 -27 -23h-90q-27 0 -35 19l-82 147q-2 4 -6 4t-8 -4l-119 -147q-16 -18 -36 -19h-93q-22 1 -22 17zM92 31l121 981q2 14 11 22t24 8h131q12 0 19.5 -8t4.5 -22l-118 -981 q-2 -14 -11.5 -22.5t-23.5 -8.5h-131q-15 0 -22 8t-5 23z" />
<glyph unicode="&#xef;" horiz-adv-x="557" d="M108 1325q0 55 38 92t91 37q43 0 69 -27t26 -68q0 -57 -35 -95t-88 -38q-45 0 -73 27t-28 72zM149 31l121 981q2 14 11 22t24 8h131q12 0 19.5 -8t4.5 -22l-118 -981q-2 -14 -11.5 -22.5t-23.5 -8.5h-131q-15 0 -22 8t-5 23zM459 1325q0 55 37.5 92t91.5 37 q45 0 70.5 -26t25.5 -69q0 -57 -36 -95t-89 -38q-45 0 -72.5 27t-27.5 72z" />
<glyph unicode="&#xf0;" horiz-adv-x="1056" d="M106 344q0 66 13 148q10 82 21.5 135t31.5 98q37 92 112.5 154.5t172.5 76.5q55 10 110 11q131 0 193 -45q4 -4 7 -2t1 8q-29 113 -88 211q-4 8 -10 4l-189 -53q-4 -2 -10 -3q-20 0 -25 25l-6 49v6q0 23 25 31l135 39q4 2 6 6t0 8q-51 66 -125 146q-10 10 -10 18t8 13.5 t21 5.5h137q20 0 35 -17l96 -125q8 -8 14 -4l156 45q4 2 12 2q23 0 23 -24l6 -51v-7q0 -20 -25 -30l-102 -29q-4 -2 -7 -5t-1 -7q63 -98 96 -205t31 -242q3 -87 -13 -243q-10 -86 -21 -139.5t-32 -94.5q-55 -123 -169.5 -198.5t-260.5 -75.5q-143 0 -238.5 74.5 t-121.5 199.5q-8 35 -9 86zM299 356q0 -23 4 -51q10 -78 60.5 -124t130.5 -46t142 46t93 124q21 57 37 182q8 74 8 134q0 96 -52 154.5t-142 58.5q-82 0 -143.5 -46.5t-90.5 -123.5q-20 -47 -37 -177q-10 -88 -10 -131z" />
<glyph unicode="&#xf1;" horiz-adv-x="1077" d="M102 31l121 981q2 14 11.5 22t23.5 8h131q12 0 19.5 -8t5.5 -22l-6 -58q-2 -6 2 -8t8 2q94 109 262 109q147 0 230 -81t83 -220q0 -18 -4 -60l-82 -665q-2 -14 -10 -22.5t-23 -8.5h-131q-14 0 -21 8t-5 23l78 626q2 12 2 37q0 86 -49.5 139.5t-135.5 53.5 q-88 0 -151.5 -52.5t-85.5 -140.5l-82 -663q-2 -14 -10.5 -22.5t-22.5 -8.5h-131q-14 0 -21.5 8t-5.5 23zM410 1284q0 10 6 23q35 57 82 84.5t98 27.5q33 0 57.5 -11t61.5 -36q55 -39 90 -39q51 0 90 45q12 16 27 17q8 0 16 -6l35 -29q10 -6 10 -21q0 -16 -14 -36 q-39 -51 -87 -78t-91 -27q-35 0 -61.5 13.5t-57.5 37.5q-25 20 -42 28.5t-38 8.5q-29 0 -49.5 -9t-42.5 -34q-12 -14 -25 -14q-8 0 -18 6l-37 29q-10 10 -10 20z" />
<glyph unicode="&#xf2;" horiz-adv-x="1101" d="M127 412q0 57 6 112q20 150 66 246q59 135 178 212t270 77q143 0 239.5 -77t125.5 -210q12 -57 12 -131q0 -55 -6 -115q-16 -145 -66 -252q-61 -137 -178 -213.5t-262 -76.5q-150 0 -248 76.5t-125 213.5q-12 59 -12 138zM319 410q0 -35 5 -80q14 -82 69.5 -129 t138.5 -47q82 0 146.5 46t101.5 130q33 88 45 192q8 90 9 127q0 27 -5 64q-16 84 -70 130t-138 46q-82 0 -147.5 -46t-102.5 -130q-29 -70 -45 -191q-6 -57 -7 -112zM469 1433q0 10 7 16.5t20 6.5h122q27 0 35 -23l80 -200q2 -5 2 -15t-7 -16t-19 -6h-101q-27 0 -35 20 l-102 203q-2 4 -2 14z" />
<glyph unicode="&#xf3;" horiz-adv-x="1101" d="M127 412q0 57 6 112q20 150 66 246q59 135 178 212t270 77q143 0 239.5 -77t125.5 -210q12 -57 12 -131q0 -55 -6 -115q-16 -145 -66 -252q-61 -137 -178 -213.5t-262 -76.5q-150 0 -248 76.5t-125 213.5q-12 59 -12 138zM319 410q0 -35 5 -80q14 -82 69.5 -129 t138.5 -47q82 0 146.5 46t101.5 130q33 88 45 192q8 90 9 127q0 27 -5 64q-16 84 -70 130t-138 46q-82 0 -147.5 -46t-102.5 -130q-29 -70 -45 -191q-6 -57 -7 -112zM573 1212q0 8 6 21l129 200q14 23 39 23h123q25 0 25 -17q0 -4 -8 -20l-154 -203q-12 -20 -37 -20h-102 q-21 0 -21 16z" />
<glyph unicode="&#xf4;" horiz-adv-x="1101" d="M127 412q0 57 6 112q20 150 66 246q59 135 178 212t270 77q143 0 239.5 -77t125.5 -210q12 -57 12 -131q0 -55 -6 -115q-16 -145 -66 -252q-61 -137 -178 -213.5t-262 -76.5q-150 0 -248 76.5t-125 213.5q-12 59 -12 138zM319 410q0 -35 5 -80q14 -82 69.5 -129 t138.5 -47q82 0 146.5 46t101.5 130q33 88 45 192q8 90 9 127q0 27 -5 64q-16 84 -70 130t-138 46q-82 0 -147.5 -46t-102.5 -130q-29 -70 -45 -191q-6 -57 -7 -112zM404 1200q0 10 8 20l172 205q16 18 39 18h137q23 0 33 -18l125 -205q4 -12 4 -14q0 -23 -27 -23h-90 q-27 0 -35 19l-82 147q-2 4 -6 4t-8 -4l-119 -147q-16 -18 -36 -19h-93q-22 1 -22 17z" />
<glyph unicode="&#xf5;" horiz-adv-x="1101" d="M127 412q0 57 6 112q20 150 66 246q59 135 178 212t270 77q143 0 239.5 -77t125.5 -210q12 -57 12 -131q0 -55 -6 -115q-16 -145 -66 -252q-61 -137 -178 -213.5t-262 -76.5q-150 0 -248 76.5t-125 213.5q-12 59 -12 138zM319 410q0 -35 5 -80q14 -82 69.5 -129 t138.5 -47q82 0 146.5 46t101.5 130q33 88 45 192q8 90 9 127q0 27 -5 64q-16 84 -70 130t-138 46q-82 0 -147.5 -46t-102.5 -130q-29 -70 -45 -191q-6 -57 -7 -112zM416 1300q0 10 6 23q35 57 82 84.5t98 27.5q33 0 57.5 -11t61.5 -36q55 -39 90 -39q51 0 90 45 q12 16 27 17q8 0 16 -6l35 -29q10 -6 10 -21q0 -16 -14 -36q-39 -51 -87 -78t-91 -27q-35 0 -61.5 13.5t-57.5 37.5q-25 20 -42 28.5t-38 8.5q-29 0 -49.5 -9t-42.5 -34q-12 -14 -25 -14q-8 0 -18 6l-37 29q-10 10 -10 20z" />
<glyph unicode="&#xf6;" horiz-adv-x="1101" d="M127 412q0 57 6 112q20 150 66 246q59 135 178 212t270 77q143 0 239.5 -77t125.5 -210q12 -57 12 -131q0 -55 -6 -115q-16 -145 -66 -252q-61 -137 -178 -213.5t-262 -76.5q-150 0 -248 76.5t-125 213.5q-12 59 -12 138zM319 410q0 -35 5 -80q14 -82 69.5 -129 t138.5 -47q82 0 146.5 46t101.5 130q33 88 45 192q8 90 9 127q0 27 -5 64q-16 84 -70 130t-138 46q-82 0 -147.5 -46t-102.5 -130q-29 -70 -45 -191q-6 -57 -7 -112zM393 1321q0 55 38 92t91 37q43 0 69 -27t26 -68q0 -57 -35 -95t-88 -38q-45 0 -73 27t-28 72zM744 1321 q0 55 37.5 92t91.5 37q45 0 70.5 -26t25.5 -69q0 -57 -36 -95t-89 -38q-45 0 -72.5 27t-27.5 72z" />
<glyph unicode="&#xf7;" horiz-adv-x="983" d="M104 602l13 109q2 14 11 22t24 8h784q12 0 19.5 -8t5.5 -22l-13 -109q-2 -14 -11 -22.5t-22 -8.5h-786q-12 0 -19.5 8.5t-5.5 22.5zM375 324q0 51 41 92t92 41q43 0 71.5 -31t28.5 -74q0 -53 -41 -93t-90 -40q-45 0 -73.5 30t-28.5 75zM457 989q0 53 40 93t91 40 q45 0 73.5 -29.5t28.5 -74.5q0 -53 -41 -93t-90 -40q-45 0 -73.5 29.5t-28.5 74.5z" />
<glyph unicode="&#xf8;" horiz-adv-x="1120" d="M80 4q0 12 8 23l102 131q4 6 0 12q-25 57 -32 104q-12 59 -13 138q0 57 7 112q20 145 63 246q59 135 178 212t271 77q102 0 184 -41q10 -4 14 4l70 90q12 14 24 14q8 0 19 -6l67 -55q10 -8 11 -21q0 -12 -9 -22l-73 -94q-6 -6 -2 -15q43 -57 61 -141q12 -57 12 -131 q0 -55 -6 -115q-16 -139 -67 -252q-61 -137 -177 -213.5t-262 -76.5q-133 0 -229 63q-4 2 -14 -4l-82 -106q-12 -14 -25 -15q-8 0 -18 6l-70 56q-12 8 -12 20zM338 367q0 -6 4 -6.5t8 4.5l383 491q8 10 -2 14q-41 18 -94 19q-82 0 -147.5 -46t-100.5 -130q-29 -70 -45 -191 q-10 -83 -6 -155zM414 203q0 -4 4 -8q53 -41 133 -41q82 0 146.5 46t99.5 130q29 69 47 192q6 61 6 115q0 35 -4 76q0 6 -3 14t-3 12q-6 10 -15 0l-407 -530q-4 -2 -4 -6z" />
<glyph unicode="&#xf9;" d="M123 274q0 33 2 50l84 688q2 14 11 22t24 8h129q14 0 21 -8t5 -22l-77 -627q-2 -14 -3 -41q0 -88 47.5 -138t135.5 -50q100 0 166.5 62.5t79.5 166.5l77 627q2 14 11.5 22t21.5 8h131q12 0 19.5 -8t5.5 -22l-121 -981q-2 -14 -10.5 -22.5t-22.5 -8.5h-129q-14 0 -21.5 8 t-4.5 23l8 61q0 14 -13 4q-92 -111 -256 -110q-137 0 -229 75.5t-92 212.5zM447 1417q0 10 7 16.5t20 6.5h122q27 0 35 -23l80 -200q2 -5 2 -15t-7 -16t-19 -6h-101q-27 0 -35 20l-102 203q-2 4 -2 14z" />
<glyph unicode="&#xfa;" d="M123 274q0 33 2 50l84 688q2 14 11 22t24 8h129q14 0 21 -8t5 -22l-77 -627q-2 -14 -3 -41q0 -88 47.5 -138t135.5 -50q100 0 166.5 62.5t79.5 166.5l77 627q2 14 11.5 22t21.5 8h131q12 0 19.5 -8t5.5 -22l-121 -981q-2 -14 -10.5 -22.5t-22.5 -8.5h-129q-14 0 -21.5 8 t-4.5 23l8 61q0 14 -13 4q-92 -111 -256 -110q-137 0 -229 75.5t-92 212.5zM551 1196q0 8 6 21l129 200q14 23 39 23h123q25 0 25 -17q0 -4 -8 -20l-154 -203q-12 -20 -37 -20h-102q-21 0 -21 16z" />
<glyph unicode="&#xfb;" d="M123 274q0 33 2 50l84 688q2 14 11 22t24 8h129q14 0 21 -8t5 -22l-77 -627q-2 -14 -3 -41q0 -88 47.5 -138t135.5 -50q100 0 166.5 62.5t79.5 166.5l77 627q2 14 11.5 22t21.5 8h131q12 0 19.5 -8t5.5 -22l-121 -981q-2 -14 -10.5 -22.5t-22.5 -8.5h-129q-14 0 -21.5 8 t-4.5 23l8 61q0 14 -13 4q-92 -111 -256 -110q-137 0 -229 75.5t-92 212.5zM381 1184q0 10 8 20l172 205q16 18 39 18h137q23 0 33 -18l125 -205q4 -12 4 -14q0 -23 -27 -23h-90q-27 0 -35 19l-82 147q-2 4 -6 4t-8 -4l-119 -147q-16 -18 -36 -19h-93q-22 1 -22 17z" />
<glyph unicode="&#xfc;" d="M123 274q0 33 2 50l84 688q2 14 11 22t24 8h129q14 0 21 -8t5 -22l-77 -627q-2 -14 -3 -41q0 -88 47.5 -138t135.5 -50q100 0 166.5 62.5t79.5 166.5l77 627q2 14 11.5 22t21.5 8h131q12 0 19.5 -8t5.5 -22l-121 -981q-2 -14 -10.5 -22.5t-22.5 -8.5h-129q-14 0 -21.5 8 t-4.5 23l8 61q0 14 -13 4q-92 -111 -256 -110q-137 0 -229 75.5t-92 212.5zM370 1305q0 55 38 92t91 37q43 0 69 -27t26 -68q0 -57 -35 -95t-88 -38q-45 0 -73 27t-28 72zM721 1305q0 55 37.5 92t91.5 37q45 0 70.5 -26t25.5 -69q0 -57 -36 -95t-89 -38q-45 0 -72.5 27 t-27.5 72z" />
<glyph unicode="&#xfd;" horiz-adv-x="946" d="M8 -379l15 105q4 31 14 30h12q80 0 128 18.5t84 69t77 150.5q2 4 0 12l-205 1002v6q0 29 29 28h139q25 0 31 -24l133 -737q2 -8 6 -8.5t6 8.5l307 735q10 27 37 26h140q23 0 22 -18q0 -10 -4 -16l-487 -1080q-63 -141 -116.5 -210.5t-131.5 -98.5t-211 -29h-15 q-4 0 -8 9.5t-2 21.5zM493 1208q0 8 6 21l129 200q14 23 39 23h123q25 0 25 -17q0 -4 -8 -20l-154 -203q-12 -20 -37 -20h-102q-21 0 -21 16z" />
<glyph unicode="&#xfe;" horiz-adv-x="1071" d="M55 -379l219 1782q2 14 10.5 22.5t22.5 8.5h131q14 0 21.5 -8.5t5.5 -22.5l-53 -426q0 -14 12 -6q98 88 225 88q147 0 234.5 -76t111.5 -211q9 -43 9 -106q0 -59 -11 -142q-20 -160 -67 -262q-57 -133 -162 -205.5t-248 -72.5q-127 0 -203 88q-4 4 -8 2t-4 -8l-55 -445 q-2 -14 -11.5 -22.5t-23.5 -8.5h-131q-12 0 -19.5 8.5t-5.5 22.5zM336 362q0 -39 22 -98q45 -111 160 -110q66 0 118 28.5t87 83.5q60 94 80 254q6 49 6 92q0 111 -37 179q-47 98 -164 98q-109 0 -182 -105q-35 -55 -47 -100q-4 -4 -4 -12l-37 -303z" />
<glyph unicode="&#xff;" horiz-adv-x="946" d="M8 -379l15 105q4 31 14 30h12q80 0 128 18.5t84 69t77 150.5q2 4 0 12l-205 1002v6q0 29 29 28h139q25 0 31 -24l133 -737q2 -8 6 -8.5t6 8.5l307 735q10 27 37 26h140q23 0 22 -18q0 -10 -4 -16l-487 -1080q-63 -141 -116.5 -210.5t-131.5 -98.5t-211 -29h-15 q-4 0 -8 9.5t-2 21.5zM313 1317q0 55 38 92t91 37q43 0 69 -27t26 -68q0 -57 -35 -95t-88 -38q-45 0 -73 27t-28 72zM664 1317q0 55 37.5 92t91.5 37q45 0 70.5 -26t25.5 -69q0 -57 -36 -95t-89 -38q-45 0 -72.5 27t-27.5 72z" />
<glyph unicode="&#x152;" horiz-adv-x="1835" d="M137 375q0 49 4 74l66 534q16 135 84.5 241.5t172 166t224.5 59.5q90 0 167 -30.5t130 -88.5q4 -4 8 -3t4 7l11 68q2 14 10 22.5t22 8.5h801q14 0 21.5 -8.5t5.5 -22.5l-15 -109q-2 -14 -11 -22t-21 -8h-631q-10 0 -10 -11l-54 -436q-4 -10 9 -10h409q12 0 19.5 -8 t5.5 -23l-13 -108q-2 -14 -11 -22.5t-23 -8.5h-408q-12 0 -12 -10l-55 -447q0 -10 10 -10h629q14 0 21 -8t5 -23l-14 -108q-2 -14 -10.5 -22.5t-22.5 -8.5h-801q-14 0 -21 8t-5 23l8 65q2 6 -2 7t-8 -3q-70 -55 -154 -86.5t-174 -31.5q-109 0 -193 49t-131 139t-47 205z M328 399q0 -111 66.5 -179t178.5 -68q125 0 212 81.5t104 208.5l65 543q4 33 4 47q0 111 -66.5 179.5t-180.5 68.5q-123 0 -210 -83t-104 -212l-67 -543q-2 -14 -2 -43z" />
<glyph unicode="&#x153;" horiz-adv-x="1714" d="M121 362q0 74 12 162q12 90 23.5 145.5t31.5 100.5q53 131 169 210t261 79q98 0 177 -43t129 -119q6 -8 14 0q68 76 156 119t184 43q147 0 245.5 -81t121.5 -210q4 -41 4 -70q0 -74 -15 -209q-6 -33 -35 -32h-612q-10 0 -10 -11q-2 -25 -2 -67q0 -35 2 -49 q10 -84 67.5 -132t157.5 -48q66 0 130.5 33.5t103.5 90.5q12 14 24 15q8 0 17 -6l71 -58q10 -8 11 -20q0 -10 -9 -21q-66 -94 -167 -147t-224 -53q-106 0 -186 44t-129 119q-2 10 -13 0q-66 -76 -155.5 -119.5t-188.5 -43.5q-143 0 -239 78.5t-121 211.5q-6 43 -6 88z M315 389q0 -43 4 -59q6 -80 56.5 -128t132.5 -48q80 0 143.5 48t89.5 128q21 51 41 194q10 92 11 138q0 25 -5 53q-6 78 -58 126t-132 48q-82 0 -144.5 -48t-88.5 -126q-25 -57 -39 -191q-10 -66 -11 -135zM997 604q0 -10 11 -10h436q10 0 10 10q4 57 4 74q0 25 -2 35 q-8 78 -60.5 127t-135.5 49q-82 0 -145.5 -49t-90.5 -127q-12 -35 -27 -109z" />
<glyph unicode="&#x178;" horiz-adv-x="1161" d="M205 1407q0 27 28 27h142q25 0 33 -23l227 -588q6 -8 12 0l373 588q14 23 39 23h141q23 0 23 -19q0 -8 -6 -18l-502 -787q-2 -2 -4 -5t-2 -7l-70 -565q-2 -14 -10 -22.5t-23 -8.5h-131q-14 0 -21.5 8t-4.5 23l69 565q0 8 -2 12l-309 787q-2 4 -2 10zM423 1694q0 55 38 92 t91 37q43 0 69 -27t26 -68q0 -57 -35 -95t-88 -38q-45 0 -73 27t-28 72zM774 1694q0 55 37.5 92t91.5 37q45 0 70.5 -26t25.5 -69q0 -57 -36 -95t-89 -38q-45 0 -72.5 27t-27.5 72z" />
<glyph unicode="&#x2c6;" horiz-adv-x="561" d="M127 1184q0 10 8 20l172 205q16 18 39 18h137q23 0 33 -18l125 -205q4 -12 4 -14q0 -23 -27 -23h-90q-27 0 -35 19l-82 147q-2 4 -6 4t-8 -4l-119 -147q-16 -18 -36 -19h-93q-22 1 -22 17z" />
<glyph unicode="&#x2dc;" horiz-adv-x="690" d="M178 1284q0 10 6 23q35 57 82 84.5t98 27.5q33 0 57.5 -11t61.5 -36q55 -39 90 -39q51 0 90 45q12 16 27 17q8 0 16 -6l35 -29q10 -6 10 -21q0 -16 -14 -36q-39 -51 -87 -78t-91 -27q-35 0 -61.5 13.5t-57.5 37.5q-25 20 -42 28.5t-38 8.5q-29 0 -49.5 -9t-42.5 -34 q-12 -14 -25 -14q-8 0 -18 6l-37 29q-10 10 -10 20z" />
<glyph unicode="&#x2000;" horiz-adv-x="991" />
<glyph unicode="&#x2001;" horiz-adv-x="1982" />
<glyph unicode="&#x2002;" horiz-adv-x="991" />
<glyph unicode="&#x2003;" horiz-adv-x="1982" />
<glyph unicode="&#x2004;" horiz-adv-x="660" />
<glyph unicode="&#x2005;" horiz-adv-x="495" />
<glyph unicode="&#x2006;" horiz-adv-x="330" />
<glyph unicode="&#x2007;" horiz-adv-x="330" />
<glyph unicode="&#x2008;" horiz-adv-x="247" />
<glyph unicode="&#x2009;" horiz-adv-x="396" />
<glyph unicode="&#x200a;" horiz-adv-x="110" />
<glyph unicode="&#x2010;" horiz-adv-x="794" d="M100 571l13 109q2 14 11 22.5t23 8.5h594q12 0 19.5 -8.5t5.5 -22.5l-12 -109q-2 -14 -11.5 -22t-21.5 -8h-594q-14 0 -21.5 8t-5.5 22z" />
<glyph unicode="&#x2011;" horiz-adv-x="794" d="M100 571l13 109q2 14 11 22.5t23 8.5h594q12 0 19.5 -8.5t5.5 -22.5l-12 -109q-2 -14 -11.5 -22t-21.5 -8h-594q-14 0 -21.5 8t-5.5 22z" />
<glyph unicode="&#x2012;" horiz-adv-x="794" d="M100 571l13 109q2 14 11 22.5t23 8.5h594q12 0 19.5 -8.5t5.5 -22.5l-12 -109q-2 -14 -11.5 -22t-21.5 -8h-594q-14 0 -21.5 8t-5.5 22z" />
<glyph unicode="&#x2013;" horiz-adv-x="913" d="M94 524l15 111q2 14 10 22.5t22 8.5h713q14 0 21.5 -8.5t5.5 -22.5l-15 -111q-2 -14 -10 -22t-22 -8h-713q-15 0 -22 8t-5 22z" />
<glyph unicode="&#x2014;" horiz-adv-x="1343" d="M94 526l15 109q2 14 10 22.5t22 8.5h1145q12 0 19.5 -8.5t5.5 -22.5l-13 -109q-2 -14 -11 -22t-21 -8h-1145q-15 0 -22 8t-5 22z" />
<glyph unicode="&#x2018;" horiz-adv-x="323" d="M96 1018l4 16l195 375q12 25 39 25h90q16 0 22.5 -9.5t-0.5 -25.5l-155 -373q-10 -27 -37 -27h-133q-25 1 -25 19z" />
<glyph unicode="&#x2019;" horiz-adv-x="323" d="M96 1034l156 373q10 27 37 27h133q24 -1 24 -19l-4 -16l-192 -375q-12 -25 -39 -25h-92q-16 0 -22.5 9.5t-0.5 25.5z" />
<glyph unicode="&#x201a;" horiz-adv-x="1191" d="M59 -143l131 434q10 29 35 28h113q14 0 20.5 -9t-0.5 -25l-165 -435q-10 -27 -35 -26h-74q-33 0 -25 33z" />
<glyph unicode="&#x201c;" horiz-adv-x="598" d="M94 1018l4 16l185 375q10 25 36 25h87q33 0 20 -35l-145 -373q-10 -27 -35 -27h-127q-25 1 -25 19zM391 1018l4 16l180 375q10 25 37 25h88q33 0 21 -35l-143 -373q-10 -27 -35 -27h-127q-25 1 -25 19z" />
<glyph unicode="&#x201d;" horiz-adv-x="598" d="M96 1034l144 373q10 27 34 27h129q23 -1 23 -19l-4 -16l-180 -375q-10 -25 -37 -25h-88q-33 0 -21 35zM391 1034l146 373q10 27 34 27h127q25 -1 25 -19l-4 -16l-184 -375q-10 -25 -37 -25h-86q-33 0 -21 35z" />
<glyph unicode="&#x201e;" horiz-adv-x="622" d="M96 -137l144 373q10 27 34 27h129q23 -1 23 -19l-4 -16l-180 -375q-10 -25 -37 -25h-88q-33 0 -21 35zM391 -137l146 373q10 27 34 27h127q25 -1 25 -19l-4 -16l-184 -375q-10 -25 -37 -25h-86q-33 0 -21 35z" />
<glyph unicode="&#x2022;" horiz-adv-x="618" d="M96 524q0 74 38 137.5t101.5 100.5t133.5 37q90 0 150.5 -60.5t60.5 -152.5q0 -74 -38 -138.5t-101.5 -102.5t-133.5 -38q-90 0 -150.5 62.5t-60.5 154.5z" />
<glyph unicode="&#x2026;" horiz-adv-x="1613" d="M100 127q0 63 51.5 109.5t110.5 46.5q51 0 90 -36t39 -87q0 -66 -49 -113t-115 -47q-57 0 -92 36t-35 91zM657 127q0 63 51.5 109.5t110.5 46.5q51 0 90 -36t39 -87q0 -66 -49 -113t-115 -47q-57 0 -92 36t-35 91zM1206 127q0 63 51.5 109.5t110.5 46.5q51 0 90 -36 t39 -87q0 -66 -49 -113t-115 -47q-57 0 -92 36t-35 91z" />
<glyph unicode="&#x202f;" horiz-adv-x="396" />
<glyph unicode="&#x2039;" horiz-adv-x="700" d="M135 571q0 14 10 25l256 317q16 18 39 19h127q25 0 25 -17q0 -10 -8 -20l-258 -313q-2 -4 -2 -13l180 -313q4 -6 4 -14q0 -23 -29 -23h-127q-23 0 -33 19l-180 317q-4 6 -4 16z" />
<glyph unicode="&#x203a;" horiz-adv-x="761" d="M172 236q0 10 8 20l258 313q4 6 0 13l-180 313q-4 8 -4 14q0 10 8 16.5t21 6.5h127q27 0 34 -19l179 -317q6 -8 6 -18q0 -8 -11 -23l-258 -317q-12 -18 -36 -19h-127q-25 1 -25 17z" />
<glyph unicode="&#x205f;" horiz-adv-x="495" />
<glyph unicode="&#x20ac;" horiz-adv-x="1261" d="M156 573l6 50q2 14 11 22t22 8h127q4 0 7 3t3 8l12 104q4 10 -8 10h-125q-14 0 -21.5 8.5t-5.5 22.5l6 49q2 14 11.5 22.5t23.5 8.5h125q10 0 10 10l17 125q23 193 155 309.5t326 116.5q174 0 276.5 -91t106.5 -249v-4q0 -12 -9 -20.5t-22 -10.5l-133 -16h-6 q-23 0 -22 26q-4 90 -61.5 142.5t-151.5 52.5q-106 0 -180 -68.5t-89 -181.5l-16 -131q0 -10 8 -10h440q23 0 23 -19q0 -10 -4 -16l-21 -51q-10 -25 -36 -25h-414q-8 0 -12 -10l-13 -104q0 -10 8 -11h373q14 0 19.5 -9t-0.5 -26l-23 -51q-10 -25 -35 -24h-346q-8 0 -12 -11 l-14 -129q-2 -14 -3 -41q0 -96 56.5 -152t152.5 -56q97 0 166.5 53t93.5 143q4 14 14.5 20.5t22.5 4.5l127 -23q29 -8 21 -37q-45 -154 -169 -243.5t-296 -89.5q-176 0 -278.5 98t-102.5 264q0 18 4 68l14 120q4 10 -8 11h-125q-14 0 -21 8t-5 22z" />
<glyph unicode="&#x2122;" horiz-adv-x="1314" d="M166 1364l4 39q2 14 11 22.5t24 8.5h457q12 0 19 -8.5t5 -22.5l-4 -39q-2 -14 -11 -22.5t-22 -8.5h-168q-10 0 -10 -10l-72 -578q-2 -14 -11 -22t-21 -8h-54q-12 0 -19 8t-5 22l69 578q4 10 -8 10h-157q-15 0 -22 8.5t-5 22.5zM733 745l80 658q6 31 35 31h55q23 0 33 -21 l121 -223q2 -4 6 -4t6 4l176 223q14 21 39 21h53q14 0 21.5 -8.5t5.5 -22.5l-80 -658q-2 -14 -11 -22t-24 -8h-51q-14 0 -21.5 8t-5.5 22l60 486q2 6 -3 8t-7 -4l-136 -174q-14 -20 -38 -21h-3q-25 0 -34 21l-95 174q-2 6 -6 4t-6 -8l-59 -486q-2 -14 -10.5 -22t-22.5 -8 h-51q-14 0 -21.5 8t-5.5 22z" />
<glyph unicode="&#x25fc;" horiz-adv-x="1044" d="M0 0v1044h1044v-1044h-1044z" />
</font>
</defs>
</svg>
