<?xml version="1.0" standalone="no"?>
<!DOCTYPE svg PUBLIC "-//W3C//DTD SVG 1.1//EN" "http://www.w3.org/Graphics/SVG/1.1/DTD/svg11.dtd" >
<svg xmlns="http://www.w3.org/2000/svg" xmlns:xlink="http://www.w3.org/1999/xlink" version="1.1">
<metadata></metadata>
<defs>
<font id="barlowextralight" horiz-adv-x="1093" >
<font-face units-per-em="2048" ascent="1638" descent="-410" />
<missing-glyph horiz-adv-x="409" />
<glyph horiz-adv-x="0" />
<glyph unicode="&#xd;" horiz-adv-x="409" />
<glyph unicode=" "  horiz-adv-x="409" />
<glyph unicode="&#x09;" horiz-adv-x="409" />
<glyph unicode="&#xa0;" horiz-adv-x="409" />
<glyph unicode="!" horiz-adv-x="638" d="M215 106q0 39 28.5 68t69.5 29t71 -29t30 -68q0 -41 -30 -69.5t-71 -28.5t-69.5 29t-28.5 69zM279 1413q0 20 20 21h39q20 0 20 -21l-4 -936q0 -20 -20 -20h-31q-20 0 -20 20z" />
<glyph unicode="&#x22;" horiz-adv-x="448" d="M74 1399q0 20 20 20h45q20 0 21 -20l-10 -363q0 -20 -21 -20h-25q-20 0 -20 20zM291 1399q0 20 20 20h43q20 0 21 -20l-8 -363q0 -20 -21 -20h-27q-20 0 -20 20z" />
<glyph unicode="#" horiz-adv-x="1325" d="M172 453l2 30q0 20 21 21h145q10 0 10 8l58 383q0 8 -7 8h-135q-20 0 -20 21l2 30q0 20 20 21h146q10 0 10 8l59 383q2 18 21 18l39 -2q8 0 14 -6t4 -16l-57 -377q0 -8 6 -8h381q10 0 10 8l60 383q2 18 20 18l39 -2q8 0 14 -6t4 -16l-57 -377q0 -8 6 -8h146q20 0 20 -21 l-2 -30q-1 -21 -21 -21h-153q-10 0 -10 -8l-60 -383q0 -8 6 -8h146q20 0 20 -21l-2 -30q0 -20 -20 -21h-154q-10 0 -10 -8l-59 -381q-2 -18 -21 -18l-39 2q-8 0 -14 6t-4 16l57 375q0 8 -6 8h-381q-10 0 -10 -8l-60 -381q-2 -18 -20 -18l-39 2q-8 0 -14.5 6t-3.5 16l57 375 q0 8 -6 8h-137q-20 0 -21 21zM430 512q0 -8 6 -8h381q10 0 10 8l58 383q0 8 -6 8h-379q-10 0 -11 -8z" />
<glyph unicode="$" horiz-adv-x="1112" d="M135 340v78q0 20 21 20h34q20 0 21 -20v-66q0 -133 96 -215t264 -82q160 0 247 76t87 207q0 82 -42 142.5t-124 113.5t-235 129q-133 66 -203 112t-107.5 109.5t-37.5 163.5q0 154 87 241t251 99q8 0 8 8v143q0 20 20 21h23q20 0 20 -21v-141q0 -8 8 -8 q193 -6 296.5 -102.5t103.5 -257.5v-56q0 -20 -21 -20h-39q-20 0 -20 20v43q0 137 -91 219t-257 82q-150 0 -229.5 -68.5t-79.5 -197.5q0 -86 39.5 -140t104 -91t216.5 -107q205 -96 297 -191.5t92 -238.5q0 -158 -103.5 -256t-295.5 -104q-8 0 -8 -9v-131q0 -20 -21 -20 h-25q-20 0 -20 20l2 133q0 8 -8 9q-174 14 -272.5 109t-98.5 245z" />
<glyph unicode="%" horiz-adv-x="1757" d="M223 1178q0 76 38 139t102.5 100t140.5 37t139.5 -38t101 -101.5t37.5 -136.5q0 -76 -37.5 -139.5t-101 -101.5t-139.5 -38t-140.5 38t-102.5 101.5t-38 139.5zM285 1178q0 -92 63.5 -156t155.5 -64q90 0 153.5 64.5t63.5 155.5q0 90 -63.5 153.5t-153.5 63.5 q-92 0 -155.5 -63.5t-63.5 -153.5zM457 7q-4 7 2 18l776 1394q10 14 25 15h22q12 0 16.5 -7.5t-2.5 -17.5l-774 -1395q-6 -14 -24 -14h-25q-12 0 -16 7zM979 258q0 76 37 139.5t101.5 100.5t139.5 37q76 0 140.5 -37t101.5 -101.5t37 -138.5q0 -76 -37 -139.5t-101.5 -101 t-140.5 -37.5q-75 0 -139.5 37.5t-101.5 101t-37 139.5zM1038 258q0 -92 64.5 -155.5t154.5 -63.5q91 0 155.5 64.5t64.5 154.5t-64.5 153.5t-155.5 63.5q-90 0 -154.5 -63.5t-64.5 -153.5z" />
<glyph unicode="&#x26;" horiz-adv-x="1314" d="M133 301q0 145 83 247.5t237 213.5q6 4 0 10q-125 156 -166 231.5t-41 149.5q0 133 85 215t224 82q143 0 232.5 -78t89.5 -207q0 -125 -78 -215t-226 -194q-6 -4 0 -11q119 -147 211 -256l47 -57l99 -121q6 -8 12 0q51 63 139 181q12 16 29 6l29 -19q18 -12 6 -28 q-102 -137 -156 -199v-4q0 -8 10 -21l107 -127q23 -29 38 -46t23 -29q7 -7 7 -13q0 -12 -19 -12h-47q-14 0 -25 12l-141 170q-2 4 -6 3t-6 -3q-100 -106 -194.5 -152t-219.5 -46q-176 0 -279.5 83t-103.5 234zM213 307q0 -119 83 -185.5t224 -66.5q109 0 190 43t171 144 q6 6 0 12l-123 149q-35 45 -43 54l-203 243q-2 6 -10 2q-139 -104 -213 -191t-76 -204zM326 1153q0 -57 35.5 -121.5t152.5 -214.5q6 -6 12 -2q135 98 203 175t68 175q0 94 -66.5 151.5t-171.5 57.5q-106 0 -169.5 -58.5t-63.5 -162.5z" />
<glyph unicode="'" horiz-adv-x="235" d="M74 1407q0 20 20 20h47q20 0 21 -20l-10 -358q0 -20 -21 -21h-27q-20 1 -20 21z" />
<glyph unicode="(" horiz-adv-x="452" d="M-12 659q0 256 56 498t151 395q8 14 24 15h33q12 0 16 -7.5t-2 -17.5q-84 -156 -135 -393.5t-51 -484.5q0 -244 51 -478.5t135 -386.5q4 -8 4 -12q0 -12 -18 -12h-39q-17 0 -25 14q-90 152 -145 387.5t-55 482.5z" />
<glyph unicode=")" horiz-adv-x="452" d="M182 1554q0 12 19 13h32q16 0 25 -15q94 -154 150.5 -395.5t56.5 -497.5q0 -248 -55.5 -483t-145.5 -387q-8 -14 -24 -14h-39q-12 0 -16.5 7t1.5 17q84 152 135.5 386.5t51.5 478.5q0 248 -51.5 485t-135.5 393q-4 8 -4 12z" />
<glyph unicode="*" horiz-adv-x="811" d="M78 1001q0 12 10 19l246 141q4 2 4 6t-4 7l-246 141q-8 4 -10 12t2 16l8 17q4 8 12.5 10t16.5 -2l248 -143q4 -2 7 0t3 6v278q0 20 20 21h21q20 0 20 -21v-278q0 -4 3 -6t7 0l250 143q4 2 11 2q12 0 18 -10l8 -17q2 -4 2 -10q0 -12 -10 -18l-248 -141q-2 -2 -2 -6.5 t2 -6.5l248 -141q8 -4 10 -12.5t-2 -16.5l-8 -16q-4 -8 -12 -10t-17 2l-250 143q-4 2 -7 0t-3 -6v-279q0 -20 -20 -20h-21q-20 0 -20 20v279q0 4 -3 6t-7 0l-248 -143q-4 -2 -11 -2q-12 0 -18 10l-8 16q-2 4 -2 10z" />
<glyph unicode="+" horiz-adv-x="1038" d="M90 639v29q0 20 21 20h364q8 0 8 8v375q0 20 21 21h28q20 0 21 -21v-375q0 -8 8 -8h367q20 0 20 -20v-29q0 -20 -20 -21h-367q-8 0 -8 -8v-356q0 -20 -21 -21h-28q-20 0 -21 21v356q0 8 -8 8h-364q-20 0 -21 21z" />
<glyph unicode="," horiz-adv-x="540" d="M164 -123l98 420q4 18 23 18h32q10 0 15.5 -6t3.5 -16l-109 -420q-2 -18 -22 -18h-25q-10 0 -15 6t-1 16z" />
<glyph unicode="-" horiz-adv-x="794" d="M90 635v31q0 20 21 20h573q20 0 21 -20v-31q0 -20 -21 -21h-573q-21 1 -21 21z" />
<glyph unicode="." horiz-adv-x="565" d="M178 109q0 39 30 67.5t68 28.5q41 0 72 -29t31 -67q0 -41 -31 -70t-72 -29q-40 0 -69 29t-29 70z" />
<glyph unicode="/" horiz-adv-x="649" d="M76 23l420 1394q6 16 24 17h37q10 0 15.5 -6.5t2.5 -16.5l-419 -1395q-6 -16 -25 -16h-37q-10 0 -15 6t-3 17z" />
<glyph unicode="0" horiz-adv-x="1150" d="M168 369v696q0 176 110.5 281.5t294.5 105.5t297 -106.5t113 -280.5v-696q0 -174 -112.5 -280.5t-297.5 -106.5q-184 0 -294.5 105.5t-110.5 281.5zM248 365q0 -141 90 -226.5t235 -85.5q150 0 240 85t90 227v704q0 139 -90 225t-240 86q-145 0 -235 -86t-90 -225v-704z " />
<glyph unicode="1" horiz-adv-x="710" d="M133 1235v25q0 14 14 24l244 143q11 7 27 7h45q20 0 20 -21v-1393q0 -20 -20 -20h-39q-20 0 -21 20v1311q0 4 -3 6t-7 0l-235 -116l-11 -4q-6 0 -10 5t-4 13z" />
<glyph unicode="2" horiz-adv-x="1075" d="M133 1034v76q2 152 105.5 246t267.5 94q172 0 277.5 -96.5t105.5 -249.5q0 -176 -201 -440q-135 -180 -350 -457l-96 -125q-6 -10 4 -10h676q20 0 20 -21v-31q0 -20 -20 -20h-766q-21 0 -21 20v35q0 14 8 25l205 268q135 172 264 344q197 260 197 412q0 123 -83 198.5 t-220 75.5q-133 0 -214 -75.5t-79 -200.5v-68q0 -20 -20 -20h-39q-20 0 -21 20z" />
<glyph unicode="3" horiz-adv-x="1032" d="M119 401q0 20 20 21h39q20 0 21 -21q4 -88 10 -114q23 -104 98.5 -168t190.5 -64q104 0 173.5 49.5t100.5 143.5q25 74 25 180q0 129 -35 221q-72 170 -266 170q-31 0 -56 -6q-4 -2 -10 -2q-10 0 -16 8l-19 21q-6 6 -6 12q0 8 6 16l373 484q4 4 2 7t-6 3h-621 q-20 0 -20 20v31q0 20 20 21h709q20 0 20 -21v-37q0 -16 -8 -26l-352 -463q-4 -4 -2 -7t8 -3q238 -2 320 -203q41 -105 41 -248q0 -109 -29 -195q-37 -121 -126 -184t-226 -63q-139 0 -234.5 73.5t-128.5 198.5q-16 66 -16 145z" />
<glyph unicode="4" horiz-adv-x="1077" d="M115 428v33q0 10 6 24l440 934q6 14 25 15h39q10 0 14 -7.5t0 -17.5l-434 -917q-2 -4 0 -7.5t6 -3.5h528q8 0 9 8v361q0 20 20 20h39q20 0 20 -20v-361q0 -8 9 -8h84q20 0 20 -20v-33q0 -20 -20 -20h-84q-8 0 -9 -9v-379q0 -20 -20 -20h-39q-20 0 -20 20v379q0 8 -9 9 h-604q-20 0 -20 20z" />
<glyph unicode="5" horiz-adv-x="1030" d="M156 330v4q0 16 18 16h41q20 0 21 -20q4 -29 8 -43q20 -104 97 -167t189 -63q117 0 195 66.5t98 181.5q8 43 8 129q0 68 -8 148q-14 113 -93 171t-200 58q-106 0 -184 -46t-106 -128q-4 -16 -23 -16h-41q-20 0 -20 20v772q0 20 20 21h653q20 0 21 -21v-31q0 -20 -21 -20 h-585q-8 0 -8 -8l-3 -586q0 -4 3.5 -6t7.5 2q47 55 124.5 87t168.5 32q143 0 240 -69t122 -200q12 -84 12 -180q0 -98 -12 -162q-29 -133 -128 -210.5t-241 -77.5q-137 0 -233 73.5t-127 196.5q-10 35 -14 76z" />
<glyph unicode="6" horiz-adv-x="1032" d="M156 436v651q0 166 103 264.5t267 98.5q160 0 258.5 -94t98.5 -250v-14q0 -20 -21 -21h-39q-8 0 -14 5t-6 14v16q0 121 -77 196.5t-200 75.5q-127 0 -208.5 -78.5t-81.5 -212.5v-354q0 -6 3 -7t7 3q49 82 121.5 118t171.5 36q272 0 352 -254q24 -64 24 -197 q0 -125 -20 -184q-39 -125 -127 -194.5t-227 -69.5q-143 0 -239.5 71.5t-129.5 196.5q-16 66 -16 184zM236 432q0 -106 12 -151q18 -98 94 -161t193 -63q106 0 184 56.5t100 167.5q17 53 17 153q0 102 -17 156q-23 98 -97.5 159.5t-189.5 61.5q-113 0 -188.5 -61.5 t-95.5 -161.5q-12 -47 -12 -156z" />
<glyph unicode="7" horiz-adv-x="948" d="M90 1264v149q0 20 21 21h763q20 0 21 -21v-39q0 -8 -4 -24l-483 -1334q-6 -16 -25 -16h-43q-22 0 -16 23l483 1329q2 4 0 7t-6 3h-631q-8 0 -8 -8v-90q0 -20 -21 -21h-30q-20 0 -21 21z" />
<glyph unicode="8" horiz-adv-x="1042" d="M137 395q0 115 41 203q53 117 164 168q10 4 0 10q-84 41 -135 109q-70 92 -70 209q0 102 53 186q47 80 133.5 126t194.5 46q117 0 201 -46t131 -132q45 -84 45 -180q0 -117 -66 -209q-53 -70 -133 -107q-10 -6 0 -10q117 -55 166 -178q35 -86 35 -197q0 -150 -63 -254 q-47 -74 -128 -114.5t-188 -40.5q-111 0 -193.5 44t-129.5 128q-57 102 -58 239zM217 395q0 -127 51 -213q76 -127 250 -127q168 0 244 121q55 88 55 221q0 88 -26 162q-31 84 -99.5 130t-169.5 48h-6q-100 0 -166.5 -44t-99.5 -124q-33 -72 -33 -174zM217 1087 q0 -90 51 -165q41 -56 104.5 -87.5t139.5 -33.5h8q82 2 145.5 34.5t104.5 92.5q47 70 47 162q0 82 -39 147q-37 68 -103.5 105.5t-160.5 37.5q-86 0 -153.5 -38.5t-106.5 -106.5q-37 -70 -37 -148z" />
<glyph unicode="9" horiz-adv-x="1058" d="M143 1001q0 125 21 185q39 125 127 194.5t227 69.5q143 0 239.5 -71.5t129.5 -196.5q16 -66 16 -185v-651q0 -166 -103.5 -264t-267.5 -98q-160 0 -258 94t-98 250v14q0 20 21 20h39q20 0 20 -16v-18q0 -121 77 -197t199 -76q127 0 209 79t82 212v354q0 6 -3 7.5t-7 -2.5 q-49 -82 -122 -118t-171 -36q-272 0 -352 254q-25 63 -25 196zM223 999q0 -102 17 -155q23 -98 97.5 -159.5t188.5 -61.5q113 0 189 61t96 162q12 47 12 155q0 106 -12 152q-18 98 -94 160.5t-193 62.5q-106 0 -184 -56t-100 -167q-16 -53 -17 -154z" />
<glyph unicode=":" horiz-adv-x="669" d="M236 135q0 39 29.5 66.5t68.5 27.5q41 0 70.5 -27.5t29.5 -66.5q0 -41 -29.5 -69.5t-70.5 -28.5t-69.5 28.5t-28.5 69.5zM236 831q0 39 29.5 68t68.5 29q41 0 70.5 -29t29.5 -68t-29.5 -67.5t-70.5 -28.5t-69.5 28t-28.5 68z" />
<glyph unicode=";" horiz-adv-x="630" d="M223 838q0 39 30 67.5t69 28.5q41 0 70.5 -28.5t29.5 -67.5t-30 -68t-70 -29q-41 0 -70 28t-29 69zM229 -111l60 396q2 18 20 18h39q10 0 15.5 -6t3.5 -16l-74 -396q-2 -18 -23 -18h-22q-8 0 -14.5 6t-4.5 16z" />
<glyph unicode="&#x3c;" horiz-adv-x="1038" d="M90 526v45q0 16 14 25l820 387q4 2 10 2q14 0 14 -16v-39q0 -14 -14 -23l-754 -352q-8 -6 0 -12l754 -353q14 -8 14 -22v-39q0 -10 -7 -14t-17 0l-820 387q-14 8 -14 24z" />
<glyph unicode="=" horiz-adv-x="1038" d="M90 430v29q0 20 21 20h817q20 0 20 -20v-29q0 -20 -20 -21h-817q-21 1 -21 21zM90 872v29q0 20 21 20h817q20 0 20 -20v-29q0 -20 -20 -21h-817q-21 1 -21 21z" />
<glyph unicode="&#x3e;" horiz-adv-x="1038" d="M90 129v39q0 14 14 22l754 353q8 6 0 12l-754 352q-14 8 -14 23v39q0 10 7 14t18 0l819 -387q14 -8 14 -25v-45q0 -16 -14 -24l-819 -387q-5 -2 -11 -2q-14 0 -14 16z" />
<glyph unicode="?" horiz-adv-x="886" d="M92 1040v74q0 150 97.5 244t252.5 94q156 0 251 -93t95 -249q0 -90 -28.5 -155.5t-69.5 -108.5t-104 -94q-72 -57 -104.5 -98.5t-32.5 -102.5v-141q0 -20 -21 -21h-43q-20 1 -20 21v143q0 84 39.5 136t121.5 120q61 49 97 86t61 91t25 126q0 121 -74 193.5t-193 72.5 q-121 0 -195.5 -72.5t-74.5 -191.5v-76q0 -20 -20 -20l-39 2q-20 0 -21 20zM315 104q0 39 29 66t68 27t68.5 -28t29.5 -65q0 -39 -29.5 -67.5t-68.5 -28.5t-68 29t-29 67z" />
<glyph unicode="@" horiz-adv-x="1703" d="M154 469q0 244 114.5 415t293.5 257t372 86q182 0 322.5 -76t217 -211t76.5 -305q0 -31 -8 -105q-25 -180 -115 -282.5t-217 -102.5q-72 0 -125 33t-75 90q-4 12 -11 2q-35 -59 -93 -92t-136 -33q-104 0 -167.5 53.5t-74.5 139.5q-2 14 -2 41q0 51 13 137q6 55 15 102.5 t21 79.5q29 88 104 140.5t169 52.5q125 0 186 -88q2 -4 6 -2t4 6l7 55q2 18 20 19h27q10 0 16 -7.5t4 -15.5l-57 -448q-2 -10 -2 -33q0 -76 44 -123t116 -47q96 0 164.5 84t91.5 237q8 49 8 107q0 158 -72 277.5t-199 185t-286 65.5q-170 0 -332 -75.5t-266.5 -232.5 t-106.5 -384q-4 -172 58.5 -308t185.5 -214t299 -78q102 0 201.5 23.5t148.5 60.5q10 6 16.5 6t12.5 -8l12 -16q6 -6 6 -15q0 -8 -10 -14q-63 -47 -173 -74t-220 -27q-193 0 -329 85t-205.5 234.5t-69.5 342.5zM592 393q0 -20 2 -31q2 -70 51 -112.5t129 -42.5 q76 0 131.5 44t75.5 111q8 27 13 53.5t14 102.5q14 113 14 158q-2 68 -48 111.5t-122 43.5t-133 -44t-86 -109q-8 -23 -14.5 -57.5t-14.5 -102.5q-12 -86 -12 -125z" />
<glyph unicode="A" horiz-adv-x="1183" d="M82 23l457 1394q6 16 24 17h53q18 0 25 -17l461 -1394l2 -9q0 -14 -19 -14h-41q-18 0 -24 16l-92 283q-2 6 -8 6h-660q-6 0 -8 -6l-90 -283q-6 -16 -25 -16h-39q-23 0 -16 23zM279 383q-3 -4 0.5 -7t7.5 -3h608q4 0 7 3t1 7l-307 938q-2 4 -6 4t-6 -4z" />
<glyph unicode="B" horiz-adv-x="1290" d="M223 20v1393q0 20 21 21h463q182 0 290.5 -99.5t108.5 -267.5q0 -115 -56.5 -197t-160.5 -125q-6 -2 -6 -4t6 -4q111 -43 172 -134t61 -220q0 -176 -110.5 -279.5t-290.5 -103.5h-477q-20 0 -21 20zM303 82q0 -8 8 -8h410q143 0 232 87t89 226q0 145 -91 231.5t-242 86.5 h-398q-8 0 -8 -9v-614zM303 784q0 -8 8 -8h396q145 0 233 79t88 208q0 135 -88 217t-233 82h-396q-8 0 -8 -8v-570z" />
<glyph unicode="C" horiz-adv-x="1241" d="M172 416v604q0 127 57.5 225t161 151.5t240.5 53.5q135 0 238.5 -53.5t160.5 -150.5t57 -224v-2q0 -20 -20 -21l-39 -2q-20 0 -20 13v12q0 160 -104.5 258t-272.5 98q-172 0 -275.5 -98t-103.5 -258v-610q0 -160 103.5 -259.5t275.5 -99.5q168 0 272.5 99.5t104.5 259.5 v4q0 18 20 18l39 -2q20 0 20 -8v-10q0 -127 -57 -225.5t-160.5 -152.5t-238.5 -54q-137 0 -240.5 54t-161 152.5t-57.5 227.5z" />
<glyph unicode="D" horiz-adv-x="1265" d="M223 20v1393q0 20 21 21h469q188 0 298.5 -101.5t110.5 -277.5v-676q0 -176 -110.5 -277.5t-298.5 -101.5h-469q-21 0 -21 20zM303 80q0 -8 8 -8h406q152 0 238.5 84t86.5 227v666q0 145 -87 229t-238 84h-406q-8 0 -8 -8v-1274z" />
<glyph unicode="E" horiz-adv-x="1259" d="M223 20v1393q0 20 21 21h858q20 0 20 -21v-31q0 -20 -20 -20h-791q-8 0 -8 -8v-590q0 -8 8 -8h566q20 0 20 -21v-33q0 -20 -20 -20h-566q-8 0 -8 -8v-594q0 -8 8 -8h791q20 0 20 -21v-31q0 -20 -20 -20h-858q-20 0 -21 20z" />
<glyph unicode="F" horiz-adv-x="1171" d="M223 20v1393q0 20 21 21h856q20 0 20 -21v-31q0 -20 -20 -20h-789q-8 0 -8 -8v-590q0 -8 8 -8h563q20 0 21 -21v-33q0 -20 -21 -20h-563q-8 0 -8 -8v-654q0 -20 -20 -20h-39q-20 0 -21 20z" />
<glyph unicode="G" horiz-adv-x="1239" d="M172 410v614q0 127 57.5 223t161 149.5t240.5 53.5q135 0 237.5 -53.5t159.5 -148.5t57 -218v-31q0 -20 -20 -20h-39q-20 0 -20 20v31q0 156 -103.5 252t-271.5 96q-170 0 -274.5 -97t-104.5 -255v-618q0 -158 104.5 -255.5t276.5 -97.5q168 0 270.5 95.5t102.5 250.5 v224q0 8 -9 8h-333q-20 0 -21 20v31q0 20 21 21h401q20 0 20 -21v-268q0 -199 -124.5 -315.5t-329.5 -116.5q-137 0 -240.5 53t-161 150.5t-57.5 222.5z" />
<glyph unicode="H" horiz-adv-x="1363" d="M223 20v1393q0 20 21 21h39q20 0 20 -21v-649q0 -8 8 -8h744q8 0 8 8v649q0 21 20 21h39q20 0 21 -21v-1393q0 -20 -21 -20h-39q-20 0 -20 20v654q0 8 -8 8h-744q-8 0 -8 -8v-654q0 -20 -20 -20h-39q-20 0 -21 20z" />
<glyph unicode="I" horiz-adv-x="526" d="M223 20v1393q0 20 21 21h39q20 0 20 -21v-1393q0 -20 -20 -20h-39q-21 0 -21 20z" />
<glyph unicode="J" horiz-adv-x="1177" d="M70 395v105q0 20 20 20h39q20 0 21 -20v-107q0 -152 99 -245t263 -93t264.5 93.5t100.5 244.5v1020q0 20 20 21h37q20 0 20 -21v-1018q0 -123 -55 -216t-155.5 -144t-231.5 -51t-231.5 51t-155.5 144t-55 216z" />
<glyph unicode="K" horiz-adv-x="1236" d="M223 20v1393q0 20 21 21h39q20 0 20 -21v-745q0 -4 3 -6.5t7 2.5l725 759q10 10 25 11h43q12 0 16 -7.5t-4 -17.5l-520 -559q-4 -4 0 -12l569 -813q4 -4 4 -13q0 -4 -4 -8t-12 -4h-49q-16 0 -25 12l-538 766q-2 4 -6.5 4t-6.5 -2l-223 -225q-4 -4 -4 -10v-525 q0 -20 -20 -20h-39q-21 0 -21 20z" />
<glyph unicode="L" horiz-adv-x="1161" d="M223 20v1393q0 20 21 21h39q20 0 20 -21v-1333q0 -8 8 -8h744q20 0 20 -21v-31q0 -20 -20 -20h-811q-21 0 -21 20z" />
<glyph unicode="M" horiz-adv-x="1462" d="M223 20v1393q0 20 21 21h43q14 0 24 -15l412 -647q2 -2 6 -2t6 2l418 647q10 14 25 15h41q20 0 20 -21v-1393q0 -20 -20 -20h-39q-20 0 -21 20v1252q0 6 -4 7t-6 -5l-381 -596q-10 -14 -25 -14h-20q-14 0 -25 14l-385 596q-2 6 -6 5t-4 -7v-1252q0 -20 -20 -20h-39 q-21 0 -21 20z" />
<glyph unicode="N" horiz-adv-x="1392" d="M223 20v1393q0 20 21 21h41q14 0 24 -15l772 -1249q2 -6 6.5 -5t4.5 7v1241q0 20 20 21h39q20 0 20 -21v-1393q0 -20 -20 -20h-43q-14 0 -25 14l-770 1252q-2 6 -6 5t-4 -7v-1244q0 -20 -20 -20h-39q-21 0 -21 20z" />
<glyph unicode="O" horiz-adv-x="1273" d="M172 440v551q0 135 57.5 239.5t163 162t242.5 57.5q139 0 244.5 -57.5t164 -162t58.5 -239.5v-551q0 -135 -58.5 -238.5t-164 -160.5t-244.5 -57q-137 0 -242.5 57t-163 160.5t-57.5 238.5zM252 436q0 -172 105.5 -276.5t277.5 -104.5q174 0 280.5 104.5t106.5 276.5v557 q0 174 -106.5 279.5t-280.5 105.5q-172 0 -277.5 -105.5t-105.5 -279.5v-557z" />
<glyph unicode="P" horiz-adv-x="1206" d="M207 20v1397q0 20 20 21h518q170 0 273.5 -105.5t103.5 -277.5t-104.5 -275.5t-274.5 -103.5h-448q-8 0 -8 -8v-648q0 -20 -21 -20h-39q-20 0 -20 20zM287 754q0 -8 8 -9h446q136 0 218.5 85t82.5 223q0 141 -82.5 226t-218.5 85h-446q-8 0 -8 -8v-602z" />
<glyph unicode="Q" horiz-adv-x="1163" d="M135 422v588q0 131 55.5 230t157 154.5t234.5 55.5t234.5 -55.5t156.5 -154.5t55 -230v-588q0 -184 -107.5 -302t-289.5 -134q-8 0 -8 -9v-208q0 -20 -21 -21h-39q-20 0 -20 21v208q0 8 -8 9q-182 16 -291 134t-109 302zM215 420q0 -164 101.5 -264.5t265.5 -100.5 q166 0 266 100.5t100 264.5v594q0 164 -100 264t-266 100q-164 0 -265.5 -100t-101.5 -264v-594z" />
<glyph unicode="R" horiz-adv-x="1251" d="M223 20v1397q0 20 21 21h501q168 0 271.5 -104.5t103.5 -274.5q0 -145 -81 -243.5t-218 -121.5q-10 -4 -6 -10l320 -659q2 -4 2 -11q0 -14 -17 -14h-37q-18 0 -24 14l-324 668q-2 6 -8 6h-416q-8 0 -8 -8v-660q0 -20 -20 -20h-39q-20 0 -21 20zM303 766q0 -8 8 -8h432 q133 0 215 84t82 217q0 137 -81.5 221t-215.5 84h-432q-8 0 -8 -8v-590z" />
<glyph unicode="S" horiz-adv-x="1193" d="M133 346v72q0 20 21 20h34q20 0 21 -20v-66q0 -133 109.5 -215t295.5 -82q180 0 276.5 76t96.5 207q0 82 -41 141.5t-127 111.5t-244 120q-160 68 -240.5 112.5t-127.5 112.5t-47 172q0 166 111.5 254t314.5 88q221 0 344 -99.5t123 -267.5v-49q0 -20 -21 -20h-39 q-20 0 -20 20v43q0 137 -102.5 219t-288.5 82q-166 0 -255 -68.5t-89 -197.5q0 -86 39.5 -139t114.5 -93t231 -104q154 -63 248 -121.5t145 -133.5t51 -177q0 -164 -120 -262t-339 -98t-347 98t-128 264z" />
<glyph unicode="T" horiz-adv-x="1150" d="M102 1382v31q0 20 21 21h903q21 -1 21 -21v-31q0 -20 -21 -20h-412q-8 0 -8 -8v-1334q0 -20 -20 -20h-39q-20 0 -21 20v1334q0 8 -8 8h-395q-20 0 -21 20z" />
<glyph unicode="U" horiz-adv-x="1343" d="M207 428v985q0 20 20 21h39q20 0 21 -21v-991q0 -164 105.5 -265.5t279.5 -101.5t280.5 101.5t106.5 265.5v991q0 20 20 21h39q20 0 21 -21v-985q0 -131 -58.5 -232.5t-164 -156.5t-244.5 -55q-137 0 -242.5 55t-164 156.5t-58.5 232.5z" />
<glyph unicode="V" horiz-adv-x="1173" d="M80 1419q0 14 18 15h39q18 0 25 -17l420 -1288q2 -4 6 -4t6 4l420 1288q6 16 24 17h37q23 0 17 -23l-459 -1395q-6 -16 -25 -16h-45q-18 0 -24 16l-457 1395z" />
<glyph unicode="W" horiz-adv-x="1796" d="M57 1417q0 16 21 17h39q16 0 22 -17l365 -1249q2 -4 5 -4t5 4l334 1247q4 18 22 19h43q18 0 23 -19l344 -1247q2 -4 5 -4t5 4l367 1249q6 16 22 17h39q10 0 15.5 -6.5t3.5 -16.5l-410 -1395q-6 -16 -22 -16h-43q-18 0 -23 18l-340 1266q-2 4 -5 4t-5 -4l-338 -1266 q-4 -18 -23 -18h-41q-16 0 -22 16l-406 1395z" />
<glyph unicode="X" horiz-adv-x="1165" d="M86 1421q0 12 16 13h43q14 0 25 -15l408 -633q2 -2 6 -2t6 2l405 633q10 14 25 15h43q12 0 15 -7.5t-3 -17.5l-444 -688q-2 -6 0 -12l444 -684q4 -8 4 -13q0 -12 -16 -12h-43q-14 0 -25 14l-405 631q-2 4 -6 4t-6 -4l-408 -631q-10 -14 -25 -14h-43q-12 0 -15 7t3 18 l445 686q4 6 0 12l-445 686q-4 8 -4 12z" />
<glyph unicode="Y" horiz-adv-x="1114" d="M84 1421q0 12 18 13h39q14 0 25 -15l385 -657q2 -2 6 -2t6 2l385 657q10 14 25 15h39q12 0 16 -7.5t-2 -17.5l-428 -731q-2 -2 -2 -10v-648q0 -20 -21 -20h-36q-21 0 -21 20v648q0 8 -2 10l-428 731q-4 8 -4 12z" />
<glyph unicode="Z" horiz-adv-x="1116" d="M104 20v39q0 10 9 27l788 1266q2 4 0 7t-6 3h-770q-20 0 -21 20v31q0 20 21 21h850q20 0 20 -21v-39q0 -10 -8 -26l-788 -1266q-2 -4 0 -7t6 -3h770q20 0 20 -21v-31q0 -20 -20 -20h-850q-21 0 -21 20z" />
<glyph unicode="[" horiz-adv-x="743" d="M66 -203v1743q0 20 20 21h346q20 0 21 -21v-31q0 -20 -21 -20h-278q-8 0 -9 -8v-1624q0 -8 9 -9h280q20 0 21 -20v-31q0 -20 -21 -20h-348q-20 0 -20 20z" />
<glyph unicode="\" horiz-adv-x="649" d="M72 1417q0 16 20 17h37q18 0 25 -17l419 -1394l2 -7q0 -16 -20 -16h-37q-18 0 -24 16l-420 1395z" />
<glyph unicode="]" horiz-adv-x="743" d="M289 -172q0 20 20 20h281q8 0 8 9v1624q0 8 -8 8h-279q-20 0 -20 20v31q0 20 20 21h346q20 0 21 -21v-1743q-1 -20 -21 -20h-348q-20 0 -20 20v31z" />
<glyph unicode="^" horiz-adv-x="901" d="M100 664l306 753q6 16 22 17h43q16 0 23 -17l307 -753l2 -9q0 -16 -19 -16h-30q-16 0 -23 16l-274 686q-2 6 -6.5 6.5t-6.5 -6.5l-274 -686q-6 -16 -23 -16h-30q-11 0 -16 7t-1 18z" />
<glyph unicode="_" horiz-adv-x="954" d="M70 20v29q0 20 20 21h776q20 0 21 -21v-29q0 -20 -21 -20h-776q-20 0 -20 20z" />
<glyph unicode="`" horiz-adv-x="368" d="M80 1440q0 12 18 12h39q18 0 25 -14l125 -228q4 -8 4 -12q0 -12 -19 -12h-28q-14 0 -25 14l-135 227q-4 8 -4 13z" />
<glyph unicode="a" horiz-adv-x="1028" d="M113 268q0 150 112.5 236t309.5 86h249q8 0 9 8v107q0 123 -68 195.5t-211 72.5q-111 0 -182.5 -46t-87.5 -124q-6 -20 -25 -19l-43 7q-10 2 -15 7t-3 13q23 106 119 169.5t241 63.5q176 0 265 -91t89 -251v-682q0 -20 -20 -20h-39q-20 0 -20 20v99q0 4 -3.5 6t-7.5 -2 q-53 -68 -142 -103.5t-194 -35.5q-139 0 -236 69.5t-97 214.5zM193 272q0 -106 73.5 -161.5t190.5 -55.5q137 0 236.5 65.5t99.5 184.5v209q0 8 -9 8h-247q-154 0 -249 -66.5t-95 -183.5z" />
<glyph unicode="b" horiz-adv-x="1095" d="M190 20v1393q0 20 21 21h39q20 0 20 -21v-516q0 -6 3 -6t8 4q43 70 116.5 109.5t167.5 39.5q141 0 236.5 -74.5t126.5 -197.5q10 -45 13 -100.5t3 -159.5t-3 -158.5t-15 -99.5q-31 -123 -126 -196.5t-235 -73.5q-94 0 -166.5 38.5t-117.5 110.5q-4 4 -7.5 4t-3.5 -6v-111 q0 -20 -20 -20h-39q-20 0 -21 20zM270 512q0 -117 3 -160t14 -78q20 -94 91 -156.5t181 -62.5q111 0 189.5 61.5t97.5 157.5q10 41 14 85t4 157q0 115 -4 160t-16 82q-23 94 -100.5 154.5t-186.5 60.5q-106 0 -178 -61.5t-90 -155.5q-12 -37 -15.5 -81t-3.5 -163z" />
<glyph unicode="c" horiz-adv-x="1048" d="M154 516q0 158 24 256q31 123 130.5 197.5t242.5 74.5q141 0 243.5 -72.5t131.5 -180.5q6 -16 10 -54v-4q0 -14 -18 -18l-37 -4h-4q-14 0 -19 18l-6 29q-18 92 -101 153.5t-202 61.5t-199 -63.5t-98 -168.5q-18 -82 -19 -227q0 -139 17 -225q23 -104 101.5 -169 t197.5 -65t203 62.5t100 154.5l2 11q2 20 25 16l34 -6q20 -4 19 -23q-2 -4 -2 -12t-4 -20q-25 -111 -128.5 -182.5t-246.5 -71.5t-241.5 74.5t-131.5 199.5q-24 87 -24 245v13z" />
<glyph unicode="d" horiz-adv-x="1095" d="M152 512q0 104 3 159.5t13 100.5q31 123 126 197.5t236 74.5q94 0 168 -39.5t117 -109.5q4 -4 7 -4t3 6v516q1 21 21 21h39q20 0 20 -21v-1393q0 -20 -20 -20h-39q-20 0 -21 20v111q0 6 -3 6t-7 -4q-45 -72 -117.5 -110.5t-167.5 -38.5q-139 0 -234 73.5t-126 196.5 q-12 45 -15 99.5t-3 158.5zM231 516q0 -113 4.5 -157t14.5 -85q18 -96 97 -157.5t190 -61.5t181 62.5t91 156.5q10 35 13 78t3 160q0 119 -3 163t-15 81q-18 94 -90 155.5t-178 61.5q-109 0 -187 -60.5t-100 -154.5q-12 -37 -16.5 -82t-4.5 -160z" />
<glyph unicode="e" horiz-adv-x="1081" d="M154 516q0 94 3 150.5t13 101.5q31 125 130 200.5t243 75.5q152 0 252 -80.5t127 -215.5q8 -39 10 -92.5t2 -139.5q0 -23 -21 -22h-671q-8 0 -9 -9q0 -66 2.5 -119t8.5 -77q20 -106 101 -170t204 -64q106 0 182 49.5t113 133.5q6 18 24 12l27 -8q20 -6 14 -27 q-41 -104 -137 -167.5t-227 -63.5q-139 0 -235.5 71.5t-133.5 192.5q-22 82 -22 253v15zM233 567q0 -8 9 -8h604q8 0 8 8q0 131 -10 172q-23 104 -102.5 169t-198.5 65q-121 0 -200 -63.5t-99 -166.5q-10 -66 -11 -176z" />
<glyph unicode="f" horiz-adv-x="700" d="M78 975v33q0 20 20 20h133q8 0 9 8v66q0 174 63.5 253t231.5 79h49q20 0 20 -21v-31q0 -20 -20 -20h-45q-129 0 -174.5 -62.5t-45.5 -199.5v-64q0 -8 9 -8h247q20 0 21 -20v-33q0 -20 -21 -21h-247q-8 0 -9 -8v-926q0 -20 -20 -20h-39q-20 0 -20 20v926q0 8 -9 8h-133 q-20 0 -20 21z" />
<glyph unicode="g" horiz-adv-x="1077" d="M145 512q0 172 23 264q33 121 128 194.5t230 73.5q98 0 172 -39.5t119 -109.5q2 -6 6 -5t4 7v111q1 20 21 20h39q20 0 20 -20v-996q0 -219 -129 -324q-120 -97 -342 -97q-17 0 -35 1q-20 0 -20 21l2 35q0 20 20 20h28q198 0 293 80q103 86 103 266v123q0 6 -3 6t-7 -4 q-43 -72 -115.5 -111.5t-173.5 -39.5q-135 0 -231 72.5t-129 197.5q-23 82 -23 254zM227 516q0 -168 17 -225q25 -102 103.5 -168t191.5 -66q117 0 190.5 66.5t89.5 165.5q4 33 6 79t2 146t-2 146.5t-6 80.5q-16 100 -91 166t-189 66q-113 0 -190 -65.5t-105 -166.5 q-16 -66 -17 -225z" />
<glyph unicode="h" horiz-adv-x="1097" d="M188 20v1393q0 20 21 21h39q20 0 20 -21v-516q0 -6 3 -7t5 3q45 72 122 110.5t180 38.5q153 0 249.5 -95t96.5 -251v-676q0 -20 -21 -20h-39q-20 0 -20 20v662q0 127 -79 208t-202 81q-133 0 -214 -79t-81 -206v-666q0 -20 -20 -20h-39q-20 0 -21 20z" />
<glyph unicode="i" horiz-adv-x="489" d="M164 1331q0 31 23.5 52.5t58.5 21.5t57.5 -21.5t22.5 -52.5q0 -35 -22.5 -56.5t-57.5 -21.5t-58.5 22.5t-23.5 55.5zM205 20v988q0 20 20 20h39q20 0 21 -20v-988q0 -20 -21 -20h-39q-20 0 -20 20z" />
<glyph unicode="j" horiz-adv-x="460" d="M-49 -379q0 20 20 21q106 4 162.5 63t56.5 164v1139q0 20 21 20h39q20 0 20 -20v-1137q0 -143 -75.5 -220t-223.5 -81q-20 0 -20 20v31zM152 1329q0 35 22.5 55.5t56.5 20.5q37 0 59.5 -20.5t22.5 -55.5t-21.5 -56.5t-60.5 -21.5q-34 0 -56.5 21.5t-22.5 56.5z" />
<glyph unicode="k" horiz-adv-x="995" d="M188 20v1393q0 20 21 21h39q20 0 20 -21v-901q0 -4 3 -6t8 2l503 510q10 10 25 10h51q12 0 15.5 -7t-5.5 -17l-258 -269q-4 -4 -2 -10l314 -700l2 -9q0 -16 -19 -16h-41q-16 0 -22 16l-289 652q-4 8 -10 2l-271 -271q-4 -4 -4 -10v-369q0 -20 -20 -20h-39q-21 0 -21 20z " />
<glyph unicode="l" horiz-adv-x="458" d="M190 20v1393q0 20 21 21h39q20 0 20 -21v-1393q0 -20 -20 -20h-39q-21 0 -21 20z" />
<glyph unicode="m" horiz-adv-x="1695" d="M188 20v988q0 20 21 20h39q20 0 20 -20v-103q0 -6 3 -6t8 4q43 68 117.5 103.5t170.5 35.5q106 0 185 -48t116 -136q2 -4 4 -4t5 4q39 90 121.5 137t195.5 47q149 0 239.5 -89t90.5 -244v-689q0 -20 -21 -20h-39q-20 0 -20 20v674q0 127 -74 202t-194 75q-129 0 -205 -73 t-76 -200v-678q0 -20 -21 -20h-38q-20 0 -21 20v674q0 127 -73.5 202t-192.5 75q-129 0 -205 -73t-76 -200v-678q0 -20 -20 -20h-39q-20 0 -21 20z" />
<glyph unicode="n" horiz-adv-x="1097" d="M188 20v988q0 20 21 20h39q20 0 20 -20v-111q0 -6 3 -7t5 3q45 72 122 110.5t180 38.5q153 0 249.5 -95t96.5 -251v-676q0 -20 -21 -20h-39q-20 0 -20 20v662q0 127 -79 208t-202 81q-133 0 -214 -79t-81 -206v-666q0 -20 -20 -20h-39q-20 0 -21 20z" />
<glyph unicode="o" d="M154 516q0 96 3 153.5t15 102.5q33 123 133.5 197.5t241.5 74.5q143 0 244.5 -74.5t130.5 -197.5q10 -45 13 -100.5t3 -155.5q0 -104 -3 -158.5t-13 -99.5q-31 -125 -131.5 -199.5t-243.5 -74.5q-144 0 -242 74.5t-131 199.5q-12 47 -16 105.5t-4 152.5zM233 514 q0 -174 13 -225q23 -106 102.5 -170t198.5 -64t198.5 64.5t102.5 169.5q6 31 8 93t2 132q0 76 -2 136.5t-8 88.5q-20 104 -102 169t-201 65q-117 0 -197 -64.5t-102 -169.5q-12 -53 -13 -225z" />
<glyph unicode="p" horiz-adv-x="1112" d="M207 -385v1393q0 20 20 20h39q20 0 21 -20v-111q0 -6 3 -6t7 4q45 72 117.5 110.5t167.5 38.5q139 0 234 -73.5t126 -196.5q12 -45 15.5 -99t3.5 -159q0 -102 -3.5 -158.5t-13.5 -101.5q-31 -123 -126 -197.5t-236 -74.5q-94 0 -168 39.5t-117 109.5q-4 4 -7 4t-3 -6 v-516q0 -20 -21 -21h-39q-20 0 -20 21zM287 516q0 -119 3 -163t15 -81q18 -94 90 -155.5t178 -61.5q109 0 187 60.5t100 154.5q12 37 16.5 82t4.5 160q0 113 -4.5 157t-14.5 85q-18 96 -97 157.5t-190 61.5t-181 -62.5t-91 -156.5q-10 -35 -13 -78t-3 -160z" />
<glyph unicode="q" horiz-adv-x="1112" d="M152 516q0 104 3 158.5t15 99.5q31 123 126 196.5t234 73.5q94 0 167 -38.5t118 -110.5q4 -4 7 -4t3 6v111q1 20 21 20h39q20 0 20 -20v-1393q0 -20 -20 -21h-39q-20 0 -21 21v516q0 6 -3 6t-7 -4q-43 -70 -116.5 -109.5t-168.5 -39.5q-141 0 -236 74.5t-126 197.5 q-10 45 -13 101.5t-3 158.5zM231 512q0 -115 4.5 -160t16.5 -82q23 -94 100.5 -154.5t186.5 -60.5q106 0 177.5 61.5t90.5 155.5q12 37 15 81t3 163q0 117 -3 160t-13 78q-20 94 -91 156.5t-181 62.5q-111 0 -190 -61.5t-97 -157.5q-10 -41 -14.5 -85t-4.5 -157z" />
<glyph unicode="r" horiz-adv-x="729" d="M188 20v988q0 20 21 20h39q20 0 20 -20v-154q0 -6 3 -7t5 5q43 86 115 135t166 49h6q68 0 115 -22q16 -6 10 -27l-14 -41q-6 -20 -25 -10q-40 14 -89 14h-13q-80 0 -143.5 -43t-99.5 -114.5t-36 -157.5v-615q0 -20 -20 -20h-39q-20 0 -21 20z" />
<glyph unicode="s" horiz-adv-x="970" d="M133 254v29q0 20 21 20h36q20 0 21 -20v-27q0 -51 36 -96t100.5 -73t146.5 -28q123 0 199.5 58.5t76.5 150.5q0 63 -39 102.5t-89 59t-163 55.5q-111 35 -179.5 66t-114.5 84t-46 135q0 121 96.5 193.5t253.5 72.5q160 0 257.5 -74.5t97.5 -189.5v-6q0 -20 -21 -21h-35 q-20 0 -20 15v12q0 84 -77 140.5t-204 56.5q-123 0 -196.5 -54.5t-73.5 -140.5q0 -59 36 -97t91 -61.5t152 -54.5q121 -37 188.5 -64.5t116.5 -82t49 -142.5q0 -125 -97.5 -202.5t-256.5 -77.5q-107 0 -189 34.5t-128 95t-46 132.5z" />
<glyph unicode="t" horiz-adv-x="729" d="M86 979v29q0 20 20 20h125q8 0 9 8v232q0 20 20 20h37q20 0 20 -20v-232q0 -8 9 -8h247q20 0 21 -20v-29q-1 -21 -21 -21h-247q-8 0 -9 -8v-680q0 -111 51.5 -153.5t159.5 -42.5h45q20 0 21 -21v-30q0 -20 -21 -23h-51q-137 0 -209.5 55.5t-72.5 200.5v694q0 8 -9 8h-125 q-20 0 -20 21z" />
<glyph unicode="u" d="M172 324v684q0 20 21 20h38q20 0 21 -20v-666q0 -131 77 -208t203 -77q133 0 213 79t80 206v666q1 20 21 20h39q20 0 20 -20v-988q0 -20 -20 -20h-39q-20 0 -21 20v109q0 6 -3 6t-7 -4q-45 -72 -121 -108.5t-176 -36.5q-152 0 -249 91t-97 247z" />
<glyph unicode="v" horiz-adv-x="931" d="M76 1014q0 14 18 14h45q18 0 25 -16l295 -883q2 -4 6 -4t6 4l297 883q6 16 25 16h45q23 0 16 -22l-340 -990q-6 -16 -25 -16h-47q-18 0 -24 16l-340 990z" />
<glyph unicode="w" horiz-adv-x="1417" d="M74 1012q0 16 20 16h37q18 0 23 -16l247 -891q2 -4 6.5 -4t6.5 4l250 891q4 16 22 16h41q16 0 23 -16l251 -889q2 -4 6.5 -4t6.5 4l250 889q6 16 22 16h39q10 0 15.5 -6t2.5 -16l-290 -990q-6 -16 -23 -16h-43q-16 0 -22 16l-252 861q-2 4 -6.5 4t-6.5 -4l-247 -861 q-6 -16 -23 -16h-45q-17 0 -23 16l-286 990z" />
<glyph unicode="x" horiz-adv-x="921" d="M65.5 8q-4.5 8 4.5 17l344 483q4 6 0 12l-344 484q-4 4 -4 12q0 4 4 8t12 4h41q16 0 24 -12l308 -432q2 -2 6 -2t6 2l301 432q8 12 25 12h45q12 0 16 -8t-4 -16l-342 -484q-2 -6 0 -12l342 -483q4 -4 4 -13q0 -4 -4 -8t-12 -4h-43q-16 0 -25 12l-301 432q-2 4 -6 4.5 t-6 -4.5l-305 -432q-8 -12 -25 -12h-45q-12 0 -16.5 8z" />
<glyph unicode="y" horiz-adv-x="903" d="M57 1014q0 14 19 14h39q18 0 24 -16l310 -893q2 -4 6 -4t6 4l301 893q6 16 24 16h39q23 0 17 -22l-391 -1121q-45 -129 -84 -190.5t-89.5 -83t-138.5 -21.5h-14q-14 1 -14 21v31q0 20 14 20h14q78 2 120 27.5t74 91t81 213.5q4 8 0 12l-355 1000z" />
<glyph unicode="z" horiz-adv-x="899" d="M78 20v39q0 16 8 27l633 858q4 4 2 7t-6 3h-611q-20 0 -20 21v33q0 20 20 20h695q20 0 20 -20v-39q0 -16 -8 -27l-637 -858q-4 -4 -2 -7t6 -3h617q20 0 20 -21v-33q0 -20 -20 -20h-697q-20 0 -20 20z" />
<glyph unicode="{" horiz-adv-x="550" d="M66 659v33q0 18 18 21q49 12 72.5 56t23.5 128v440q0 119 43 171.5t142 52.5h100q20 0 20 -21v-31q0 -20 -20 -20h-86q-61 0 -90 -38t-29 -124v-426q0 -92 -21.5 -144t-68.5 -75q-10 -4 0 -10q47 -27 68.5 -79t21.5 -142v-441q0 -86 28.5 -124t90.5 -38h86q20 0 20 -20 v-31q0 -20 -20 -20h-100q-99 0 -142 52t-43 171v455q0 86 -23.5 130t-72.5 54q-18 4 -18 20z" />
<glyph unicode="|" horiz-adv-x="305" d="M113 -143v1679q0 20 20 20h39q20 0 21 -20v-1679q0 -20 -21 -21h-39q-20 1 -20 21z" />
<glyph unicode="}" horiz-adv-x="550" d="M66 -172q0 20 20 20h86q61 0 90 38t29 124v441q0 90 21.5 142t68.5 79q10 6 0 10q-47 23 -68.5 75t-21.5 144v426q0 86 -29 124t-90 38h-86q-20 0 -20 20v31q0 20 20 21h100q98 0 141.5 -52.5t43.5 -171.5v-440q0 -84 23.5 -128t72.5 -56q18 -2 18 -21v-33q0 -16 -18 -20 q-49 -10 -72.5 -54t-23.5 -130v-455q0 -119 -43 -171t-142 -52h-100q-20 0 -20 20v31z" />
<glyph unicode="~" horiz-adv-x="993" d="M98 573q31 59 87.5 93t127.5 34q53 0 92 -14t89 -41q10 -6 47 -25.5t75.5 -30.5t79.5 -11q45 0 76 20t66 64q12 14 28 4l23 -15q16 -12 6 -28q-37 -57 -84 -88t-115 -31q-63 0 -107 17.5t-116 56.5q-43 23 -79 36t-79 13q-104 0 -163 -86q-10 -20 -27 -6l-19 12 q-16 12 -8 26z" />
<glyph unicode="&#xa1;" horiz-adv-x="638" d="M215 1352q0 41 28.5 69.5t69.5 28.5t71 -28.5t30 -69.5q0 -39 -30 -68t-71 -29t-69.5 29t-28.5 68zM279 45l4 936q0 20 20 20h31q20 0 20 -20l4 -936q0 -20 -20 -20h-39q-20 0 -20 20z" />
<glyph unicode="&#xa2;" horiz-adv-x="1048" d="M154 700q0 158 24 256q29 106 106.5 177t194.5 90q8 2 8 10l-2 143q0 20 21 21h33q20 0 20 -21v-139q0 -8 8 -8q137 -6 233.5 -77t125.5 -177q6 -16 10 -53v-4q0 -14 -18 -19l-37 -4h-4q-14 0 -19 18l-6 29q-18 92 -101 153.5t-202 61.5t-199 -63.5t-98 -167.5 q-18 -82 -19 -228q0 -139 17 -225q23 -104 101.5 -168.5t197.5 -64.5t203 62.5t100 154.5l2 10q2 20 25 16l34 -6q20 -4 19 -22q-2 -4 -2 -12.5t-4 -20.5q-25 -106 -123 -177t-236 -77q-8 0 -8 -8v-140q0 -20 -20 -20h-33q-20 0 -21 20l2 144q0 8 -8 10q-115 18 -193.5 89 t-107.5 179q-25 90 -24 258z" />
<glyph unicode="&#xa3;" horiz-adv-x="1236" d="M223 672v26q0 20 21 21h162q8 0 8 8v342q0 180 104.5 280.5t288.5 100.5q244 0 330 -246l2 -6q0 -12 -17 -18l-39 -11l-6 -2q-12 0 -18 17q-61 197 -260 196q-145 0 -225 -81.5t-80 -229.5v-342q0 -8 8 -8h399q20 0 21 -21v-26q0 -20 -21 -21h-399q-8 0 -8 -8v-289 q0 -86 -27 -157.5t-72 -116.5q-6 -10 4 -10h742q20 0 20 -21v-29q0 -20 -20 -20h-838q-20 0 -20 20v33q0 16 14 25q51 29 84 103.5t33 168.5v293q0 8 -8 8h-162q-20 0 -21 21z" />
<glyph unicode="&#xa4;" horiz-adv-x="1017" d="M59 1012q0 8 9 16l24 21q6 6 14 6q6 0 15 -8l127 -127q6 -6 12 -2q102 84 242 83q137 0 248 -90q6 -6 12 0l135 136q14 14 29 2l24 -21q16 -14 2 -29l-141 -139q-6 -4 -2 -12q80 -98 80 -232q0 -137 -84 -239q-4 -6 2 -12l131 -132q6 -6 6 -12q0 -8 -8 -16l-25 -21 q-6 -6 -14 -6q-6 0 -14 8l-129 127q-6 6 -13 2q-102 -84 -239 -84q-131 0 -232 78q-6 4 -12 -2l-123 -121q-14 -14 -29 -2l-24 21q-14 16 -2 28l125 123q6 6 0 13q-92 109 -92 247q0 133 86 240q4 6 -2 12l-131 131q-6 6 -7 13zM186 616q0 -86 42 -157.5t115 -113.5t159 -42 q84 0 156.5 42t114.5 113.5t42 157.5q0 84 -42 157t-114.5 115t-156.5 42q-86 0 -159 -42t-115 -115t-42 -157z" />
<glyph unicode="&#xa5;" horiz-adv-x="1411" d="M233 1421q0 12 19 13h39q14 0 24 -15l385 -657q2 -2 6.5 -2t6.5 2l385 657q10 14 24 15h39q13 0 17 -7.5t-2 -17.5l-408 -698q-2 -4 0 -7.5t6 -3.5h264q20 0 21 -20v-18q0 -20 -21 -21h-284q-8 0 -9 -8v-193q0 -8 9 -8h284q20 0 21 -20v-19q0 -20 -21 -20h-284 q-8 0 -9 -8v-345q0 -20 -20 -20h-37q-20 0 -20 20v345q0 8 -9 8h-294q-20 0 -21 20v19q0 20 21 20h294q8 0 9 8v193q0 8 -9 8h-294q-20 0 -21 21v18q0 20 21 20h274q4 0 6 3.5t0 7.5l-407 698q-4 8 -5 12z" />
<glyph unicode="&#xa6;" horiz-adv-x="305" d="M113 -143v704q0 20 20 21h39q20 0 21 -21v-704q0 -20 -21 -21h-39q-20 1 -20 21zM113 831v705q0 20 20 20h39q20 0 21 -20v-705q0 -20 -21 -20h-39q-20 0 -20 20z" />
<glyph unicode="&#xa7;" horiz-adv-x="901" d="M133 500q0 113 53 198q66 98 179 125q6 2 6 4t-6 4q-92 35 -151.5 118t-59.5 188q0 82 37.5 153.5t106.5 114.5t159 43q131 0 213 -87t86 -224v-27q0 -20 -21 -20h-39q-20 0 -20 20v23q0 106 -61.5 175.5t-155.5 69.5q-100 0 -163 -74.5t-63 -177.5q0 -102 68 -164.5 t195 -103.5q66 -20 119 -49t96 -82q63 -82 63 -207q0 -115 -51 -205q-59 -104 -166 -122q-8 -2 0 -7q92 -37 148.5 -113.5t56.5 -183.5q0 -135 -86 -224t-221 -89q-136 0 -215.5 89t-79.5 241l-2 31q0 20 20 20h39q20 0 21 -20v-25q2 -121 62 -193.5t159 -72.5 q96 0 158.5 72.5t62.5 177.5q0 84 -41 137t-95.5 79.5t-129.5 49.5q-84 25 -142.5 61.5t-95.5 100.5q-43 78 -43 176zM213 498q0 -92 37 -148q70 -109 203 -108q141 0 204 106q37 68 37 158q0 113 -51 176q-76 92 -188 92q-63 0 -117.5 -36t-87.5 -91q-37 -63 -37 -149z" />
<glyph unicode="&#xa8;" horiz-adv-x="610" d="M70 1329q0 29 22.5 50.5t55.5 21.5q31 0 51 -21.5t20 -50.5q0 -33 -20.5 -53.5t-50.5 -20.5q-35 0 -56.5 20.5t-21.5 53.5zM393 1329q0 29 22 50.5t54 21.5q31 0 52.5 -20.5t21.5 -51.5q0 -33 -20.5 -53.5t-53.5 -20.5q-32 0 -54 20.5t-22 53.5z" />
<glyph unicode="&#xa9;" horiz-adv-x="1826" d="M172 713q0 209 95 376.5t265 264t381 96.5t381 -96.5t266.5 -264t96.5 -376.5q0 -205 -96.5 -372t-266.5 -262t-381 -95t-381 95t-265 262t-95 372zM233 713q0 -188 88.5 -341t243 -241t348.5 -88q195 0 349.5 88t241.5 240.5t87 341.5q0 193 -87 347t-241.5 242.5 t-349.5 88.5t-350 -88.5t-242.5 -243t-87.5 -346.5zM702 547v340q0 90 57.5 144t155.5 54q96 0 154.5 -54t58.5 -142v-4q0 -18 -20 -19l-21 2q-20 0 -20 13v12q0 61 -43 99t-109 38q-70 0 -111.5 -38t-41.5 -99v-356q0 -59 42 -97.5t111 -38.5q66 0 109 38t43 98v6 q0 10 6 16t14 6h21q20 0 20 -8v-12q0 -88 -59 -143.5t-154 -55.5q-98 0 -155.5 55.5t-57.5 145.5z" />
<glyph unicode="&#xaa;" horiz-adv-x="659" d="M57 549v24q1 21 21 21h483q20 0 21 -21v-24q0 -20 -21 -21h-483q-20 0 -21 21zM57 936q0 100 75 157.5t204 57.5h158q8 0 8 8v62q0 78 -45 126t-135 48q-68 0 -114 -28t-58 -77q-6 -18 -25 -16l-21 4q-23 4 -16 22q14 68 78.5 109t159.5 41q115 0 177 -61.5t62 -163.5 v-445q0 -20 -20 -20h-23q-20 0 -20 20v51q0 4 -3 5.5t-7 -2.5q-33 -41 -88.5 -62.5t-122.5 -21.5q-96 0 -160 46t-64 140zM117 940q0 -70 47 -103.5t123 -33.5q88 0 151.5 43t63.5 123v118q0 8 -8 9h-156q-100 0 -160.5 -40t-60.5 -116z" />
<glyph unicode="&#xab;" horiz-adv-x="1134" d="M221 575.5q0 8.5 6 14.5l283 330q10 12 25 12h34q12 0 15.5 -7t-4.5 -18l-279 -325q-2 -6 0 -13l279 -325q6 -7 6 -13q0 -12 -17 -12h-34q-14 0 -25 12l-283 330q-6 6 -6 14.5zM532.5 575.5q-0.5 8.5 6.5 14.5l282 330q10 12 25 12h35q12 0 15 -7t-5 -18l-279 -325 q-2 -6 0 -13l279 -325q6 -7 6 -13q0 -12 -16 -12h-35q-14 0 -25 12l-282 330q-6 6 -6.5 14.5z" />
<glyph unicode="&#xac;" horiz-adv-x="1038" d="M90 639v29q1 20 21 20h817q20 0 20 -20v-283q0 -20 -20 -20h-33q-20 0 -21 20v225q0 8 -8 8h-755q-20 0 -21 21z" />
<glyph unicode="&#xad;" horiz-adv-x="794" d="M90 635v31q0 20 21 20h573q20 0 21 -20v-31q0 -20 -21 -21h-573q-21 1 -21 21z" />
<glyph unicode="&#xae;" horiz-adv-x="929" d="M70 1073q0 106 53 196.5t143 142.5t199 52q108 0 199.5 -52t144.5 -142t53 -197q0 -109 -53 -199t-144.5 -142t-199.5 -52q-109 0 -199 52t-143 142.5t-53 198.5zM123 1073q0 -92 46 -170t125 -124t171 -46q94 0 172 46t124 124t46 170t-46 170t-124 123t-172 45 q-92 0 -171 -45t-125 -123t-46 -170zM367 909v322q0 20 20 20h98q45 0 74 -29.5t29 -76.5q0 -33 -15.5 -56.5t-42.5 -33.5q-6 -2 -4 -11l58 -131l2 -8q0 -16 -19 -16h-10q-16 0 -22 16l-58 135q-2 6 -8 7h-45q-8 0 -8 -9v-129q0 -20 -21 -20h-8q-20 0 -20 20zM416 1094 q0 -8 8 -9h57q27 0 42.5 16.5t15.5 43.5q0 29 -15.5 46t-42.5 17h-57q-8 0 -8 -8v-106z" />
<glyph unicode="&#xaf;" horiz-adv-x="526" d="M0 1251v25q0 20 20 20h486q20 0 20 -20v-25q0 -20 -20 -20h-486q-20 0 -20 20z" />
<glyph unicode="&#xb0;" horiz-adv-x="784" d="M70 1333q0 88 43 162t116.5 117t161.5 43q90 0 164 -43t117 -117t43 -162t-43 -161.5t-117 -116.5t-164 -43q-88 0 -161.5 43t-116.5 116.5t-43 161.5zM135 1333q0 -109 75 -183.5t181 -74.5q109 0 183.5 75t74.5 183q0 109 -74.5 183.5t-183.5 74.5t-182.5 -74.5 t-73.5 -183.5z" />
<glyph unicode="&#xb1;" horiz-adv-x="1038" d="M90 21v29q0 20 21 20h817q20 0 20 -20v-29q0 -20 -20 -21h-817q-21 1 -21 21zM90 668v29q0 20 21 20h364q8 0 8 8v375q0 20 21 21h28q20 0 21 -21v-375q0 -8 8 -8h367q20 0 20 -20v-29q0 -20 -20 -21h-367q-8 0 -8 -8v-356q0 -20 -21 -21h-28q-20 0 -21 21v356q0 8 -8 8 h-364q-20 0 -21 21z" />
<glyph unicode="&#xb2;" horiz-adv-x="651" d="M76 1553v41q2 92 66.5 149t166.5 57q106 0 172 -60t66 -153q0 -104 -117 -258q-98 -131 -260 -331q-6 -10 4 -11h381q20 0 20 -20v-17q0 -20 -20 -20h-457q-20 0 -20 20v23q0 14 8 25l51 65q147 180 228 287q117 152 116 237q0 70 -47 112t-125 42q-76 0 -122 -43 t-44 -113v-32q0 -20 -20 -21h-27q-20 0 -20 21z" />
<glyph unicode="&#xb3;" horiz-adv-x="657" d="M92 1163q0 20 21 21h26q20 0 21 -21q0 -27 4 -59q10 -57 54 -92t108 -35q102 0 145 82q27 57 27 127q0 86 -31 141q-41 82 -141 82q-20 0 -31 -4h-8q-12 0 -19 8l-10 13q-6 6 -6 14t6 14l213 264q4 4 2 7.5t-6 3.5h-350q-20 0 -21 20v17q0 20 21 20h422q20 0 20 -20v-23 q0 -14 -8 -25l-197 -249q-4 -4 -2 -7.5t8 -3.5q117 -8 170 -106q35 -70 35 -166q0 -90 -30 -152q-29 -57 -82.5 -87.5t-126.5 -30.5q-84 0 -140.5 45t-81.5 121q-12 33 -12 81z" />
<glyph unicode="&#xb4;" horiz-adv-x="368" d="M80 1193q-4 7 2 17l125 228q6 14 24 14h39q12 0 16.5 -7t-2.5 -18l-135 -227q-10 -14 -24 -14h-29q-12 0 -16 7z" />
<glyph unicode="&#xb5;" horiz-adv-x="1112" d="M188 -389v1397q0 20 21 20h39q20 0 20 -20v-666q0 -131 77 -208t204 -77q133 0 213 79t80 206v666q0 20 20 20h39q20 0 21 -20v-988q0 -20 -21 -20h-39q-20 0 -20 20v109q0 6 -3 6t-8 -4q-45 -72 -120.5 -108.5t-175.5 -36.5q-78 0 -143.5 25.5t-112.5 72.5q-10 6 -11 -4 v-469q0 -20 -20 -21h-39q-20 0 -21 21z" />
<glyph unicode="&#xb6;" horiz-adv-x="1136" d="M84 973q0 127 55.5 232.5t151.5 167t213 61.5h391q20 0 20 -21v-1802q0 -20 -20 -21h-25q-20 0 -20 21v1749q0 8 -8 8h-289q-8 0 -8 -8v-1749q0 -20 -21 -21h-28q-20 0 -21 21v893q0 8 -8 8q-106 4 -193.5 67.5t-138.5 167t-51 226.5z" />
<glyph unicode="&#xb7;" horiz-adv-x="198" d="M-45 109q0 39 30 67.5t68 28.5q41 0 72 -29t31 -67q0 -41 -31 -70t-72 -29q-40 0 -69 29t-29 70z" />
<glyph unicode="&#xb8;" horiz-adv-x="260" d="M4 -344l4 16q6 18 27 17q25 -6 47 -6q49 0 80 26.5t31 83.5q0 86 -105 182q-10 10 -10 17q0 8 14 8h19q16 0 26 -8q123 -94 123 -205q0 -14 -4 -43q-14 -63 -60 -91t-110 -28q-35 0 -66 6q-20 2 -16 25z" />
<glyph unicode="&#xb9;" horiz-adv-x="368" d="M86 1714v13q0 16 16 22l80 35q13 6 25 6h35q20 0 20 -20v-820q0 -20 -20 -20h-27q-20 0 -20 20v760q0 4 -3.5 7.5t-5.5 0.5l-77 -22l-7 -2q-16 0 -16 20z" />
<glyph unicode="&#xba;" horiz-adv-x="690" d="M78 549v24q0 20 20 21h496q20 0 20 -21v-24q0 -20 -20 -21h-496q-20 1 -20 21zM90 1102q0 117 12 168q23 82 88.5 131t157.5 49t156.5 -49t87.5 -131q8 -31 10 -75t2 -93q0 -51 -2 -95t-10 -75q-23 -82 -88.5 -131t-155.5 -49q-92 0 -155.5 48t-88.5 132q-14 55 -14 170z M156 1102q0 -106 8 -146q16 -70 64 -108.5t120 -38.5q70 0 119 40t63 107q8 31 9 146q0 115 -7 143q-16 68 -65 108t-121 40t-119 -40t-63 -108q-8 -41 -8 -143z" />
<glyph unicode="&#xbb;" horiz-adv-x="1134" d="M240 920q0 12 16 12h35q14 0 24 -12l283 -330q6 -6 6 -14.5t-6 -14.5l-283 -330q-8 -12 -24 -12h-35q-12 0 -15 7t5 18l278 325q4 6 0 13l-278 325q-6 6 -6 13zM551 920q0 12 16 12h35q14 0 24 -12l283 -330q6 -6 6 -14.5t-6 -14.5l-283 -330q-8 -12 -24 -12h-35 q-12 0 -15 7t5 18l278 325q4 6 0 13l-278 325q-6 6 -6 13z" />
<glyph unicode="&#xbc;" horiz-adv-x="1603" d="M86 1357v13q0 16 16 22l80 35q13 6 25 6h35q20 0 20 -20v-820q0 -20 -20 -20h-27q-20 0 -20 20v760q0 4 -3.5 7.5t-5.5 0.5l-77 -22l-7 -2q-16 0 -16 20zM216 7q-3 7 3 18l897 1394q10 14 24 15h29q12 0 15 -7.5t-3 -17.5l-899 -1395q-10 -14 -24 -14h-27q-12 0 -15 7z M1008 260v21q0 10 6 24l254 541q6 14 22 14h25q10 0 14 -7t0 -17l-246 -525q-2 -4 0 -7t6 -3h291q8 0 8 8v197q0 20 21 20h27q20 0 20 -20v-197q0 -8 8 -8h39q21 0 21 -20v-21q0 -20 -21 -20h-39q-8 0 -8 -9v-211q0 -20 -20 -20h-27q-20 0 -21 20v211q0 8 -8 9h-352 q-20 0 -20 20z" />
<glyph unicode="&#xbd;" horiz-adv-x="1593" d="M86 1357v13q0 16 16 22l80 35q13 6 25 6h35q20 0 20 -20v-820q0 -20 -20 -20h-27q-20 0 -20 20v760q0 4 -3.5 7.5t-5.5 0.5l-77 -22l-7 -2q-16 0 -16 20zM216 7q-3 7 3 18l897 1394q10 14 24 15h29q12 0 15 -7.5t-3 -17.5l-899 -1395q-10 -14 -24 -14h-27q-12 0 -15 7z M1018 623v41q2 92 66.5 149t166.5 57q106 0 172 -60t66 -153q0 -104 -117 -258q-98 -131 -260 -331q-6 -10 4 -11h381q20 0 20 -20v-17q0 -20 -20 -20h-457q-20 0 -20 20v23q0 14 8 25l51 65q147 180 228 287q117 152 116 237q0 70 -47 112t-125 42q-76 0 -122 -43t-44 -113 v-32q0 -20 -20 -21h-27q-20 0 -20 21z" />
<glyph unicode="&#xbe;" horiz-adv-x="1814" d="M92 827q0 20 21 21h26q20 0 21 -21q0 -27 4 -59q10 -57 54 -92t108 -35q102 0 145 82q27 57 27 127q0 86 -31 141q-41 82 -141 82q-20 0 -31 -4h-8q-12 0 -19 8l-10 13q-6 6 -6 14t6 14l213 264q4 4 2 7.5t-6 3.5h-350q-20 0 -21 20v17q0 20 21 20h422q20 0 20 -20v-23 q0 -14 -8 -25l-197 -249q-4 -4 -2 -7.5t8 -3.5q117 -8 170 -106q35 -70 35 -166q0 -90 -30 -152q-29 -57 -82.5 -87.5t-126.5 -30.5q-84 0 -140.5 45t-81.5 121q-12 33 -12 81zM427 7q-3 7 3 18l897 1394q10 14 24 15h29q12 0 15 -7.5t-3 -17.5l-899 -1395q-10 -14 -24 -14 h-27q-12 0 -15 7zM1219 260v21q0 10 6 24l254 541q6 14 22 14h25q10 0 14 -7t0 -17l-246 -525q-2 -4 0 -7t6 -3h291q8 0 8 8v197q0 20 21 20h27q20 0 20 -20v-197q0 -8 8 -8h39q21 0 21 -20v-21q0 -20 -21 -20h-39q-8 0 -8 -9v-211q0 -20 -20 -20h-27q-20 0 -21 20v211 q0 8 -8 9h-352q-20 0 -20 20z" />
<glyph unicode="&#xbf;" horiz-adv-x="886" d="M98 -86q0 90 29 155.5t70 108.5t104 94q72 57 104.5 98.5t32.5 102.5v141q0 20 21 21h43q20 -1 20 -21v-143q0 -84 -40 -136t-122 -120q-61 -49 -97 -86t-60.5 -91t-24.5 -126q0 -121 74 -193.5t192 -72.5q121 0 196 72.5t75 191.5v76q0 20 20 20l39 -2q20 0 21 -20v-74 q0 -150 -97.5 -244t-253.5 -94t-251 93t-95 249zM377 920q0 39 29.5 67.5t68.5 28.5q41 0 68.5 -27.5t27.5 -68.5q0 -39 -28.5 -66t-67.5 -27t-68.5 28t-29.5 65z" />
<glyph unicode="&#xc0;" horiz-adv-x="1183" d="M82 23l457 1394q6 16 24 17h53q18 0 25 -17l461 -1394l2 -9q0 -14 -19 -14h-41q-18 0 -24 16l-92 283q-2 6 -8 6h-660q-6 0 -8 -6l-90 -283q-6 -16 -25 -16h-39q-23 0 -16 23zM279 383q-3 -4 0.5 -7t7.5 -3h608q4 0 7 3t1 7l-307 938q-2 4 -6 4t-6 -4zM400 1846 q0 12 18 12h39q18 0 25 -14l125 -228q4 -8 4 -12q0 -12 -19 -12h-28q-14 0 -25 14l-135 227q-4 8 -4 13z" />
<glyph unicode="&#xc1;" horiz-adv-x="1183" d="M82 23l457 1394q6 16 24 17h53q18 0 25 -17l461 -1394l2 -9q0 -14 -19 -14h-41q-18 0 -24 16l-92 283q-2 6 -8 6h-660q-6 0 -8 -6l-90 -283q-6 -16 -25 -16h-39q-23 0 -16 23zM279 383q-3 -4 0.5 -7t7.5 -3h608q4 0 7 3t1 7l-307 938q-2 4 -6 4t-6 -4zM529 1599 q-4 7 2 17l125 228q6 14 24 14h39q12 0 16.5 -7t-2.5 -18l-135 -227q-10 -14 -24 -14h-29q-12 0 -16 7z" />
<glyph unicode="&#xc2;" horiz-adv-x="1183" d="M82 23l457 1394q6 16 24 17h53q18 0 25 -17l461 -1394l2 -9q0 -14 -19 -14h-41q-18 0 -24 16l-92 283q-2 6 -8 6h-660q-6 0 -8 -6l-90 -283q-6 -16 -25 -16h-39q-23 0 -16 23zM279 383q-3 -4 0.5 -7t7.5 -3h608q4 0 7 3t1 7l-307 938q-2 4 -6 4t-6 -4zM366 1581.5 q-4 8.5 4 16.5l170 221q8 12 27 12h43q18 0 27 -12l170 -221q4 -4 4 -12q0 -4 -4.5 -8.5t-12.5 -4.5h-30q-18 0 -27 13l-141 186q-2 4 -6.5 4t-6.5 -4l-143 -186q-8 -12 -27 -13h-30q-13 0 -17 8.5z" />
<glyph unicode="&#xc3;" horiz-adv-x="1183" d="M82 23l457 1394q6 16 24 17h53q18 0 25 -17l461 -1394l2 -9q0 -14 -19 -14h-41q-18 0 -24 16l-92 283q-2 6 -8 6h-660q-6 0 -8 -6l-90 -283q-6 -16 -25 -16h-39q-23 0 -16 23zM279 383q-3 -4 0.5 -7t7.5 -3h608q4 0 7 3t1 7l-307 938q-2 4 -6 4t-6 -4zM342 1702 q59 90 156 90q33 0 56.5 -11t64.5 -36q33 -23 55 -34t45 -11q33 0 58.5 13.5t52.5 50.5q10 16 26 6l12 -6q10 -6 11 -19q0 -12 -8 -22q-31 -45 -72 -66.5t-80 -21.5q-35 0 -62.5 13t-58.5 36q-33 25 -52.5 34t-45.5 9q-35 0 -58.5 -11.5t-50.5 -45.5q-12 -16 -28 -7l-15 11 q-14 12 -6 28z" />
<glyph unicode="&#xc4;" horiz-adv-x="1183" d="M82 23l457 1394q6 16 24 17h53q18 0 25 -17l461 -1394l2 -9q0 -14 -19 -14h-41q-18 0 -24 16l-92 283q-2 6 -8 6h-660q-6 0 -8 -6l-90 -283q-6 -16 -25 -16h-39q-23 0 -16 23zM279 383q-3 -4 0.5 -7t7.5 -3h608q4 0 7 3t1 7l-307 938q-2 4 -6 4t-6 -4zM354 1735 q0 29 22.5 50.5t55.5 21.5q31 0 51 -21.5t20 -50.5q0 -33 -20.5 -53.5t-50.5 -20.5q-35 0 -56.5 20.5t-21.5 53.5zM677 1735q0 29 22 50.5t54 21.5q31 0 52.5 -20.5t21.5 -51.5q0 -33 -20.5 -53.5t-53.5 -20.5q-32 0 -54 20.5t-22 53.5z" />
<glyph unicode="&#xc5;" horiz-adv-x="1183" d="M82 23l457 1394q6 16 24 17h53q18 0 25 -17l461 -1394l2 -9q0 -14 -19 -14h-41q-18 0 -24 16l-92 283q-2 6 -8 6h-660q-6 0 -8 -6l-90 -283q-6 -16 -25 -16h-39q-23 0 -16 23zM279 383q-3 -4 0.5 -7t7.5 -3h608q4 0 7 3t1 7l-307 938q-2 4 -6 4t-6 -4zM383 1782 q0 84 60.5 143.5t146.5 59.5t146.5 -59.5t60.5 -143.5t-60.5 -143t-146.5 -59t-146.5 59t-60.5 143zM441 1782q0 -61 44 -104t105 -43q62 0 106 43t44 104t-44 104.5t-106 43.5q-61 0 -105 -43t-44 -105z" />
<glyph unicode="&#xc6;" horiz-adv-x="1849" d="M85 7q-5 7 1 18l748 1394q6 14 24 15h834q20 0 20 -21v-31q0 -20 -20 -20h-717q-8 0 -8 -8v-590q0 -8 8 -8h493q20 0 21 -21v-33q0 -20 -21 -20h-493q-8 0 -8 -8v-594q0 -8 8 -8h717q20 0 20 -21v-31q0 -20 -20 -20h-785q-20 0 -20 20v277q0 8 -8 8h-547q-6 0 -10 -6 l-150 -285q-6 -14 -25 -14h-45q-12 0 -17 7zM369 383q-4 -10 4 -10h506q8 0 8 8v956q0 6 -3 6t-7 -4z" />
<glyph unicode="&#xc7;" horiz-adv-x="1241" d="M172 416v604q0 127 57.5 225t161 151.5t240.5 53.5q135 0 238.5 -53.5t160.5 -150.5t57 -224v-10q0 -4 -6 -8.5t-14 -4.5l-39 -2q-20 0 -20 13v12q0 160 -104.5 258t-272.5 98q-172 0 -275.5 -98t-103.5 -258v-610q0 -160 103.5 -259.5t275.5 -99.5q168 0 272.5 99.5 t104.5 259.5v4q0 18 20 18l39 -2q20 0 20 -8v-10q0 -127 -57 -225.5t-160.5 -152.5t-238.5 -54h-27q-6 0 -6 -3.5t4 -5.5q109 -92 109 -194q0 -14 -4 -43q-14 -63 -60.5 -91t-109.5 -28q-35 0 -66 6q-20 2 -16 25l4 16q6 18 26 17q25 -6 47 -7q49 0 80 27t31 84 q0 86 -104 182q-29 25 -25 25l-29 8q-145 37 -229 147.5t-84 268.5z" />
<glyph unicode="&#xc8;" horiz-adv-x="1259" d="M223 20v1393q0 20 21 21h858q20 0 20 -21v-31q0 -20 -20 -20h-791q-8 0 -8 -8v-590q0 -8 8 -8h566q20 0 20 -21v-33q0 -20 -20 -20h-566q-8 0 -8 -8v-594q0 -8 8 -8h791q20 0 20 -21v-31q0 -20 -20 -20h-858q-20 0 -21 20zM471 1866q0 12 18 12h39q18 0 25 -14l125 -228 q4 -8 4 -12q0 -12 -19 -12h-28q-14 0 -25 14l-135 227q-4 8 -4 13z" />
<glyph unicode="&#xc9;" horiz-adv-x="1259" d="M223 20v1393q0 20 21 21h858q20 0 20 -21v-31q0 -20 -20 -20h-791q-8 0 -8 -8v-590q0 -8 8 -8h566q20 0 20 -21v-33q0 -20 -20 -20h-566q-8 0 -8 -8v-594q0 -8 8 -8h791q20 0 20 -21v-31q0 -20 -20 -20h-858q-20 0 -21 20zM600 1619q-4 7 2 17l125 228q6 14 24 14h39 q12 0 16.5 -7t-2.5 -18l-135 -227q-10 -14 -24 -14h-29q-12 0 -16 7z" />
<glyph unicode="&#xca;" horiz-adv-x="1259" d="M223 20v1393q0 20 21 21h858q20 0 20 -21v-31q0 -20 -20 -20h-791q-8 0 -8 -8v-590q0 -8 8 -8h566q20 0 20 -21v-33q0 -20 -20 -20h-566q-8 0 -8 -8v-594q0 -8 8 -8h791q20 0 20 -21v-31q0 -20 -20 -20h-858q-20 0 -21 20zM438 1601.5q-4 8.5 4 16.5l170 221q8 12 27 12 h43q18 0 27 -12l170 -221q4 -4 4 -12q0 -4 -4.5 -8.5t-12.5 -4.5h-30q-18 0 -27 13l-141 186q-2 4 -6.5 4t-6.5 -4l-143 -186q-8 -12 -27 -13h-30q-13 0 -17 8.5z" />
<glyph unicode="&#xcb;" horiz-adv-x="1259" d="M223 20v1393q0 20 21 21h858q20 0 20 -21v-31q0 -20 -20 -20h-791q-8 0 -8 -8v-590q0 -8 8 -8h566q20 0 20 -21v-33q0 -20 -20 -20h-566q-8 0 -8 -8v-594q0 -8 8 -8h791q20 0 20 -21v-31q0 -20 -20 -20h-858q-20 0 -21 20zM426 1755q0 29 22.5 50.5t55.5 21.5 q31 0 51 -21.5t20 -50.5q0 -33 -20.5 -53.5t-50.5 -20.5q-35 0 -56.5 20.5t-21.5 53.5zM749 1755q0 29 22 50.5t54 21.5q31 0 52.5 -20.5t21.5 -51.5q0 -33 -20.5 -53.5t-53.5 -20.5q-32 0 -54 20.5t-22 53.5z" />
<glyph unicode="&#xcc;" horiz-adv-x="526" d="M74 1866q0 12 18 12h39q18 0 25 -14l125 -228q4 -8 4 -12q0 -12 -19 -12h-28q-14 0 -25 14l-135 227q-4 8 -4 13zM223 20v1393q0 20 21 21h39q20 0 20 -21v-1393q0 -20 -20 -20h-39q-21 0 -21 20z" />
<glyph unicode="&#xcd;" horiz-adv-x="526" d="M203 1619q-4 7 2 17l125 228q6 14 24 14h39q12 0 16.5 -7t-2.5 -18l-135 -227q-10 -14 -24 -14h-29q-12 0 -16 7zM223 20v1393q0 20 21 21h39q20 0 20 -21v-1393q0 -20 -20 -20h-39q-21 0 -21 20z" />
<glyph unicode="&#xce;" horiz-adv-x="526" d="M41 1601.5q-4 8.5 4 16.5l170 221q8 12 27 12h43q18 0 27 -12l170 -221q4 -4 4 -12q0 -4 -4.5 -8.5t-12.5 -4.5h-30q-18 0 -27 13l-141 186q-2 4 -6.5 4t-6.5 -4l-143 -186q-8 -12 -27 -13h-30q-13 0 -17 8.5zM223 20v1393q0 20 21 21h39q20 0 20 -21v-1393 q0 -20 -20 -20h-39q-21 0 -21 20z" />
<glyph unicode="&#xcf;" horiz-adv-x="526" d="M29 1755q0 29 22.5 50.5t55.5 21.5q31 0 51 -21.5t20 -50.5q0 -33 -20.5 -53.5t-50.5 -20.5q-35 0 -56.5 20.5t-21.5 53.5zM223 20v1393q0 20 21 21h39q20 0 20 -21v-1393q0 -20 -20 -20h-39q-21 0 -21 20zM352 1755q0 29 22 50.5t54 21.5q31 0 52.5 -20.5t21.5 -51.5 q0 -33 -20.5 -53.5t-53.5 -20.5q-32 0 -54 20.5t-22 53.5z" />
<glyph unicode="&#xd0;" horiz-adv-x="1413" d="M223 737v25q0 20 21 20h118q8 0 9 9v622q0 20 20 21h469q189 0 299.5 -101.5t110.5 -277.5v-676q0 -176 -110.5 -277.5t-299.5 -101.5h-469q-20 0 -20 20v689q0 8 -9 8h-118q-20 0 -21 20zM451 80q0 -8 8 -8h405q152 0 239 84t87 227v666q0 145 -87 229t-239 84h-405 q-8 0 -8 -8v-563q0 -8 8 -9h276q20 0 21 -20v-25q0 -20 -21 -20h-276q-8 0 -8 -8v-629z" />
<glyph unicode="&#xd1;" horiz-adv-x="1392" d="M223 20v1393q0 20 21 21h41q14 0 24 -15l772 -1249q2 -6 6.5 -5t4.5 7v1241q0 20 20 21h39q20 0 20 -21v-1393q0 -20 -20 -20h-43q-14 0 -25 14l-770 1252q-2 6 -6 5t-4 -7v-1244q0 -20 -20 -20h-39q-21 0 -21 20zM450 1722q59 90 156 90q33 0 56.5 -11t64.5 -36 q33 -23 55 -34t45 -11q33 0 58.5 13.5t52.5 50.5q10 16 26 6l12 -6q10 -6 11 -19q0 -12 -8 -22q-31 -45 -72 -66.5t-80 -21.5q-35 0 -62.5 13t-58.5 36q-33 25 -52.5 34t-45.5 9q-35 0 -58.5 -11.5t-50.5 -45.5q-12 -16 -28 -7l-15 11q-14 12 -6 28z" />
<glyph unicode="&#xd2;" horiz-adv-x="1273" d="M172 440v551q0 135 57.5 239.5t163 162t242.5 57.5q139 0 244.5 -57.5t164 -162t58.5 -239.5v-551q0 -135 -58.5 -238.5t-164 -160.5t-244.5 -57q-137 0 -242.5 57t-163 160.5t-57.5 238.5zM252 436q0 -172 105.5 -276.5t277.5 -104.5q174 0 280.5 104.5t106.5 276.5v557 q0 174 -106.5 279.5t-280.5 105.5q-172 0 -277.5 -105.5t-105.5 -279.5v-557zM445 1862q0 12 18 12h39q18 0 25 -14l125 -228q4 -8 4 -12q0 -12 -19 -12h-28q-14 0 -25 14l-135 227q-4 8 -4 13z" />
<glyph unicode="&#xd3;" horiz-adv-x="1273" d="M172 440v551q0 135 57.5 239.5t163 162t242.5 57.5q139 0 244.5 -57.5t164 -162t58.5 -239.5v-551q0 -135 -58.5 -238.5t-164 -160.5t-244.5 -57q-137 0 -242.5 57t-163 160.5t-57.5 238.5zM252 436q0 -172 105.5 -276.5t277.5 -104.5q174 0 280.5 104.5t106.5 276.5v557 q0 174 -106.5 279.5t-280.5 105.5q-172 0 -277.5 -105.5t-105.5 -279.5v-557zM574 1615q-4 7 2 17l125 228q6 14 24 14h39q12 0 16.5 -7t-2.5 -18l-135 -227q-10 -14 -24 -14h-29q-12 0 -16 7z" />
<glyph unicode="&#xd4;" horiz-adv-x="1273" d="M172 440v551q0 135 57.5 239.5t163 162t242.5 57.5q139 0 244.5 -57.5t164 -162t58.5 -239.5v-551q0 -135 -58.5 -238.5t-164 -160.5t-244.5 -57q-137 0 -242.5 57t-163 160.5t-57.5 238.5zM252 436q0 -172 105.5 -276.5t277.5 -104.5q174 0 280.5 104.5t106.5 276.5v557 q0 174 -106.5 279.5t-280.5 105.5q-172 0 -277.5 -105.5t-105.5 -279.5v-557zM411 1597.5q-4 8.5 4 16.5l170 221q8 12 27 12h43q18 0 27 -12l170 -221q4 -4 4 -12q0 -4 -4.5 -8.5t-12.5 -4.5h-30q-18 0 -27 13l-141 186q-2 4 -6.5 4t-6.5 -4l-143 -186q-8 -12 -27 -13h-30 q-13 0 -17 8.5z" />
<glyph unicode="&#xd5;" horiz-adv-x="1273" d="M172 440v551q0 135 57.5 239.5t163 162t242.5 57.5q139 0 244.5 -57.5t164 -162t58.5 -239.5v-551q0 -135 -58.5 -238.5t-164 -160.5t-244.5 -57q-137 0 -242.5 57t-163 160.5t-57.5 238.5zM252 436q0 -172 105.5 -276.5t277.5 -104.5q174 0 280.5 104.5t106.5 276.5v557 q0 174 -106.5 279.5t-280.5 105.5q-172 0 -277.5 -105.5t-105.5 -279.5v-557zM387 1718q59 90 156 90q33 0 56.5 -11t64.5 -36q33 -23 55 -34t45 -11q33 0 58.5 13.5t52.5 50.5q10 16 26 6l12 -6q10 -6 11 -19q0 -12 -8 -22q-31 -45 -72 -66.5t-80 -21.5q-35 0 -62.5 13 t-58.5 36q-33 25 -52.5 34t-45.5 9q-35 0 -58.5 -11.5t-50.5 -45.5q-12 -16 -28 -7l-15 11q-14 12 -6 28z" />
<glyph unicode="&#xd6;" horiz-adv-x="1273" d="M172 440v551q0 135 57.5 239.5t163 162t242.5 57.5q139 0 244.5 -57.5t164 -162t58.5 -239.5v-551q0 -135 -58.5 -238.5t-164 -160.5t-244.5 -57q-137 0 -242.5 57t-163 160.5t-57.5 238.5zM252 436q0 -172 105.5 -276.5t277.5 -104.5q174 0 280.5 104.5t106.5 276.5v557 q0 174 -106.5 279.5t-280.5 105.5q-172 0 -277.5 -105.5t-105.5 -279.5v-557zM399 1751q0 29 22.5 50.5t55.5 21.5q31 0 51 -21.5t20 -50.5q0 -33 -20.5 -53.5t-50.5 -20.5q-35 0 -56.5 20.5t-21.5 53.5zM722 1751q0 29 22 50.5t54 21.5q31 0 52.5 -20.5t21.5 -51.5 q0 -33 -20.5 -53.5t-53.5 -20.5q-32 0 -54 20.5t-22 53.5z" />
<glyph unicode="&#xd7;" horiz-adv-x="841" d="M98 942q0 8 6 14l21 21q6 6 14 6t15 -6l266 -264q6 -6 12 0l258 258q6 6 14.5 6t14.5 -6l20 -21q6 -6 6 -14t-6 -14l-258 -258q-6 -6 0 -13l250 -252q12 -12 0 -28l-20 -23q-6 -6 -14.5 -6t-14.5 6l-252 252q-6 6 -12 0l-256 -256q-6 -6 -14.5 -6t-14.5 6l-20 21 q-6 6 -6.5 14t6.5 14l256 256q6 6 0 13l-265 266q-6 6 -6 14z" />
<glyph unicode="&#xd8;" horiz-adv-x="1277" d="M176 440v551q0 135 57.5 239.5t163 162t242.5 57.5q127 0 219 -45q10 -4 12 4l41 92q6 16 23 17h31q10 0 15 -7.5t1 -17.5l-53 -119q-2 -8 2 -10q84 -61 130 -156.5t46 -216.5v-551q0 -135 -58.5 -238.5t-164 -160.5t-244.5 -57q-164 0 -285 82q-8 6 -12 -3l-51 -114 q-6 -16 -23 -17h-30q-10 0 -15.5 7.5t-1.5 17.5l72 156q2 6 -2 10q-115 125 -115 317zM256 436q0 -133 68 -229q6 -10 10 0l497 1118q4 10 -2 12q-86 41 -190 41q-172 0 -277.5 -105.5t-105.5 -279.5v-557zM381 150q-2 -6 4 -11q100 -84 254 -84q174 0 280.5 104.5 t106.5 276.5v557q0 94 -32.5 170t-92.5 127q-8 6 -12 -2z" />
<glyph unicode="&#xd9;" horiz-adv-x="1343" d="M207 428v985q0 20 20 21h39q20 0 21 -21v-991q0 -164 105.5 -265.5t279.5 -101.5t280.5 101.5t106.5 265.5v991q0 20 20 21h39q20 0 21 -21v-985q0 -131 -58.5 -232.5t-164 -156.5t-244.5 -55q-137 0 -242.5 55t-164 156.5t-58.5 232.5zM481 1870q0 12 18 12h39 q18 0 25 -14l125 -228q4 -8 4 -12q0 -12 -19 -12h-28q-14 0 -25 14l-135 227q-4 8 -4 13z" />
<glyph unicode="&#xda;" horiz-adv-x="1343" d="M207 428v985q0 20 20 21h39q20 0 21 -21v-991q0 -164 105.5 -265.5t279.5 -101.5t280.5 101.5t106.5 265.5v991q0 20 20 21h39q20 0 21 -21v-985q0 -131 -58.5 -232.5t-164 -156.5t-244.5 -55q-137 0 -242.5 55t-164 156.5t-58.5 232.5zM611 1623q-4 7 2 17l125 228 q6 14 24 14h39q12 0 16.5 -7t-2.5 -18l-135 -227q-10 -14 -24 -14h-29q-12 0 -16 7z" />
<glyph unicode="&#xdb;" horiz-adv-x="1343" d="M207 428v985q0 20 20 21h39q20 0 21 -21v-991q0 -164 105.5 -265.5t279.5 -101.5t280.5 101.5t106.5 265.5v991q0 20 20 21h39q20 0 21 -21v-985q0 -131 -58.5 -232.5t-164 -156.5t-244.5 -55q-137 0 -242.5 55t-164 156.5t-58.5 232.5zM448 1605.5q-4 8.5 4 16.5 l170 221q8 12 27 12h43q18 0 27 -12l170 -221q4 -4 4 -12q0 -4 -4.5 -8.5t-12.5 -4.5h-30q-18 0 -27 13l-141 186q-2 4 -6.5 4t-6.5 -4l-143 -186q-8 -12 -27 -13h-30q-13 0 -17 8.5z" />
<glyph unicode="&#xdc;" horiz-adv-x="1343" d="M207 428v985q0 20 20 21h39q20 0 21 -21v-991q0 -164 105.5 -265.5t279.5 -101.5t280.5 101.5t106.5 265.5v991q0 20 20 21h39q20 0 21 -21v-985q0 -131 -58.5 -232.5t-164 -156.5t-244.5 -55q-137 0 -242.5 55t-164 156.5t-58.5 232.5zM436 1759q0 29 22.5 50.5 t55.5 21.5q31 0 51 -21.5t20 -50.5q0 -33 -20.5 -53.5t-50.5 -20.5q-35 0 -56.5 20.5t-21.5 53.5zM759 1759q0 29 22 50.5t54 21.5q31 0 52.5 -20.5t21.5 -51.5q0 -33 -20.5 -53.5t-53.5 -20.5q-32 0 -54 20.5t-22 53.5z" />
<glyph unicode="&#xdd;" horiz-adv-x="1114" d="M84 1421q0 12 18 13h39q14 0 25 -15l385 -657q2 -2 6 -2t6 2l385 657q10 14 25 15h39q12 0 16 -7.5t-2 -17.5l-428 -731q-2 -2 -2 -10v-648q0 -20 -21 -20h-36q-21 0 -21 20v648q0 8 -2 10l-428 731q-4 8 -4 12zM496 1596q-4 7 2 17l125 228q6 14 24 14h39q12 0 16.5 -7 t-2.5 -18l-135 -227q-10 -14 -24 -14h-29q-12 0 -16 7z" />
<glyph unicode="&#xde;" horiz-adv-x="1148" d="M207 20v1393q0 20 20 21h39q20 0 21 -21v-309q0 -8 8 -8h393q168 0 272.5 -105.5t104.5 -275.5q0 -172 -104.5 -274.5t-274.5 -102.5h-391q-8 0 -8 -8v-310q0 -20 -21 -20h-39q-20 0 -20 20zM287 416q0 -8 8 -8h389q135 0 218 83.5t83 221.5q0 141 -83 226t-218 85h-389 q-8 0 -8 -8v-600z" />
<glyph unicode="&#xdf;" horiz-adv-x="1187" d="M190 20v1049q0 117 52.5 204t143.5 133t208 46q205 0 316.5 -98.5t111.5 -276.5q0 -117 -51 -197.5t-144 -115.5q-4 -2 -4 -4t4 -4q96 -39 151.5 -134.5t55.5 -232.5q0 -184 -116.5 -286.5t-346.5 -102.5h-170q-20 0 -20 20v29q0 20 20 21h177q188 0 282 84t94 239 q0 326 -325 332h-164q-20 0 -21 20v27q0 20 21 21h168q156 0 232.5 72.5t76.5 207.5q0 150 -87 229.5t-259 79.5q-139 0 -232.5 -82.5t-93.5 -226.5v-1053q0 -20 -20 -20h-39q-21 0 -21 20z" />
<glyph unicode="&#xe0;" horiz-adv-x="1028" d="M113 268q0 150 112.5 236t309.5 86h249q8 0 9 8v107q0 123 -68 195.5t-211 72.5q-111 0 -182.5 -46t-87.5 -124q-6 -20 -25 -19l-43 7q-10 2 -15 7t-3 13q23 106 119 169.5t241 63.5q176 0 265 -91t89 -251v-682q0 -20 -20 -20h-39q-20 0 -20 20v99q0 4 -3.5 6t-7.5 -2 q-53 -68 -142 -103.5t-194 -35.5q-139 0 -236 69.5t-97 214.5zM193 272q0 -106 73.5 -161.5t190.5 -55.5q137 0 236.5 65.5t99.5 184.5v209q0 8 -9 8h-247q-154 0 -249 -66.5t-95 -183.5zM332 1456q0 12 18 12h39q18 0 25 -14l125 -228q4 -8 4 -12q0 -12 -19 -12h-28 q-14 0 -25 14l-135 227q-4 8 -4 13z" />
<glyph unicode="&#xe1;" horiz-adv-x="1028" d="M113 268q0 150 112.5 236t309.5 86h249q8 0 9 8v107q0 123 -68 195.5t-211 72.5q-111 0 -182.5 -46t-87.5 -124q-6 -20 -25 -19l-43 7q-10 2 -15 7t-3 13q23 106 119 169.5t241 63.5q176 0 265 -91t89 -251v-682q0 -20 -20 -20h-39q-20 0 -20 20v99q0 4 -3.5 6t-7.5 -2 q-53 -68 -142 -103.5t-194 -35.5q-139 0 -236 69.5t-97 214.5zM193 272q0 -106 73.5 -161.5t190.5 -55.5q137 0 236.5 65.5t99.5 184.5v209q0 8 -9 8h-247q-154 0 -249 -66.5t-95 -183.5zM461 1209q-4 7 2 17l125 228q6 14 24 14h39q12 0 16.5 -7t-2.5 -18l-135 -227 q-10 -14 -24 -14h-29q-12 0 -16 7z" />
<glyph unicode="&#xe2;" horiz-adv-x="1028" d="M113 268q0 150 112.5 236t309.5 86h249q8 0 9 8v107q0 123 -68 195.5t-211 72.5q-111 0 -182.5 -46t-87.5 -124q-6 -20 -25 -19l-43 7q-10 2 -15 7t-3 13q23 106 119 169.5t241 63.5q176 0 265 -91t89 -251v-682q0 -20 -20 -20h-39q-20 0 -20 20v99q0 4 -3.5 6t-7.5 -2 q-53 -68 -142 -103.5t-194 -35.5q-139 0 -236 69.5t-97 214.5zM193 272q0 -106 73.5 -161.5t190.5 -55.5q137 0 236.5 65.5t99.5 184.5v209q0 8 -9 8h-247q-154 0 -249 -66.5t-95 -183.5zM299 1191.5q-4 8.5 4 16.5l170 221q8 12 27 12h43q18 0 27 -12l170 -221q4 -4 4 -12 q0 -4 -4.5 -8.5t-12.5 -4.5h-30q-18 0 -27 13l-141 186q-2 4 -6.5 4t-6.5 -4l-143 -186q-8 -12 -27 -13h-30q-13 0 -17 8.5z" />
<glyph unicode="&#xe3;" horiz-adv-x="1028" d="M113 268q0 150 112.5 236t309.5 86h249q8 0 9 8v107q0 123 -68 195.5t-211 72.5q-111 0 -182.5 -46t-87.5 -124q-6 -20 -25 -19l-43 7q-10 2 -15 7t-3 13q23 106 119 169.5t241 63.5q176 0 265 -91t89 -251v-682q0 -20 -20 -20h-39q-20 0 -20 20v99q0 4 -3.5 6t-7.5 -2 q-53 -68 -142 -103.5t-194 -35.5q-139 0 -236 69.5t-97 214.5zM193 272q0 -106 73.5 -161.5t190.5 -55.5q137 0 236.5 65.5t99.5 184.5v209q0 8 -9 8h-247q-154 0 -249 -66.5t-95 -183.5zM274 1312q59 90 156 90q33 0 56.5 -11t64.5 -36q33 -23 55 -34t45 -11 q33 0 58.5 13.5t52.5 50.5q10 16 26 6l12 -6q10 -6 11 -19q0 -12 -8 -22q-31 -45 -72 -66.5t-80 -21.5q-35 0 -62.5 13t-58.5 36q-33 25 -52.5 34t-45.5 9q-35 0 -58.5 -11.5t-50.5 -45.5q-12 -16 -28 -7l-15 11q-14 12 -6 28z" />
<glyph unicode="&#xe4;" horiz-adv-x="1028" d="M113 268q0 150 112.5 236t309.5 86h249q8 0 9 8v107q0 123 -68 195.5t-211 72.5q-111 0 -182.5 -46t-87.5 -124q-6 -20 -25 -19l-43 7q-10 2 -15 7t-3 13q23 106 119 169.5t241 63.5q176 0 265 -91t89 -251v-682q0 -20 -20 -20h-39q-20 0 -20 20v99q0 4 -3.5 6t-7.5 -2 q-53 -68 -142 -103.5t-194 -35.5q-139 0 -236 69.5t-97 214.5zM193 272q0 -106 73.5 -161.5t190.5 -55.5q137 0 236.5 65.5t99.5 184.5v209q0 8 -9 8h-247q-154 0 -249 -66.5t-95 -183.5zM287 1345q0 29 22.5 50.5t55.5 21.5q31 0 51 -21.5t20 -50.5q0 -33 -20.5 -53.5 t-50.5 -20.5q-35 0 -56.5 20.5t-21.5 53.5zM610 1345q0 29 22 50.5t54 21.5q31 0 52.5 -20.5t21.5 -51.5q0 -33 -20.5 -53.5t-53.5 -20.5q-32 0 -54 20.5t-22 53.5z" />
<glyph unicode="&#xe5;" horiz-adv-x="1028" d="M113 268q0 150 112.5 236t309.5 86h249q8 0 9 8v107q0 123 -68 195.5t-211 72.5q-111 0 -182.5 -46t-87.5 -124q-6 -20 -25 -19l-43 7q-10 2 -15 7t-3 13q23 106 119 169.5t241 63.5q176 0 265 -91t89 -251v-682q0 -20 -20 -20h-39q-20 0 -20 20v99q0 4 -3.5 6t-7.5 -2 q-53 -68 -142 -103.5t-194 -35.5q-139 0 -236 69.5t-97 214.5zM193 272q0 -106 73.5 -161.5t190.5 -55.5q137 0 236.5 65.5t99.5 184.5v209q0 8 -9 8h-247q-154 0 -249 -66.5t-95 -183.5zM315 1392q0 84 60.5 143.5t146.5 59.5t146.5 -59.5t60.5 -143.5t-60.5 -143 t-146.5 -59t-146.5 59t-60.5 143zM373 1392q0 -61 44 -104t105 -43q62 0 106 43t44 104t-44 104.5t-106 43.5q-61 0 -105 -43t-44 -105z" />
<glyph unicode="&#xe6;" horiz-adv-x="1699" d="M113 266q0 147 111.5 228t310.5 81h249q8 0 9 9v116q0 123 -69 198t-212 75q-111 0 -183.5 -46t-88.5 -124q-6 -20 -25 -17l-39 7q-10 2 -14 8t-2 14q23 104 119 166.5t237 62.5q127 0 209 -51t115 -143q4 -10 10 0q37 86 124 140t200 54q137 0 236 -74.5t128 -197.5 q10 -39 12 -79t2 -167q0 -23 -20 -22h-649q-8 0 -9 -8v-191q2 -117 89.5 -181.5t216.5 -64.5q104 0 178 48.5t106 132.5q6 18 25 12l29 -8q20 -6 14 -27q-39 -104 -133 -168.5t-225 -64.5q-121 0 -210.5 49t-123.5 139q-2 4 -4 5t-5 -3q-37 -90 -142 -140t-234 -50 q-146 0 -244 67.5t-98 214.5zM193 270q0 -106 73.5 -161.5t192.5 -55.5q135 0 234.5 64.5t99.5 185.5v193q0 8 -9 8h-247q-156 0 -250 -59.5t-94 -174.5zM874 584q1 -9 9 -9h583q8 0 9 9q-4 123 -11 155q-18 104 -97 169t-196 65q-115 0 -192.5 -64.5t-95.5 -169.5 q-8 -43 -9 -155z" />
<glyph unicode="&#xe7;" horiz-adv-x="1048" d="M154 516q0 158 24 256q31 123 130.5 197.5t242.5 74.5q141 0 243.5 -72.5t131.5 -180.5q6 -16 10 -54v-4q0 -14 -18 -18l-37 -4h-4q-14 0 -19 18l-6 29q-18 92 -101 153.5t-202 61.5t-199 -63.5t-98 -168.5q-18 -82 -19 -227q0 -139 17 -225q23 -104 101.5 -169 t197.5 -65t203 62.5t100 154.5l2 11q2 20 25 16l34 -6q20 -4 19 -23q-2 -4 -2 -12t-4 -20q-25 -106 -122 -177t-233 -77q-4 0 -5 -3.5t3 -7.5q109 -88 109 -192q0 -14 -4 -43q-14 -63 -60.5 -91t-109.5 -28q-35 0 -66 6q-20 2 -16 25l4 16q6 18 27 17q25 -6 47 -7 q49 0 79.5 28t30.5 83q0 92 -123 197q-2 4 -10 4q-113 18 -190.5 90t-108.5 180q-25 90 -24 258z" />
<glyph unicode="&#xe8;" horiz-adv-x="1081" d="M154 516q0 94 3 150.5t13 101.5q31 125 130 200.5t243 75.5q152 0 252 -80.5t127 -215.5q8 -39 10 -92.5t2 -139.5q0 -23 -21 -22h-671q-8 0 -9 -9q0 -66 2.5 -119t8.5 -77q20 -106 101 -170t204 -64q106 0 182 49.5t113 133.5q6 18 24 12l27 -8q20 -6 14 -27 q-41 -104 -137 -167.5t-227 -63.5q-139 0 -235.5 71.5t-133.5 192.5q-23 86 -22 268zM233 567q0 -8 9 -8h604q8 0 8 8q0 131 -10 172q-23 104 -102.5 169t-198.5 65q-121 0 -200 -63.5t-99 -166.5q-10 -66 -11 -176zM350 1456q0 12 18 12h39q18 0 25 -14l125 -228 q4 -8 4 -12q0 -12 -19 -12h-28q-14 0 -25 14l-135 227q-4 8 -4 13z" />
<glyph unicode="&#xe9;" horiz-adv-x="1081" d="M154 516q0 94 3 150.5t13 101.5q31 125 130 200.5t243 75.5q152 0 252 -80.5t127 -215.5q8 -39 10 -92.5t2 -139.5q0 -23 -21 -22h-671q-8 0 -9 -9q0 -66 2.5 -119t8.5 -77q20 -106 101 -170t204 -64q106 0 182 49.5t113 133.5q6 18 24 12l27 -8q20 -6 14 -27 q-41 -104 -137 -167.5t-227 -63.5q-139 0 -235.5 71.5t-133.5 192.5q-23 86 -22 268zM233 567q0 -8 9 -8h604q8 0 8 8q0 131 -10 172q-23 104 -102.5 169t-198.5 65q-121 0 -200 -63.5t-99 -166.5q-10 -66 -11 -176zM480 1209q-4 7 2 17l125 228q6 14 24 14h39q12 0 16.5 -7 t-2.5 -18l-135 -227q-10 -14 -24 -14h-29q-12 0 -16 7z" />
<glyph unicode="&#xea;" horiz-adv-x="1081" d="M154 516q0 94 3 150.5t13 101.5q31 125 130 200.5t243 75.5q152 0 252 -80.5t127 -215.5q8 -39 10 -92.5t2 -139.5q0 -23 -21 -22h-671q-8 0 -9 -9q0 -66 2.5 -119t8.5 -77q20 -106 101 -170t204 -64q106 0 182 49.5t113 133.5q6 18 24 12l27 -8q20 -6 14 -27 q-41 -104 -137 -167.5t-227 -63.5q-139 0 -235.5 71.5t-133.5 192.5q-23 86 -22 268zM233 567q0 -8 9 -8h604q8 0 8 8q0 131 -10 172q-23 104 -102.5 169t-198.5 65q-121 0 -200 -63.5t-99 -166.5q-10 -66 -11 -176zM317 1191.5q-4 8.5 4 16.5l170 221q8 12 27 12h43 q18 0 27 -12l170 -221q4 -4 4 -12q0 -4 -4.5 -8.5t-12.5 -4.5h-30q-18 0 -27 13l-141 186q-2 4 -6.5 4t-6.5 -4l-143 -186q-8 -12 -27 -13h-30q-13 0 -17 8.5z" />
<glyph unicode="&#xeb;" horiz-adv-x="1081" d="M154 516q0 94 3 150.5t13 101.5q31 125 130 200.5t243 75.5q152 0 252 -80.5t127 -215.5q8 -39 10 -92.5t2 -139.5q0 -23 -21 -22h-671q-8 0 -9 -9q0 -66 2.5 -119t8.5 -77q20 -106 101 -170t204 -64q106 0 182 49.5t113 133.5q6 18 24 12l27 -8q20 -6 14 -27 q-41 -104 -137 -167.5t-227 -63.5q-139 0 -235.5 71.5t-133.5 192.5q-23 86 -22 268zM233 567q0 -8 9 -8h604q8 0 8 8q0 131 -10 172q-23 104 -102.5 169t-198.5 65q-121 0 -200 -63.5t-99 -166.5q-10 -66 -11 -176zM305 1345q0 29 22.5 50.5t55.5 21.5q31 0 51 -21.5 t20 -50.5q0 -33 -20.5 -53.5t-50.5 -20.5q-35 0 -56.5 20.5t-21.5 53.5zM628 1345q0 29 22 50.5t54 21.5q31 0 52.5 -20.5t21.5 -51.5q0 -33 -20.5 -53.5t-53.5 -20.5q-32 0 -54 20.5t-22 53.5z" />
<glyph unicode="&#xec;" horiz-adv-x="434" d="M23 1458q0 12 18 12h39q18 0 25 -14l125 -228q4 -8 4 -12q0 -12 -19 -12h-28q-14 0 -25 14l-135 227q-4 8 -4 13zM174 20v988q0 20 21 20h38q20 0 21 -20v-988q0 -20 -21 -20h-38q-21 0 -21 20z" />
<glyph unicode="&#xed;" horiz-adv-x="434" d="M152 1211q-4 7 2 17l125 228q6 14 24 14h39q12 0 16.5 -7t-2.5 -18l-135 -227q-10 -14 -24 -14h-29q-12 0 -16 7zM174 20v988q0 20 21 20h38q20 0 21 -20v-988q0 -20 -21 -20h-38q-21 0 -21 20z" />
<glyph unicode="&#xee;" horiz-adv-x="434" d="M-10 1193.5q-4 8.5 4 16.5l170 221q8 12 27 12h43q18 0 27 -12l170 -221q4 -4 4 -12q0 -4 -4.5 -8.5t-12.5 -4.5h-30q-18 0 -27 13l-141 186q-2 4 -6.5 4t-6.5 -4l-143 -186q-8 -12 -27 -13h-30q-13 0 -17 8.5zM174 20v988q0 20 21 20h38q20 0 21 -20v-988q0 -20 -21 -20 h-38q-21 0 -21 20z" />
<glyph unicode="&#xef;" horiz-adv-x="604" d="M66 1347q0 29 22.5 50.5t55.5 21.5q31 0 51 -21.5t20 -50.5q0 -33 -20.5 -53.5t-50.5 -20.5q-35 0 -56.5 20.5t-21.5 53.5zM268 20v988q0 20 21 20h38q20 0 21 -20v-988q0 -20 -21 -20h-38q-21 0 -21 20zM389 1347q0 29 22 50.5t54 21.5q31 0 52.5 -20.5t21.5 -51.5 q0 -33 -20.5 -53.5t-53.5 -20.5q-32 0 -54 20.5t-22 53.5z" />
<glyph unicode="&#xf0;" horiz-adv-x="1064" d="M150 510q0 104 3 155.5t13 96.5q27 115 115 185.5t215 72.5q84 6 160.5 -19.5t125.5 -76.5q2 -4 5.5 -3t0.5 5q-41 139 -165 280q-4 8 -11 4l-170 -57l-8 -2q-12 0 -18 16l-4 17l-2 10q0 10 14 14l141 45q4 2 4 6.5t-2 6.5q-84 84 -157 143q-8 6 -9 12q0 12 19 13h47 q14 0 25 -11q106 -88 155 -135q4 -4 10 -2l144 47l8 2q12 0 18 -16l4 -16q2 -4 3 -11q0 -8 -15 -14l-114 -37q-10 -4 -7 -8q86 -98 139.5 -223t65.5 -291q6 -59 6 -211q0 -106 -2 -158.5t-12 -95.5q-29 -121 -128 -195.5t-239 -74.5q-139 0 -235 73.5t-127 196.5 q-10 45 -13 99.5t-3 156.5zM229 506q0 -170 11 -223q20 -104 97 -168t191 -64q115 0 193 63.5t98 168.5q8 32 8 143v80v84q0 109 -8 139q-20 104 -98 168t-193 64t-191.5 -63.5t-96.5 -168.5q-6 -31 -8.5 -91t-2.5 -132z" />
<glyph unicode="&#xf1;" horiz-adv-x="1097" d="M188 20v988q0 20 21 20h39q20 0 20 -20v-111q0 -6 3 -7t5 3q45 72 122 110.5t180 38.5q153 0 249.5 -95t96.5 -251v-676q0 -20 -21 -20h-39q-20 0 -20 20v662q0 127 -79 208t-202 81q-133 0 -214 -79t-81 -206v-666q0 -20 -20 -20h-39q-20 0 -21 20zM301 1296 q59 90 156 90q33 0 56.5 -11t64.5 -36q33 -23 55 -34t45 -11q33 0 58.5 13.5t52.5 50.5q10 16 26 6l12 -6q10 -6 11 -19q0 -12 -8 -22q-31 -45 -72 -66.5t-80 -21.5q-35 0 -62.5 13t-58.5 36q-33 25 -52.5 34t-45.5 9q-35 0 -58.5 -11.5t-50.5 -45.5q-12 -16 -28 -7l-15 11 q-14 12 -6 28z" />
<glyph unicode="&#xf2;" d="M154 516q0 96 3 153.5t15 102.5q33 123 133.5 197.5t241.5 74.5q143 0 244.5 -74.5t130.5 -197.5q10 -45 13 -100.5t3 -155.5q0 -104 -3 -158.5t-13 -99.5q-31 -125 -131.5 -199.5t-243.5 -74.5q-144 0 -242 74.5t-131 199.5q-12 47 -16 105.5t-4 152.5zM233 514 q0 -174 13 -225q23 -106 102.5 -170t198.5 -64t198.5 64.5t102.5 169.5q6 31 8 93t2 132q0 76 -2 136.5t-8 88.5q-20 104 -102 169t-201 65q-117 0 -197 -64.5t-102 -169.5q-12 -53 -13 -225zM354 1456q0 12 18 12h39q18 0 25 -14l125 -228q4 -8 4 -12q0 -12 -19 -12h-28 q-14 0 -25 14l-135 227q-4 8 -4 13z" />
<glyph unicode="&#xf3;" d="M154 516q0 96 3 153.5t15 102.5q33 123 133.5 197.5t241.5 74.5q143 0 244.5 -74.5t130.5 -197.5q10 -45 13 -100.5t3 -155.5q0 -104 -3 -158.5t-13 -99.5q-31 -125 -131.5 -199.5t-243.5 -74.5q-144 0 -242 74.5t-131 199.5q-12 47 -16 105.5t-4 152.5zM233 514 q0 -174 13 -225q23 -106 102.5 -170t198.5 -64t198.5 64.5t102.5 169.5q6 31 8 93t2 132q0 76 -2 136.5t-8 88.5q-20 104 -102 169t-201 65q-117 0 -197 -64.5t-102 -169.5q-12 -53 -13 -225zM484 1209q-4 7 2 17l125 228q6 14 24 14h39q12 0 16.5 -7t-2.5 -18l-135 -227 q-10 -14 -24 -14h-29q-12 0 -16 7z" />
<glyph unicode="&#xf4;" d="M154 516q0 96 3 153.5t15 102.5q33 123 133.5 197.5t241.5 74.5q143 0 244.5 -74.5t130.5 -197.5q10 -45 13 -100.5t3 -155.5q0 -104 -3 -158.5t-13 -99.5q-31 -125 -131.5 -199.5t-243.5 -74.5q-144 0 -242 74.5t-131 199.5q-12 47 -16 105.5t-4 152.5zM233 514 q0 -174 13 -225q23 -106 102.5 -170t198.5 -64t198.5 64.5t102.5 169.5q6 31 8 93t2 132q0 76 -2 136.5t-8 88.5q-20 104 -102 169t-201 65q-117 0 -197 -64.5t-102 -169.5q-12 -53 -13 -225zM321 1191.5q-4 8.5 4 16.5l170 221q8 12 27 12h43q18 0 27 -12l170 -221 q4 -4 4 -12q0 -4 -4.5 -8.5t-12.5 -4.5h-30q-18 0 -27 13l-141 186q-2 4 -6.5 4t-6.5 -4l-143 -186q-8 -12 -27 -13h-30q-13 0 -17 8.5z" />
<glyph unicode="&#xf5;" d="M154 516q0 96 3 153.5t15 102.5q33 123 133.5 197.5t241.5 74.5q143 0 244.5 -74.5t130.5 -197.5q10 -45 13 -100.5t3 -155.5q0 -104 -3 -158.5t-13 -99.5q-31 -125 -131.5 -199.5t-243.5 -74.5q-144 0 -242 74.5t-131 199.5q-12 47 -16 105.5t-4 152.5zM233 514 q0 -174 13 -225q23 -106 102.5 -170t198.5 -64t198.5 64.5t102.5 169.5q6 31 8 93t2 132q0 76 -2 136.5t-8 88.5q-20 104 -102 169t-201 65q-117 0 -197 -64.5t-102 -169.5q-12 -53 -13 -225zM297 1312q59 90 156 90q33 0 56.5 -11t64.5 -36q33 -23 55 -34t45 -11 q33 0 58.5 13.5t52.5 50.5q10 16 26 6l12 -6q10 -6 11 -19q0 -12 -8 -22q-31 -45 -72 -66.5t-80 -21.5q-35 0 -62.5 13t-58.5 36q-33 25 -52.5 34t-45.5 9q-35 0 -58.5 -11.5t-50.5 -45.5q-12 -16 -28 -7l-15 11q-14 12 -6 28z" />
<glyph unicode="&#xf6;" d="M154 516q0 96 3 153.5t15 102.5q33 123 133.5 197.5t241.5 74.5q143 0 244.5 -74.5t130.5 -197.5q10 -45 13 -100.5t3 -155.5q0 -104 -3 -158.5t-13 -99.5q-31 -125 -131.5 -199.5t-243.5 -74.5q-144 0 -242 74.5t-131 199.5q-12 47 -16 105.5t-4 152.5zM233 514 q0 -174 13 -225q23 -106 102.5 -170t198.5 -64t198.5 64.5t102.5 169.5q6 31 8 93t2 132q0 76 -2 136.5t-8 88.5q-20 104 -102 169t-201 65q-117 0 -197 -64.5t-102 -169.5q-12 -53 -13 -225zM309 1345q0 29 22.5 50.5t55.5 21.5q31 0 51 -21.5t20 -50.5q0 -33 -20.5 -53.5 t-50.5 -20.5q-35 0 -56.5 20.5t-21.5 53.5zM632 1345q0 29 22 50.5t54 21.5q31 0 52.5 -20.5t21.5 -51.5q0 -33 -20.5 -53.5t-53.5 -20.5q-32 0 -54 20.5t-22 53.5z" />
<glyph unicode="&#xf7;" horiz-adv-x="1038" d="M90 666v28q0 20 21 21h817q20 0 20 -21v-28q0 -20 -20 -21h-817q-21 1 -21 21zM424 385q0 37 27.5 63.5t64.5 26.5q39 0 66.5 -26.5t27.5 -63.5q0 -39 -27.5 -65.5t-66.5 -26.5t-65.5 26.5t-26.5 65.5zM424 1014q0 37 27.5 63.5t64.5 26.5q39 0 66.5 -25.5t27.5 -64.5 t-27.5 -65.5t-66.5 -26.5t-65.5 26.5t-26.5 65.5z" />
<glyph unicode="&#xf8;" horiz-adv-x="1099" d="M162 516q0 96 3 153.5t15 102.5q33 123 133.5 197.5t241.5 74.5q131 0 233 -67q8 -4 11 2l57 88q10 18 27 6l26 -16q16 -12 6 -29l-63 -96q-2 -6 0 -12q57 -63 78 -148q10 -45 13 -100.5t3 -155.5q0 -104 -3 -158.5t-13 -99.5q-31 -125 -131.5 -199.5t-243.5 -74.5 q-152 0 -254 84q-6 6 -10 -2l-68 -103q-4 -8 -12 -10t-16 4l-25 16q-16 12 -6 29l78 119q4 6 0 12q-41 53 -60 125q-12 47 -16 105.5t-4 152.5zM242 514q0 -174 12 -225q9 -45 29 -84q2 -4 6 -4t6 4l453 698q4 8 -3 10q-78 59 -192 60q-117 0 -197 -64.5t-102 -169.5 q-12 -53 -12 -225zM340 143q-4 -8 2 -10q82 -78 213 -78q119 0 199 64.5t102 169.5q6 30 8 92.5t2 132.5q0 76 -2 136.5t-8 88.5q-12 57 -45 111q-2 2 -6 3t-6 -3z" />
<glyph unicode="&#xf9;" d="M172 324v684q0 20 21 20h38q20 0 21 -20v-666q0 -131 77 -208t203 -77q133 0 213 79t80 206v666q1 20 21 20h39q20 0 20 -20v-988q0 -20 -20 -20h-39q-20 0 -21 20v109q0 6 -3 6t-7 -4q-45 -72 -121 -108.5t-176 -36.5q-152 0 -249 91t-97 247zM357 1440q0 12 18 12h39 q18 0 25 -14l125 -228q4 -8 4 -12q0 -12 -19 -12h-28q-14 0 -25 14l-135 227q-4 8 -4 13z" />
<glyph unicode="&#xfa;" d="M172 324v684q0 20 21 20h38q20 0 21 -20v-666q0 -131 77 -208t203 -77q133 0 213 79t80 206v666q1 20 21 20h39q20 0 20 -20v-988q0 -20 -20 -20h-39q-20 0 -21 20v109q0 6 -3 6t-7 -4q-45 -72 -121 -108.5t-176 -36.5q-152 0 -249 91t-97 247zM486 1193q-4 7 2 17 l125 228q6 14 24 14h39q12 0 16.5 -7t-2.5 -18l-135 -227q-10 -14 -24 -14h-29q-12 0 -16 7z" />
<glyph unicode="&#xfb;" d="M172 324v684q0 20 21 20h38q20 0 21 -20v-666q0 -131 77 -208t203 -77q133 0 213 79t80 206v666q1 20 21 20h39q20 0 20 -20v-988q0 -20 -20 -20h-39q-20 0 -21 20v109q0 6 -3 6t-7 -4q-45 -72 -121 -108.5t-176 -36.5q-152 0 -249 91t-97 247zM323 1175.5q-4 8.5 4 16.5 l170 221q8 12 27 12h43q18 0 27 -12l170 -221q4 -4 4 -12q0 -4 -4.5 -8.5t-12.5 -4.5h-30q-18 0 -27 13l-141 186q-2 4 -6.5 4t-6.5 -4l-143 -186q-8 -12 -27 -13h-30q-13 0 -17 8.5z" />
<glyph unicode="&#xfc;" d="M172 324v684q0 20 21 20h38q20 0 21 -20v-666q0 -131 77 -208t203 -77q133 0 213 79t80 206v666q1 20 21 20h39q20 0 20 -20v-988q0 -20 -20 -20h-39q-20 0 -21 20v109q0 6 -3 6t-7 -4q-45 -72 -121 -108.5t-176 -36.5q-152 0 -249 91t-97 247zM311 1329q0 29 22.5 50.5 t55.5 21.5q31 0 51 -21.5t20 -50.5q0 -33 -20.5 -53.5t-50.5 -20.5q-35 0 -56.5 20.5t-21.5 53.5zM634 1329q0 29 22 50.5t54 21.5q31 0 52.5 -20.5t21.5 -51.5q0 -33 -20.5 -53.5t-53.5 -20.5q-32 0 -54 20.5t-22 53.5z" />
<glyph unicode="&#xfd;" horiz-adv-x="903" d="M57 1014q0 14 19 14h39q18 0 24 -16l310 -893q2 -4 6 -4t6 4l301 893q6 16 24 16h39q23 0 17 -22l-391 -1121q-45 -129 -84 -190.5t-89.5 -83t-138.5 -21.5h-14q-14 1 -14 21v31q0 20 14 20h14q78 2 120 27.5t74 91t81 213.5q4 8 0 12l-355 1000zM389 1195q-4 7 2 17 l125 228q6 14 24 14h39q12 0 16.5 -7t-2.5 -18l-135 -227q-10 -14 -24 -14h-29q-12 0 -16 7z" />
<glyph unicode="&#xfe;" horiz-adv-x="1091" d="M190 -389v1802q0 20 21 21h39q20 0 20 -21v-510q0 -6 4.5 -7t6.5 5q43 68 115.5 105.5t164.5 37.5q141 0 236.5 -74.5t126.5 -197.5q10 -45 13 -100.5t3 -159.5t-3 -158.5t-15 -99.5q-31 -123 -126.5 -196.5t-234.5 -73.5q-92 0 -164.5 37.5t-115.5 105.5q-2 6 -6.5 5 t-4.5 -7v-514q0 -20 -20 -21h-39q-20 0 -21 21zM270 342q2 -35 13 -68q20 -94 90.5 -156.5t181.5 -62.5t189.5 61.5t97.5 157.5q10 41 14 85t4 157q0 115 -4 160t-16 82q-23 94 -100.5 154.5t-186.5 60.5q-106 0 -178 -61.5t-90 -155.5q-12 -47 -15 -74v-340z" />
<glyph unicode="&#xff;" horiz-adv-x="903" d="M57 1014q0 14 19 14h39q18 0 24 -16l310 -893q2 -4 6 -4t6 4l301 893q6 16 24 16h39q23 0 17 -22l-391 -1121q-45 -129 -84 -190.5t-89.5 -83t-138.5 -21.5h-14q-14 1 -14 21v31q0 20 14 20h14q78 2 120 27.5t74 91t81 213.5q4 8 0 12l-355 1000zM215 1331 q0 29 22.5 50.5t55.5 21.5q31 0 51 -21.5t20 -50.5q0 -33 -20.5 -53.5t-50.5 -20.5q-35 0 -56.5 20.5t-21.5 53.5zM538 1331q0 29 22 50.5t54 21.5q31 0 52.5 -20.5t21.5 -51.5q0 -33 -20.5 -53.5t-53.5 -20.5q-32 0 -54 20.5t-22 53.5z" />
<glyph unicode="&#x152;" horiz-adv-x="1873" d="M172 403v625q0 121 52 217t146.5 150.5t217.5 54.5q113 0 203 -46t147 -128q2 -4 6 -2t4 6v133q0 20 21 21h747q20 0 21 -21v-31q-1 -20 -21 -20h-680q-8 0 -8 -8v-590q0 -8 8 -8h457q20 0 20 -21v-33q0 -20 -20 -20h-457q-8 0 -8 -8v-594q0 -8 8 -8h680q20 0 21 -21v-31 q0 -20 -21 -20h-747q-20 0 -21 20v134q0 4 -4 6t-6 -2q-57 -82 -147.5 -128t-202.5 -46q-121 0 -216.5 54t-147.5 149.5t-52 215.5zM252 399q0 -98 43 -176t122 -123t181 -45q104 0 183 45t123 123t44 176v631q0 98 -44 177t-124 125t-182 46t-181 -46t-122 -125t-43 -177 v-631z" />
<glyph unicode="&#x153;" horiz-adv-x="1742" d="M154 516q0 106 3 158.5t13 97.5q29 123 127 197.5t235 74.5q113 0 202 -54t134 -146q6 -8 13 0q45 92 133 146t200 54q139 0 238.5 -75.5t128.5 -196.5q10 -41 13 -86t3 -166q0 -23 -20 -22h-653q-8 0 -9 -9q0 -68 2.5 -122t8.5 -78q20 -106 99 -170t198 -64 q100 0 175 49.5t107 131.5q6 18 25 12l26 -8q20 -6 15 -27q-41 -104 -134.5 -166.5t-219.5 -62.5q-117 0 -203 54t-131 146q-6 10 -13 0q-45 -92 -134 -146t-204 -54q-139 0 -235 74.5t-127 199.5q-10 45 -13 100.5t-3 157.5zM233 514q0 -172 11 -225q20 -104 97 -169 t191 -65q115 0 194 65.5t97 168.5q8 30 8 143v82v86q0 111 -8 139q-18 102 -97 168t-194 66t-191.5 -64.5t-96.5 -169.5q-10 -53 -11 -225zM915 565q0 -8 9 -8h585q8 0 9 8q0 117 -11 174q-23 104 -100.5 169t-192.5 65q-114 0 -192 -64.5t-96 -169.5q-10 -43 -11 -174z" />
<glyph unicode="&#x178;" horiz-adv-x="1114" d="M84 1421q0 12 18 13h39q14 0 25 -15l385 -657q2 -2 6 -2t6 2l385 657q10 14 25 15h39q12 0 16 -7.5t-2 -17.5l-428 -731q-2 -2 -2 -10v-648q0 -20 -21 -20h-36q-21 0 -21 20v648q0 8 -2 10l-428 731q-4 8 -4 12zM322 1732q0 29 22.5 50.5t55.5 21.5q31 0 51 -21.5 t20 -50.5q0 -33 -20.5 -53.5t-50.5 -20.5q-35 0 -56.5 20.5t-21.5 53.5zM645 1732q0 29 22 50.5t54 21.5q31 0 52.5 -20.5t21.5 -51.5q0 -33 -20.5 -53.5t-53.5 -20.5q-32 0 -54 20.5t-22 53.5z" />
<glyph unicode="&#x2c6;" horiz-adv-x="473" d="M14 1175.5q-4 8.5 4 16.5l170 221q8 12 27 12h43q18 0 27 -12l170 -221q4 -4 4 -12q0 -4 -4.5 -8.5t-12.5 -4.5h-30q-18 0 -27 13l-141 186q-2 4 -6.5 4t-6.5 -4l-143 -186q-8 -12 -27 -13h-30q-13 0 -17 8.5z" />
<glyph unicode="&#x2dc;" horiz-adv-x="692" d="M80 1296q59 90 156 90q33 0 56.5 -11t64.5 -36q33 -23 55 -34t45 -11q33 0 58.5 13.5t52.5 50.5q10 16 26 6l12 -6q10 -6 11 -19q0 -12 -8 -22q-31 -45 -72 -66.5t-80 -21.5q-35 0 -62.5 13t-58.5 36q-33 25 -52.5 34t-45.5 9q-35 0 -58.5 -11.5t-50.5 -45.5 q-12 -16 -28 -7l-15 11q-14 12 -6 28z" />
<glyph unicode="&#x2000;" horiz-adv-x="992" />
<glyph unicode="&#x2001;" horiz-adv-x="1985" />
<glyph unicode="&#x2002;" horiz-adv-x="992" />
<glyph unicode="&#x2003;" horiz-adv-x="1985" />
<glyph unicode="&#x2004;" horiz-adv-x="661" />
<glyph unicode="&#x2005;" horiz-adv-x="496" />
<glyph unicode="&#x2006;" horiz-adv-x="330" />
<glyph unicode="&#x2007;" horiz-adv-x="330" />
<glyph unicode="&#x2008;" horiz-adv-x="248" />
<glyph unicode="&#x2009;" horiz-adv-x="397" />
<glyph unicode="&#x200a;" horiz-adv-x="110" />
<glyph unicode="&#x2010;" horiz-adv-x="794" d="M90 635v31q0 20 21 20h573q20 0 21 -20v-31q0 -20 -21 -21h-573q-21 1 -21 21z" />
<glyph unicode="&#x2011;" horiz-adv-x="794" d="M90 635v31q0 20 21 20h573q20 0 21 -20v-31q0 -20 -21 -21h-573q-21 1 -21 21z" />
<glyph unicode="&#x2012;" horiz-adv-x="794" d="M90 635v31q0 20 21 20h573q20 0 21 -20v-31q0 -20 -21 -21h-573q-21 1 -21 21z" />
<glyph unicode="&#x2013;" horiz-adv-x="897" d="M90 561v31q0 20 21 20h677q20 0 21 -20v-31q0 -20 -21 -20h-677q-21 0 -21 20z" />
<glyph unicode="&#x2014;" horiz-adv-x="1429" d="M90 561v31q0 20 21 20h1208q20 0 20 -20v-31q0 -20 -20 -20h-1208q-21 0 -21 20z" />
<glyph unicode="&#x2018;" horiz-adv-x="227" d="M10 1041.5q-4 7.5 0 17.5l144 358q6 16 22 17h27q23 0 16 -23l-125 -360q-6 -16 -24 -17h-45q-11 0 -15 7.5z" />
<glyph unicode="&#x2019;" horiz-adv-x="227" d="M8 1057l125 360q6 16 25 17h45q10 0 14 -7.5t0 -17.5l-143 -358q-6 -16 -23 -17h-26q-23 0 -17 23z" />
<glyph unicode="&#x201a;" horiz-adv-x="1228" d="M164 -123l98 420q4 18 23 18h32q10 0 15.5 -6t3.5 -16l-109 -420q-2 -18 -22 -18h-25q-10 0 -15 6t-1 16z" />
<glyph unicode="&#x201c;" horiz-adv-x="454" d="M10 1041.5q-4 7.5 0 17.5l142 358q6 16 22 17h25q23 0 16 -23l-123 -360q-6 -16 -24 -17h-43q-11 0 -15 7.5zM244 1041.5q-4 7.5 0 17.5l139 358q6 16 23 17h24q23 0 16 -23l-122 -360q-6 -16 -25 -17h-41q-10 0 -14 7.5z" />
<glyph unicode="&#x201d;" horiz-adv-x="454" d="M8 1057l123 360q6 16 25 17h41q10 0 14 -7.5t0 -17.5l-139 -358q-6 -16 -23 -17h-24q-23 0 -17 23zM240 1057l122 360q6 16 25 17h43q10 0 14.5 -7.5t-0.5 -17.5l-141 -358q-6 -16 -22 -17h-25q-23 0 -16 23z" />
<glyph unicode="&#x201e;" horiz-adv-x="460" d="M8 -117l123 360q6 16 25 17h41q10 0 14 -7.5t0 -17.5l-139 -358q-6 -16 -23 -17h-24q-23 0 -17 23zM240 -117l122 360q6 16 25 17h43q10 0 14.5 -7.5t-0.5 -17.5l-141 -358q-6 -16 -22 -17h-25q-23 0 -16 23z" />
<glyph unicode="&#x2022;" horiz-adv-x="624" d="M90 539q0 92 65.5 156.5t157.5 64.5q90 0 156 -64.5t66 -156.5t-66 -158t-156 -66q-92 0 -157.5 65.5t-65.5 158.5z" />
<glyph unicode="&#x2026;" horiz-adv-x="1564" d="M178 109q0 39 30 67.5t68 28.5q41 0 72 -29t31 -67q0 -41 -31 -70t-72 -29q-40 0 -69 29t-29 70zM684 109q0 39 30 67.5t68 28.5q41 0 72 -29t31 -67q0 -41 -31 -70t-72 -29q-40 0 -69 29t-29 70zM1177 109q0 39 30 67.5t68 28.5q41 0 72 -29t31 -67q0 -41 -31 -70 t-72 -29q-40 0 -69 29t-29 70z" />
<glyph unicode="&#x202f;" horiz-adv-x="397" />
<glyph unicode="&#x2039;" horiz-adv-x="770" d="M166 575.5q0 8.5 6 14.5l283 330q10 12 24 12h35q12 0 15 -7t-5 -18l-278 -325q-2 -6 0 -13l278 -325q6 -7 6 -13q0 -12 -16 -12h-35q-14 0 -24 12l-283 330q-6 6 -6 14.5z" />
<glyph unicode="&#x203a;" horiz-adv-x="831" d="M240 920q0 12 16 12h35q14 0 24 -12l283 -330q6 -6 6 -14.5t-6 -14.5l-283 -330q-8 -12 -24 -12h-35q-12 0 -15 7t5 18l278 325q4 6 0 13l-278 325q-6 6 -6 13z" />
<glyph unicode="&#x205f;" horiz-adv-x="496" />
<glyph unicode="&#x20ac;" horiz-adv-x="1304" d="M172 588v16q0 20 21 21h143q8 0 8 8v162q0 8 -8 8h-143q-20 0 -21 20v17q0 20 21 20h143q8 0 8 8v193q0 174 110.5 281.5t293.5 107.5q166 0 274 -91t125 -243v-4q0 -14 -19 -18l-38 -7h-5q-14 0 -18 19q-12 125 -98 198.5t-221 73.5q-145 0 -234.5 -87t-89.5 -228v-195 q0 -8 8 -8h533q10 0 15 -7t1 -17l-8 -17q-6 -16 -23 -16h-518q-8 0 -8 -8v-162q0 -8 8 -8h463q10 0 15 -7.5t1 -17.5l-8 -16q-6 -16 -22 -17h-449q-8 0 -8 -8v-188q0 -141 90 -229.5t234 -88.5q133 0 219 73t100 196q4 20 23 16l38 -6q20 -4 19 -23q-23 -150 -129.5 -238.5 t-269.5 -88.5q-180 0 -292 108.5t-112 284.5v184q0 8 -8 8h-143q-20 0 -21 21z" />
<glyph unicode="&#x2122;" horiz-adv-x="1335" d="M51 1399v14q0 20 21 21h450q20 0 21 -21v-14q0 -20 -21 -21h-192q-8 0 -8 -8v-635q0 -20 -21 -20h-20q-20 0 -21 20v635q0 8 -8 8h-180q-21 1 -21 21zM711 735v678q0 20 20 21h23q14 0 24 -15l183 -282q2 -2 6 -2t6 2l180 282q11 15 25 15h24q20 0 21 -21v-678 q0 -20 -21 -20h-20q-20 0 -21 20v574q0 6 -4 8t-6 -4l-160 -246q-10 -14 -24 -14t-25 14l-160 246q-2 6 -6 4t-4 -8v-574q0 -20 -20 -20h-21q-20 0 -20 20z" />
<glyph unicode="&#x25fc;" horiz-adv-x="1024" d="M0 0v1024h1024v-1024h-1024z" />
</font>
</defs>
</svg>
