<?xml version="1.0" standalone="no"?>
<!DOCTYPE svg PUBLIC "-//W3C//DTD SVG 1.1//EN" "http://www.w3.org/Graphics/SVG/1.1/DTD/svg11.dtd" >
<svg xmlns="http://www.w3.org/2000/svg" xmlns:xlink="http://www.w3.org/1999/xlink" version="1.1">
<metadata></metadata>
<defs>
<font id="barlowextrabold_italic" horiz-adv-x="526" >
<font-face units-per-em="2048" ascent="1638" descent="-410" />
<missing-glyph horiz-adv-x="397" />
<glyph horiz-adv-x="0" />
<glyph unicode="&#xd;" horiz-adv-x="397" />
<glyph unicode=" "  horiz-adv-x="397" />
<glyph unicode="&#x09;" horiz-adv-x="397" />
<glyph unicode="&#xa0;" horiz-adv-x="397" />
<glyph unicode="!" horiz-adv-x="704" d="M127 176q0 57 34 107.5t88 81t107 30.5q74 0 128.5 -51t54.5 -123q0 -90 -69 -154.5t-163 -64.5q-80 0 -130 49t-50 125zM244 537l75 860q6 37 39 37h258q35 0 31 -37l-137 -860q-2 -16 -13.5 -26.5t-27.5 -10.5h-190q-17 0 -27 10t-8 27z" />
<glyph unicode="&#x22;" horiz-adv-x="780" d="M133 987l19 406q0 18 11 28.5t30 10.5h237q18 0 26.5 -10.5t4.5 -28.5l-80 -406q-6 -35 -39 -35h-178q-33 0 -31 35zM569 987l19 406q4 39 41 39h239q18 0 26.5 -10.5t4.5 -28.5l-80 -406q-8 -35 -41 -35h-176q-33 0 -33 35z" />
<glyph unicode="#" horiz-adv-x="1382" d="M82 377l27 215q2 16 13 26.5t28 10.5h135q12 0 16 12l41 154v4q0 10 -12 10h-86q-16 0 -24.5 10t-6.5 27l27 217q2 16 13 26.5t28 10.5h131q14 0 16 12l64 231q10 35 43 35l258 -2q39 0 26 -39l-59 -221q-2 -6 1 -11t9 -5h148q14 0 18 12l61 231q10 35 43 35l258 -2 q37 0 29 -39l-61 -221l-2 -4q0 -4 4 -8t10 -4h88q16 0 25.5 -10.5t7.5 -26.5l-27 -217q-6 -37 -41 -37h-135q-14 0 -18 -12l-39 -154q-2 -6 1 -10t9 -4h88q16 0 24.5 -10.5t6.5 -26.5l-27 -215q-6 -37 -41 -37h-131q-14 0 -18 -12l-62 -230q-10 -35 -43 -35h-256 q-39 0 -31 39l62 222l2 4q0 4 -4 8t-10 4h-146q-14 0 -18 -12l-62 -230q-12 -35 -45 -35h-256q-18 0 -26.5 10.5t-1.5 28.5l61 222v4q0 4 -4 8t-8 4h-90q-16 0 -24.5 10t-6.5 27zM631 639q0 -10 12 -10h148q14 0 16 12l41 154l2 4q0 4 -5 7t-9 3h-146q-14 0 -18 -12 l-41 -154v-4z" />
<glyph unicode="$" horiz-adv-x="1099" d="M74 313q0 14 4 52l12 90q2 16 12.5 26.5t26.5 10.5h254q14 0 23.5 -7.5t9.5 -17.5l-4 -25l-2 -24q0 -61 36.5 -102.5t110.5 -41.5q78 0 119 46.5t41 97.5t-49.5 81.5t-155.5 69.5q-74 27 -128 52.5t-97 58.5q-139 104 -140 283q0 188 113 316t307 161q16 4 17 16l10 105 q2 16 12 26t27 10h137q16 0 24.5 -10t6.5 -26l-15 -103q0 -14 13 -16q154 -20 238.5 -109.5t84.5 -226.5q0 -16 -4 -57l-8 -74q-6 -37 -41 -37h-252q-35 0 -35 20l4 19q2 10 2 29q0 66 -35.5 109.5t-109.5 43.5q-72 0 -118 -39t-46 -100q0 -51 45 -78t150 -63 q104 -35 149 -58q229 -113 230 -336q0 -18 -4 -63q-21 -172 -132.5 -285.5t-293.5 -142.5q-14 -2 -17 -17l-8 -86q-2 -16 -11 -26t-26 -10h-141q-35 0 -31 36l12 84q2 12 -10 17q-152 23 -234.5 107.5t-82.5 213.5z" />
<glyph unicode="%" horiz-adv-x="1622" d="M193 1075q0 100 52 186.5t138 137.5t180 51q125 0 207 -84t82 -209q0 -100 -52 -187t-137 -138.5t-182 -51.5q-125 0 -206.5 84t-81.5 211zM285 20q0 12 8 23l905 1364q20 27 45 27h154q14 0 22 -6.5t8 -14.5q0 -12 -8 -22l-903 -1364q-20 -27 -45 -27h-158q-28 0 -28 20 zM365 1096q0 -59 39.5 -101.5t97.5 -42.5q71 0 124.5 54.5t53.5 130.5q0 59 -39 100t-98 41q-70 0 -124 -54.5t-54 -127.5zM883 276q0 100 51 186.5t137 138.5t182 52q125 0 207 -84t82 -209q0 -100 -52 -187t-137 -138t-182 -51q-124 0 -206 84t-82 208zM1055 297 q0 -61 40 -101t99 -40q70 0 123 54t53 128q0 59 -40 101t-97 42q-72 0 -125 -55t-53 -129z" />
<glyph unicode="&#x26;" horiz-adv-x="1429" d="M63 299q0 156 79 259.5t216 184.5q12 8 7 21q-68 96 -92.5 151.5t-24.5 104.5q0 23 2 33q23 178 154 287.5t325 109.5q182 0 293 -94t111 -250q0 -150 -81 -248t-221 -174q-14 -8 -6 -20q78 -106 121 -158q8 -8 21 0q82 78 135 151q12 18 31 19q10 0 20 -6l174 -111 q14 -8 14 -27q0 -10 -8 -24q-90 -127 -198 -227q-8 -8 -2 -21l157 -215q8 -10 8 -20t-9 -17.5t-23 -7.5h-287q-27 0 -41 20l-51 64q-10 10 -19 4q-201 -104 -403 -104q-174 0 -288 78.5t-114 236.5zM397 354q0 -41 30 -65.5t81 -24.5q25 0 51 6q70 14 129 43q14 10 6 21 l-73 92l-78 96q-6 10 -19 4q-127 -82 -127 -172zM580 1047q0 -20 14 -50t55 -92q8 -8 19 -4q131 72 131 158q0 39 -27 61.5t-74 22.5q-51 0 -84.5 -28t-33.5 -68z" />
<glyph unicode="'" horiz-adv-x="360" d="M133 989l19 406q0 18 11 28.5t30 10.5h256q16 0 24 -10.5t6 -28.5l-82 -406q-6 -35 -39 -35h-194q-31 0 -31 35z" />
<glyph unicode="(" horiz-adv-x="751" d="M33 479q0 96 12 207q61 502 371 844q18 20 45 20h250q27 0 26 -18q0 -14 -8 -25q-260 -377 -315 -821q-14 -106 -15 -215q0 -322 129 -606q4 -12 4 -17q0 -27 -34 -26h-250q-27 0 -39 20q-176 270 -176 637z" />
<glyph unicode=")" horiz-adv-x="751" d="M102 -160q0 14 9 25q117 170 200.5 369.5t114.5 451.5q14 106 14 215q0 326 -129 606q-4 12 -4 17q0 27 35 26h250q27 0 39 -20q176 -270 176 -637q0 -96 -12 -207q-61 -502 -371 -844q-18 -20 -45 -20h-250q-27 0 -27 18z" />
<glyph unicode="*" horiz-adv-x="792" d="M133 1055q0 23 23 32l145 72q8 4 8 10.5t-8 10.5l-125 67q-18 10 -18 25q0 10 10 24l70 111q12 20 32 20q10 0 19 -6l127 -80q6 -4 10 -1t6 12l17 141q2 16 12 26.5t26 10.5h113q16 0 25.5 -10.5t7.5 -26.5l-21 -141q0 -18 15 -11l147 80q12 6 23 6q18 0 26 -20l41 -111 l4 -16q0 -20 -24 -33l-146 -67q-16 -10 -2 -21l129 -72q16 -10 17 -24q0 -8 -8 -25l-70 -110q-12 -20 -31 -21q-10 0 -20 6l-127 82q-2 2 -8 2t-11 -12l-14 -143q-6 -37 -41 -37h-113q-16 0 -25 10t-7 27l20 143q2 8 -2 11t-12 -1l-146 -82q-8 -6 -20 -6q-20 0 -27 21 l-45 110q-2 6 -2 17z" />
<glyph unicode="+" horiz-adv-x="956" d="M72 498l26 217q2 16 12.5 26.5t26.5 10.5h240q14 0 14 14l31 246q6 37 41 37h209q16 0 24.5 -10.5t5.5 -26.5l-30 -246q0 -14 12 -14h238q16 0 24 -10.5t6 -26.5l-26 -217q-6 -37 -41 -37h-236q-12 0 -16 -15l-29 -241q-6 -37 -41 -37h-209q-16 0 -24 10t-6 27l28 241v5 q0 10 -12 10h-238q-16 0 -24 10t-6 27z" />
<glyph unicode="," d="M2 -176l115 467q8 35 43 35h217q31 0 31 -25l-5 -16l-178 -469q-10 -31 -43 -31h-151q-35 0 -29 39z" />
<glyph unicode="-" horiz-adv-x="823" d="M70 485l26 217q2 16 13.5 26.5t27.5 10.5h651q16 0 24.5 -10t6.5 -27l-26 -217q-2 -16 -13.5 -26t-27.5 -10h-652q-16 0 -24 10t-6 26z" />
<glyph unicode="." d="M41 160q0 18 2 26q8 80 77.5 137.5t147.5 57.5q74 0 128.5 -50t54.5 -124q0 -90 -68 -154.5t-162 -64.5q-80 0 -130 49t-50 123z" />
<glyph unicode="/" horiz-adv-x="946" d="M4 25q0 10 6 18l697 1362q16 29 45 29h254q29 0 28 -23q0 -8 -6 -20l-692 -1362q-16 -29 -45 -29h-258q-29 0 -29 25z" />
<glyph unicode="0" horiz-adv-x="1134" d="M86 385q0 39 6 82l62 500q27 223 175 353t376 130q207 0 323.5 -108.5t116.5 -299.5q0 -23 -4 -75l-62 -500q-29 -227 -178 -359.5t-377 -132.5q-207 0 -322.5 110t-115.5 300zM418 418q0 -70 38 -110t103 -40q78 0 128 48.5t58 132.5l66 530q2 12 2 33q0 70 -38 108.5 t-105 38.5q-76 0 -125 -48t-60 -132l-65 -530q-2 -10 -2 -31z" />
<glyph unicode="1" horiz-adv-x="671" d="M139 1135l23 190q6 29 35 41l174 59q22 9 45 9h272q16 0 24.5 -10.5t6.5 -26.5l-166 -1360q-2 -16 -13.5 -26.5t-27.5 -10.5h-258q-35 0 -31 37l131 1071q2 6 -2 10t-10 2l-170 -20h-4q-33 0 -29 35z" />
<glyph unicode="2" horiz-adv-x="1128" d="M45 37l25 207q2 27 24 45q90 78 190.5 173t137.5 130q80 80 156 149q205 195 215 281q8 59 -30 98t-106 39q-70 0 -114.5 -39t-53.5 -102l-6 -37q-2 -16 -12 -26.5t-27 -10.5h-262q-16 0 -25.5 10.5t-6.5 26.5l12 90q23 115 98.5 201t188 132t243.5 46q137 0 235.5 -49 t149.5 -134t51 -190q0 -98 -51 -195.5t-153 -205.5q-72 -78 -159 -158t-235 -209q-8 -8 -7 -13t12 -5h485q16 0 24.5 -10.5t6.5 -26.5l-27 -217q-6 -37 -41 -37h-907q-17 0 -25 10t-6 27z" />
<glyph unicode="3" horiz-adv-x="1091" d="M68 403l2 41q4 37 39 37h262q33 0 32 -35q0 -53 13 -88q10 -39 39.5 -60.5t74.5 -21.5q86 0 134 76q39 57 45 135q4 33 4 48q0 53 -17 96q-14 37 -43.5 57.5t-70.5 20.5q-23 0 -49.5 -13.5t-65.5 -40.5q-10 -8 -25 -8q-14 0 -24 17l-105 184q-6 10 -6 18q0 18 21 33 l317 225q8 6 6 12.5t-10 6.5h-418q-16 0 -24.5 10t-5.5 27l26 217q2 16 13.5 26.5t27.5 10.5h842q16 0 24.5 -10.5t6.5 -26.5l-31 -246q-2 -27 -27 -45l-254 -191q-6 -4 -5 -11t11 -9q147 -43 199 -207q18 -61 18 -137q0 -25 -4 -74q-12 -104 -65 -207q-68 -133 -195 -209.5 t-284 -76.5q-156 0 -265.5 78.5t-146.5 213.5q-16 66 -16 127z" />
<glyph unicode="4" horiz-adv-x="1241" d="M61 395l23 178q2 18 16 48l432 784q14 29 46 29h276q29 0 29 -25q0 -8 -6 -18l-394 -715q-6 -16 9 -17h243q14 0 15 15l26 213q2 16 13.5 26.5t27.5 10.5h258q35 0 31 -37l-27 -213q0 -14 13 -15h71q17 0 25 -10t6 -26l-27 -228q-6 -37 -41 -37h-71q-14 0 -15 -14 l-39 -307q-2 -16 -13 -26.5t-27 -10.5h-259q-16 0 -24 10t-6 27l39 307q0 6 -4.5 10t-8.5 4h-604q-16 0 -25.5 10.5t-7.5 26.5z" />
<glyph unicode="5" horiz-adv-x="1087" d="M78 377q0 39 39 39h268q29 0 35 -27q0 -2 10 -27q10 -41 40 -62t75 -21q41 0 75.5 21.5t57.5 59.5q31 41 37 99q4 25 4 37q0 35 -12 67q-10 37 -40 58.5t-77 21.5q-82 0 -131 -57q-12 -14 -21.5 -19.5t-23.5 -5.5h-277q-16 0 -25.5 10.5t-7.5 26.5l99 799q6 37 41 37h846 q16 0 24 -10.5t6 -26.5l-26 -217q-2 -16 -12.5 -26.5t-26.5 -10.5h-539q-12 0 -16 -15l-29 -229q0 -18 16 -10q88 47 187 47q139 0 237.5 -74t130.5 -200q15 -57 15 -127q0 -25 -4 -70q-14 -109 -60 -197q-68 -127 -197.5 -203.5t-285.5 -76.5q-158 0 -267.5 74.5 t-148.5 203.5q-12 47 -16 111z" />
<glyph unicode="6" horiz-adv-x="1083" d="M80 391q0 37 6 76l74 608q14 111 83.5 196t181.5 132t249 47q188 0 303 -89t115 -235q0 -14 -5 -47l-6 -57q-6 -37 -41 -37h-258q-37 0 -32 23l2 22l2 19q0 49 -32 79.5t-85 30.5q-59 0 -102 -38t-52 -95l-18 -154v-4q0 -6 5 -8t11 4q80 57 203 58q121 0 214 -61.5 t134 -176.5q21 -61 21 -143q0 -49 -4 -76q-14 -119 -66 -207q-68 -125 -193.5 -197.5t-281.5 -72.5t-264.5 73.5t-145.5 202.5q-18 59 -18 127zM414 426q0 -41 14 -78q31 -70 115 -69q82 0 131 69q47 61 47 137q0 51 -21 90q-33 61 -112 62q-84 0 -129 -64q-35 -45 -43 -114 q-2 -12 -2 -33z" />
<glyph unicode="7" horiz-adv-x="1001" d="M117 1049l45 348q2 16 13 26.5t28 10.5h874q16 0 25.5 -10.5t7.5 -26.5l-29 -232q-4 -25 -14 -45l-547 -1091q-16 -29 -45 -29h-276q-29 0 -29 23q0 8 6 20l549 1083q6 16 -10 17h-305q-4 0 -9.5 -4t-5.5 -11l-10 -79q-2 -16 -13.5 -26.5t-27.5 -10.5h-197q-16 0 -24 10 t-6 27z" />
<glyph unicode="8" horiz-adv-x="1091" d="M68 369q0 76 22.5 146.5t54.5 125.5q41 66 103 107q16 10 4 20q-45 43 -70 96q-27 55 -26 133q0 162 98 283q72 88 185.5 135t246.5 47q154 0 257.5 -56t146.5 -171q25 -70 24 -143q0 -125 -74 -226q-37 -47 -96 -94q-12 -10 -2 -18q55 -45 80 -113q25 -57 25 -139 q0 -35 -7 -78q-14 -115 -65 -199q-68 -111 -193 -176t-282 -65q-150 0 -256.5 62.5t-149.5 180.5q-27 66 -26 142zM412 414q0 -49 14 -78q33 -63 115 -64q78 0 125 58q35 41 49 129q2 12 2 37q0 37 -8 59q-29 84 -123 84t-140 -82q-27 -41 -32 -102q-2 -14 -2 -41zM479 973 q0 -39 13 -64q31 -68 118 -67q43 0 80 17.5t58 49.5q29 41 34 99q2 10 2 30q0 31 -8 54q-31 80 -125 79q-94 0 -143 -77q-19 -33 -27 -88q-2 -10 -2 -33z" />
<glyph unicode="9" horiz-adv-x="1060" d="M68 309q0 29 2 45l6 58q6 37 41 37h258q37 0 33 -23l-2 -23q-6 -55 25.5 -92t88.5 -37q59 0 102.5 38t51.5 96l18 153v4q0 6 -5 8t-11 -4q-80 -57 -203 -57q-121 0 -214 61.5t-134 176.5q-20 61 -21 143q0 49 5 76q14 119 65 207q68 125 195 197.5t282 72.5 q154 0 262.5 -74t145.5 -203q18 -61 18 -133q0 -25 -4 -69l-76 -609q-12 -111 -81.5 -195.5t-182 -131.5t-250.5 -47q-190 0 -302.5 89t-112.5 236zM438 944q0 -45 19 -86q35 -61 112 -61q82 0 131 63q33 47 41 115q2 12 2 33q0 43 -14 77q-31 70 -115 70q-82 0 -131 -70 q-45 -55 -45 -141z" />
<glyph unicode=":" horiz-adv-x="741" d="M154 178q0 59 33.5 109.5t87 81t108.5 30.5q72 0 126 -51t54 -123q0 -90 -67.5 -154.5t-161.5 -64.5q-82 0 -131 49t-49 123zM236 840q0 18 2 26q8 80 77.5 138.5t149.5 58.5q74 0 127 -51t53 -125q0 -88 -67.5 -152.5t-161.5 -64.5q-80 0 -130 48t-50 122z" />
<glyph unicode=";" horiz-adv-x="628" d="M72 -174l98 463q8 35 43 35h219q18 0 26.5 -10.5t2.5 -30.5l-170 -463q-12 -33 -43 -33h-148q-34 0 -28 39zM174 788q0 18 2 27q8 80 78 138.5t147 58.5q74 0 128.5 -51.5t54.5 -124.5q0 -88 -67.5 -154t-162.5 -66q-80 0 -130 49.5t-50 122.5z" />
<glyph unicode="&#x3c;" horiz-adv-x="956" d="M68 451l28 229q2 31 33 43l827 352q12 4 19 4q10 0 16 -9t4 -23l-30 -246q-2 -27 -33 -41l-488 -185q-10 -4 -10 -11t8 -9l443 -184q25 -12 22 -43l-30 -244q-6 -33 -29 -33l-17 4l-741 353q-25 12 -22 43z" />
<glyph unicode="=" horiz-adv-x="956" d="M72 295l26 217q2 16 12.5 26.5t26.5 10.5h785q16 0 24 -10.5t6 -26.5l-26 -217q-6 -37 -41 -37h-783q-16 0 -24 10t-6 27zM72 678l26 217q2 16 12.5 26.5t26.5 10.5h785q16 0 24 -10.5t6 -26.5l-26 -217q-6 -37 -41 -37h-783q-16 0 -24 10t-6 27z" />
<glyph unicode="&#x3e;" horiz-adv-x="956" d="M20 84l29 244q6 31 35 43l487 184q8 2 9.5 9t-7.5 11l-442 185q-25 12 -22 41l30 246q4 33 29 32l16 -4l742 -352q25 -12 22 -43l-28 -229q-2 -31 -33 -43l-828 -353q-12 -4 -18 -4q-12 0 -17.5 9.5t-3.5 23.5z" />
<glyph unicode="?" horiz-adv-x="1079" d="M131 1001l2 15q14 129 90 228t197 154.5t268 55.5q201 0 317.5 -97t116.5 -261q0 -16 -4 -54q-12 -92 -52 -156.5t-89 -105.5t-125 -88q-74 -45 -113 -82t-45 -88l-2 -16q-6 -37 -41 -37h-258q-16 0 -24.5 10t-6.5 27l5 37q14 109 77.5 174t171.5 133q86 53 126 93t40 97 q0 49 -36.5 77t-102.5 28q-76 0 -125 -36t-55 -93l-2 -10q-2 -16 -12.5 -26.5t-26.5 -8.5l-258 12q-35 4 -33 18zM311 150q0 84 65.5 145t147.5 61q70 0 118 -47t48 -114q0 -80 -65.5 -141.5t-147.5 -61.5q-71 0 -118.5 45t-47.5 113z" />
<glyph unicode="@" horiz-adv-x="1622" d="M72 379q0 96 28 217q57 229 197.5 407.5t336 277.5t413.5 99q178 0 307 -66.5t198.5 -187t69.5 -284.5q0 -100 -27 -207q-47 -205 -158.5 -319.5t-281.5 -114.5q-141 0 -207 78q-10 10 -20 0q-45 -39 -106.5 -58.5t-123.5 -19.5q-102 0 -161.5 56t-65.5 149q-2 10 -2 30 q0 61 23 144q29 100 61 168q49 104 132 158.5t173 54.5q92 0 135 -56q4 -8 9.5 -7t9.5 7l4 19q10 35 41 34h147q39 0 27 -38l-90 -355q-10 -41 -11 -67q0 -41 17.5 -65.5t54.5 -24.5q55 0 95 54t67 159q27 104 27 192q0 176 -102.5 268.5t-280.5 92.5q-160 0 -300.5 -74 t-241.5 -208t-144 -308q-25 -94 -25 -178q0 -178 106.5 -276.5t288.5 -98.5q88 0 169 21.5t134 51.5q16 6 25 7q16 0 24 -15l66 -92q6 -10 6 -20q0 -18 -18 -31q-90 -61 -213 -98t-250 -37q-160 0 -288 67.5t-201.5 194.5t-73.5 299zM688 481l2 -20q4 -33 24.5 -51.5 t55.5 -18.5q59 0 104 70q29 43 48 121q16 70 12 118q0 31 -20.5 49.5t-53.5 18.5q-31 0 -60.5 -19.5t-47.5 -50.5q-27 -41 -47 -127q-16 -55 -17 -90z" />
<glyph unicode="A" horiz-adv-x="1378" d="M14 25l4 16l586 1362q12 31 45 31h350q33 0 39 -31l252 -1362v-8q0 -33 -35 -33h-280q-33 0 -35 31l-27 168q0 12 -14 12h-448q-12 0 -17 -12l-67 -168q-10 -31 -43 -31h-281q-29 0 -29 25zM550 478q3 -5 11 -5h293q8 0 12 5t2 11l-84 545q-2 10 -7 10t-9 -10l-217 -545 q-4 -6 -1 -11z" />
<glyph unicode="B" horiz-adv-x="1224" d="M61 37l168 1360q2 16 13.5 26.5t27.5 10.5h500q219 0 333 -78t114 -250q0 -23 -5 -72q-27 -201 -190 -284q-8 -5 -9 -11t7 -10q141 -82 141 -260q0 -18 -4 -63q-27 -205 -176.5 -305.5t-370.5 -100.5h-516q-16 0 -25.5 10t-7.5 27zM426 307q-2 -6 2 -10t8 -4h209 q88 0 138.5 45t50.5 125q0 59 -39 91t-113 32h-209q-12 0 -16 -15zM496 874q0 -10 12 -10h192q82 0 129.5 36t57.5 101q1 12 1 22q0 52 -32 83q-39 37 -121 37h-194q-4 0 -9.5 -4t-5.5 -11l-30 -249v-5z" />
<glyph unicode="C" horiz-adv-x="1210" d="M92 422q0 49 4 76l56 442q18 152 98 267.5t209 179t286 63.5q221 0 349.5 -111.5t128.5 -302.5q0 -20 -4 -69q0 -18 -37 -23l-260 -18h-9q-29 0 -28 10l2 12q2 12 2 35q0 82 -48 129t-130 47q-90 0 -153.5 -58.5t-76.5 -152.5l-57 -465q-2 -10 -2 -30q0 -82 49 -130.5 t131 -48.5q92 0 154.5 57.5t72.5 151.5q2 10 12.5 17.5t26.5 5.5l258 -14q35 -4 33 -11v-10q-18 -145 -98 -256t-208 -171t-288 -60q-219 0 -346 118.5t-127 319.5z" />
<glyph unicode="D" horiz-adv-x="1226" d="M61 37l168 1360q2 16 13.5 26.5t27.5 10.5h494q217 0 345 -105.5t128 -284.5q0 -18 -4 -59l-66 -536q-16 -133 -94 -235.5t-204 -158t-281 -55.5h-494q-16 0 -25.5 10t-7.5 27zM424 305q0 -14 12 -14h201q80 0 137 58.5t72 156.5l51 422q2 14 2 39q0 82 -43 129t-117 47 h-198q-4 0 -9.5 -4t-5.5 -11z" />
<glyph unicode="E" horiz-adv-x="1146" d="M61 37l168 1360q2 16 13.5 26.5t27.5 10.5h916q16 0 24.5 -10.5t6.5 -26.5l-27 -217q-2 -17 -13.5 -27t-27.5 -10h-608q-4 0 -9.5 -4t-5.5 -11l-30 -243q0 -14 12 -15h383q16 0 25.5 -10t7.5 -26l-27 -216q-6 -37 -41 -36h-383q-12 0 -16 -15l-33 -262q0 -14 12 -14h608 q16 0 24.5 -10.5t6.5 -26.5l-26 -217q-2 -16 -12.5 -26.5t-26.5 -10.5h-916q-16 0 -25.5 10t-7.5 27z" />
<glyph unicode="F" horiz-adv-x="1105" d="M61 37l168 1360q2 16 13.5 26.5t27.5 10.5h914q16 0 24.5 -10.5t5.5 -26.5l-26 -217q-2 -17 -13.5 -27t-27.5 -10h-606q-4 0 -9.5 -4t-5.5 -11l-30 -243q0 -14 12 -15h383q16 0 25.5 -10t7.5 -26l-27 -216q-6 -37 -41 -36h-383q-12 0 -16 -15l-66 -530q-2 -16 -12 -26.5 t-27 -10.5h-258q-16 0 -25.5 10t-7.5 27z" />
<glyph unicode="G" horiz-adv-x="1208" d="M94 428q0 53 4 80l52 420q18 156 99 273.5t210 183t286 65.5q145 0 254 -54.5t167.5 -148.5t58.5 -211q0 -18 -4 -59q-2 -16 -13.5 -25.5t-27.5 -9.5h-258q-35 0 -33 12v13q2 8 2 24q0 72 -47 120t-133 48q-90 0 -153.5 -61.5t-76.5 -159.5l-55 -440q-2 -10 -2 -33 q0 -84 54 -136.5t138 -52.5q88 0 147.5 48.5t70.5 134.5l6 53q0 14 -13 14h-182q-16 0 -24.5 10.5t-6.5 26.5l25 201q2 16 12.5 26.5t26.5 10.5h485q16 0 24.5 -10.5t6.5 -26.5l-33 -266q-18 -154 -98 -270.5t-209 -180t-289 -63.5q-217 0 -344 120.5t-127 323.5z" />
<glyph unicode="H" horiz-adv-x="1228" d="M61 37l168 1360q2 16 13.5 26.5t27.5 10.5h258q16 0 24.5 -10.5t6.5 -26.5l-63 -512q0 -14 12 -15h364q14 0 15 15l63 512q2 16 13.5 26.5t27.5 10.5h258q16 0 24.5 -10.5t6.5 -26.5l-168 -1360q-2 -16 -12 -26.5t-27 -10.5h-258q-16 0 -25.5 10t-7.5 27l66 528v4 q0 10 -12 11h-363q-12 0 -16 -15l-66 -528q-2 -16 -12 -26.5t-27 -10.5h-258q-16 0 -25.5 10t-7.5 27z" />
<glyph unicode="I" d="M61 37l168 1360q2 16 13.5 26.5t27.5 10.5h258q16 0 24.5 -10.5t6.5 -26.5l-168 -1360q-2 -16 -12 -26.5t-27 -10.5h-258q-16 0 -25.5 10t-7.5 27z" />
<glyph unicode="J" horiz-adv-x="1179" d="M43 395q0 23 4 68l8 65q2 16 12.5 26.5t26.5 10.5h260q16 0 24.5 -10t6.5 -27l-8 -63q-2 -10 -2 -29q0 -74 47 -118t127 -44q90 0 150.5 52.5t70.5 138.5l115 932q2 16 13 26.5t28 10.5h256q16 0 24 -10.5t6 -26.5l-114 -934q-16 -141 -96 -250t-207 -169t-283 -60 q-215 0 -342 112.5t-127 298.5z" />
<glyph unicode="K" horiz-adv-x="1253" d="M61 37l168 1360q2 16 13.5 26.5t27.5 10.5h258q16 0 24.5 -10.5t6.5 -26.5l-63 -512v-2q0 -8 5 -10.5t13 6.5l455 532q18 23 45 23h295q29 0 28 -21q0 -8 -12 -24l-487 -574q-10 -10 -4 -20l346 -750l4 -16q0 -12 -9.5 -20.5t-23.5 -8.5h-293q-27 0 -39 25l-237 532 q-4 6 -9.5 8t-11.5 -6l-117 -139q-2 -2 -8 -19l-45 -364q-2 -16 -12 -26.5t-27 -10.5h-258q-16 0 -25.5 10t-7.5 27z" />
<glyph unicode="L" horiz-adv-x="1138" d="M61 37l168 1360q2 16 13.5 26.5t27.5 10.5h258q16 0 24.5 -10.5t6.5 -26.5l-135 -1092q0 -14 12 -14h619q16 0 24 -10.5t6 -26.5l-26 -217q-2 -16 -12.5 -26.5t-26.5 -10.5h-926q-16 0 -25.5 10t-7.5 27z" />
<glyph unicode="M" horiz-adv-x="1417" d="M63 37l168 1360q2 16 13.5 26.5t27.5 10.5h256q29 0 39 -25l209 -440q8 -12 21 0l319 440q16 25 45 25h256q16 0 24.5 -10.5t6.5 -26.5l-166 -1360q-2 -16 -13.5 -26.5t-27.5 -10.5h-258q-35 0 -31 37l99 801v4q0 8 -5.5 8t-11.5 -8l-192 -271q-16 -25 -45 -24h-121 q-31 0 -39 24l-129 271q-4 10 -9 8t-7 -12l-99 -801q-2 -16 -12 -26.5t-27 -10.5h-258q-16 0 -25.5 10t-7.5 27z" />
<glyph unicode="N" horiz-adv-x="1296" d="M63 37l168 1360q2 16 13.5 26.5t27.5 10.5h244q27 0 39 -25l342 -762q4 -8 8 -8q6 0 10 14l89 744q6 37 40 37h254q16 0 24.5 -10.5t6.5 -26.5l-166 -1360q-6 -37 -41 -37h-243q-27 0 -39 25l-342 772q-4 10 -10.5 8t-8.5 -12l-90 -756q-2 -16 -12 -26.5t-27 -10.5h-254 q-16 0 -25.5 10t-7.5 27z" />
<glyph unicode="O" horiz-adv-x="1232" d="M94 432q0 51 4 80l52 410q18 156 101 275.5t213 186t290 66.5q147 0 255.5 -55.5t167 -156.5t58.5 -237q0 -53 -4 -79l-49 -410q-18 -160 -101.5 -280.5t-214.5 -187.5t-293 -67q-221 0 -350 123t-129 332zM426 461q0 -90 49 -141.5t133 -51.5q97 0 163.5 64.5 t78.5 169.5l53 424q2 12 2 37q0 90 -50 143t-136 53q-94 0 -160.5 -64.5t-79.5 -168.5l-51 -424q-2 -14 -2 -41z" />
<glyph unicode="P" horiz-adv-x="1187" d="M55 37l168 1360q2 16 13.5 26.5t27.5 10.5h561q187 0 296.5 -104.5t109.5 -282.5q0 -20 -4 -70q-16 -133 -88 -235.5t-185.5 -158t-255.5 -55.5h-237q-12 0 -17 -14l-59 -477q-2 -16 -12.5 -26.5t-26.5 -10.5h-258q-16 0 -25.5 10t-7.5 27zM481 809q0 -10 13 -10h200 q90 0 147.5 55t57.5 143q0 66 -44 106t-118 40h-200q-6 0 -11.5 -4t-5.5 -11l-39 -315v-4z" />
<glyph unicode="Q" horiz-adv-x="1191" d="M86 412q0 51 4 77l53 429q18 158 99.5 278.5t208.5 187t282 66.5q215 0 341 -122t126 -329q0 -39 -6 -81l-53 -429q-20 -180 -130 -307t-278 -174q-12 -6 -12 -16l-19 -144q-2 -16 -13 -26t-27 -10h-259q-16 0 -24 10t-6 26l18 144q0 10 -10 16q-139 41 -217 146.5 t-78 257.5zM418 461q0 -84 46 -135.5t124 -51.5q90 0 151.5 61.5t71.5 162.5l55 438q2 12 2 39q0 84 -46 134t-126 50q-86 0 -147.5 -61.5t-73.5 -161.5l-55 -438q-2 -12 -2 -37z" />
<glyph unicode="R" horiz-adv-x="1220" d="M61 37l168 1360q2 16 13.5 26.5t27.5 10.5h578q180 0 284.5 -102.5t104.5 -276.5q0 -20 -4 -66q-16 -135 -94 -235.5t-199 -145.5q-12 -6 -10 -20l188 -545q2 -4 2 -12q0 -14 -9 -22.5t-26 -8.5h-272q-31 0 -39 29l-166 532q0 10 -14 10h-123q-14 0 -14 -14l-66 -520 q-2 -16 -12 -26.5t-27 -10.5h-258q-16 0 -25.5 10t-7.5 27zM492 842q0 -10 12 -11h217q80 0 132 49.5t52 129.5q0 61 -40 97t-107 36h-217q-4 0 -9.5 -4t-5.5 -11l-34 -282v-4z" />
<glyph unicode="S" horiz-adv-x="1181" d="M72 369q0 18 4 59l4 27q2 16 13 26.5t28 10.5h252q16 0 25.5 -7.5t7.5 -17.5l-5 -25q-1 -8 -1 -16q0 -56 52 -101q58 -51 160 -51q94 0 140.5 44t46.5 98q0 51 -44 77.5t-159 67.5q-10 4 -21.5 8t-21.5 9q-113 41 -198 86t-144 122.5t-59 190.5q0 16 4 53 q16 127 92 222.5t196.5 146.5t266.5 51q141 0 250.5 -49t171 -140.5t61.5 -209.5q0 -18 -4 -60l-2 -16q-2 -16 -12.5 -26.5t-26.5 -10.5h-254q-16 0 -25.5 6t-7.5 14l2 19l2 20q0 66 -54 114t-150 48q-84 0 -133.5 -38t-49.5 -105q0 -37 26.5 -63.5t80 -50t164.5 -64.5 q123 -43 193.5 -77t131 -107.5t60.5 -188.5q0 -14 -5 -51q-16 -129 -94 -226.5t-202.5 -150.5t-280.5 -53q-223 0 -352 104.5t-129 280.5z" />
<glyph unicode="T" horiz-adv-x="1171" d="M152 1178l26 219q2 16 12.5 26.5t26.5 10.5h1010q16 0 24.5 -10.5t5.5 -26.5l-26 -219q-2 -16 -12.5 -26.5t-26.5 -10.5h-332q-6 0 -11 -4t-5 -11l-133 -1089q-6 -37 -41 -37h-258q-16 0 -24.5 10t-6.5 27l133 1089q0 14 -12 15h-320q-16 0 -24 10t-6 27z" />
<glyph unicode="U" horiz-adv-x="1236" d="M104 414q0 25 5 73l112 910q2 16 13.5 26.5t27.5 10.5h258q16 0 24.5 -10.5t6.5 -26.5l-113 -910q-2 -10 -2 -32q0 -82 48 -131.5t130 -49.5q88 0 150.5 58.5t73.5 154.5l112 910q2 16 13.5 26.5t27.5 10.5h258q16 0 24.5 -10.5t6.5 -26.5l-113 -910q-18 -150 -98 -264 t-207 -176.5t-284 -62.5q-218 0 -346 116.5t-128 313.5z" />
<glyph unicode="V" horiz-adv-x="1259" d="M184 1393v8q0 33 35 33h281q33 0 35 -33l114 -909q2 -8 7.5 -8.5t7.5 8.5l333 909q12 33 43 33h275q29 0 28 -23q0 -6 -4 -18l-567 -1362q-10 -31 -45 -31h-278q-33 0 -35 31z" />
<glyph unicode="W" horiz-adv-x="1708" d="M139 1393v6q0 35 35 35h279q14 0 24 -9.5t10 -23.5l78 -723q4 -8 9.5 -8t7.5 8l249 723q4 16 16.5 24.5t26.5 8.5h238q33 0 35 -33l86 -723q2 -8 8 -8t8 8l244 723q4 14 16.5 23.5t26.5 9.5h270q31 0 31 -25l-4 -16l-496 -1360q-12 -33 -45 -33h-264q-14 0 -23.5 9 t-11.5 24l-71 768q-2 10 -7.5 10t-9.5 -10l-246 -768q-10 -33 -41 -33h-247q-33 0 -35 31z" />
<glyph unicode="X" horiz-adv-x="1284" d="M23 23q0 12 8 22l446 662q6 10 4 20l-284 662l-4 16q0 14 9 21.5t25 7.5h283q27 0 39 -27l166 -414q4 -8 9 -8t9 8l271 414q20 27 45 27h280q12 0 20.5 -6.5t8.5 -14.5t-10 -24l-445 -662q-4 -10 -2 -20l283 -662l4 -16q0 -14 -9.5 -21.5t-25.5 -7.5h-279q-25 0 -38 27 l-170 411q-2 8 -8.5 8t-12.5 -8l-268 -411q-20 -27 -45 -27h-281q-28 0 -28 23z" />
<glyph unicode="Y" horiz-adv-x="1261" d="M190 1403q0 14 9.5 22.5t25.5 8.5h281q31 0 39 -29l145 -502q4 -8 10.5 -8t10.5 8l272 502q14 29 45 29h283q29 0 28 -23q0 -8 -6 -20l-512 -863l-6 -18l-57 -469q-2 -16 -13.5 -26.5t-27.5 -10.5h-256q-17 0 -25 10.5t-6 26.5l57 469q2 6 -2 18l-292 863q-2 4 -3 12z " />
<glyph unicode="Z" horiz-adv-x="1110" d="M20 37l31 246q2 25 21 45l696 796q4 6 3 12.5t-9 6.5h-569q-16 0 -25.5 10t-7.5 27l26 217q6 37 41 37h922q16 0 24.5 -10.5t6.5 -26.5l-29 -246q-2 -23 -23 -45l-698 -797q-6 -6 -5 -12t9 -6h576q16 0 24 -10.5t6 -26.5l-26 -217q-2 -16 -13.5 -26.5t-27.5 -10.5h-922 q-16 0 -24.5 10t-6.5 27z" />
<glyph unicode="[" horiz-adv-x="851" d="M-4 -283l233 1905q2 16 12.5 26.5t26.5 10.5h486q16 0 24 -10.5t6 -26.5l-26 -219q-2 -16 -12.5 -26.5t-26.5 -10.5h-178q-14 0 -15 -14l-168 -1364v-4q0 -10 13 -11h176q16 0 24.5 -10t6.5 -26l-27 -220q-2 -16 -12.5 -26t-26.5 -10h-485q-17 0 -25 10t-6 26z" />
<glyph unicode="\" horiz-adv-x="946" d="M176 1401q0 14 9.5 23.5t25.5 9.5h256q27 0 37 -29l362 -1362l2 -10q0 -14 -10 -23.5t-27 -9.5h-256q-31 0 -36 29l-361 1362z" />
<glyph unicode="]" horiz-adv-x="851" d="M152 -283l26 220q6 37 41 36h176q6 0 11.5 4.5t5.5 10.5l168 1364q0 14 -13 14h-176q-16 0 -25.5 10t-7.5 27l27 219q6 37 41 37h485q16 0 24.5 -10.5t6.5 -26.5l-233 -1905q-6 -36 -41 -36h-486q-16 0 -24 10t-6 26z" />
<glyph unicode="^" horiz-adv-x="956" d="M98 627q0 6 4 18l359 760q12 29 43 29h215q14 0 23.5 -7.5t11.5 -21.5l176 -760v-8q0 -16 -9.5 -25.5t-23.5 -9.5h-205q-33 0 -39 31l-78 434q-2 10 -7 10t-9 -10l-182 -434q-10 -31 -45 -31h-205q-29 0 -29 25z" />
<glyph unicode="_" horiz-adv-x="1067" d="M-6 37l22 180q6 37 41 37h936q16 0 24.5 -10.5t6.5 -26.5l-23 -180q-2 -16 -13 -26.5t-27 -10.5h-934q-17 0 -26 10t-7 27z" />
<glyph unicode="`" horiz-adv-x="516" d="M186 1399q0 10 9 17t24 7h243q27 0 39 -26l74 -183q4 -12 4 -16q0 -12 -9 -19.5t-26 -7.5h-204q-29 0 -41 23l-107 184q-6 10 -6 21z" />
<glyph unicode="a" horiz-adv-x="1112" d="M55 416q0 41 8 119q16 139 74 258q61 127 173 205.5t239 78.5q154 0 215 -94q4 -8 10 -6t6 12l4 33q6 37 41 37h258q16 0 24.5 -10.5t6.5 -26.5l-121 -985q-2 -16 -12 -26.5t-27 -10.5h-258q-16 0 -25 10t-7 27l6 49q2 10 -3 12t-12 -6q-91 -108 -236 -108h-3 q-129 0 -228.5 88t-121.5 227q-10 66 -11 117zM412 471q0 -66 18 -113q29 -75 109 -75h2q78 0 127 77q43 70 55 168q4 49 4 68q0 68 -18 113q-33 69 -105 69h-2q-78 0 -127 -71q-43 -63 -59 -179q-4 -41 -4 -57z" />
<glyph unicode="b" horiz-adv-x="1116" d="M51 37l168 1360q2 16 13.5 26.5t27.5 10.5h258q16 0 24.5 -10.5t6.5 -26.5l-49 -408q-2 -10 3 -12t11 6q84 94 238 94q127 0 220 -78.5t122 -205.5q18 -70 18 -150q0 -35 -8 -108q-12 -129 -60 -236q-57 -139 -176.5 -227t-249.5 -88q-152 0 -212 108q-6 8 -11.5 6 t-7.5 -12l-4 -49q-6 -37 -41 -37h-258q-16 0 -25.5 10t-7.5 27zM440 465q0 -59 17 -105q33 -77 106 -77h2q78 0 131 75q42 66 54 170q4 25 4 68q0 61 -17 111q-33 71 -108 71h-2q-76 0 -125 -69q-45 -72 -58 -181q-4 -45 -4 -63z" />
<glyph unicode="c" horiz-adv-x="1081" d="M80 430q0 53 6 105q16 139 66 235q70 143 201.5 224t295.5 81t279.5 -84t142.5 -213q8 -35 8 -67q0 -35 -37 -41l-258 -39l-10 -2q-12 0 -19 7t-7 17l-5 29q-6 45 -42.5 73.5t-90.5 28.5q-104 0 -149 -96q-29 -57 -41 -156q-6 -43 -6 -79q0 -43 6 -74q27 -104 129 -105 q49 0 90 27t66 78l2 10q4 10 18 21.5t29 9.5l247 -41q37 -6 27 -41q-6 -23 -18 -51q-63 -143 -197.5 -223t-298.5 -80q-162 0 -273.5 84t-146.5 231q-14 57 -14 131z" />
<glyph unicode="d" horiz-adv-x="1116" d="M55 416q0 41 8 119q16 139 74 258q61 127 173 205.5t239 78.5q154 0 215 -94q4 -8 10 -6t6 12l51 408q3 16 13 26.5t26 10.5h260q16 0 24.5 -10.5t6.5 -26.5l-168 -1360q-2 -16 -12 -26.5t-27 -10.5h-258q-16 0 -25 10t-7 27l6 49q2 10 -3 12t-12 -6q-91 -108 -236 -108 h-3q-129 0 -228.5 88t-121.5 227q-10 66 -11 117zM412 471q0 -66 18 -113q29 -75 109 -75h2q78 0 127 77q43 70 55 168q4 49 4 68q0 68 -18 113q-33 69 -105 69h-2q-78 0 -127 -71q-43 -63 -59 -179q-4 -41 -4 -57z" />
<glyph unicode="e" horiz-adv-x="1095" d="M84 444q0 45 6 95q10 92 45 184q61 160 200.5 257t311.5 97q199 0 305.5 -127t116.5 -354q0 -82 -4 -125q-2 -37 -41 -37h-600q-14 0 -14 -14q0 -27 6 -43q14 -51 60 -78t118 -27q63 0 118.5 19.5t92.5 52.5q14 14 26 14q14 0 23 -14l104 -151q8 -10 9 -25q0 -12 -13 -29 q-78 -74 -186.5 -114.5t-224.5 -40.5q-135 0 -233.5 50t-155.5 140q-70 115 -70 270zM440 647q0 -4 5.5 -7t9.5 -3h270q8 0 12 5t2 11l-4 27q-10 49 -43 76.5t-88 27.5q-98 0 -149 -100l-13 -31z" />
<glyph unicode="f" horiz-adv-x="790" d="M106 819l25 205q6 37 41 37h96q4 0 9.5 4t5.5 10l6 51q14 121 64 189.5t145 96.5q79 23 199 23q25 0 53 -1h69q16 0 24.5 -10.5t6.5 -26.5l-19 -162q-6 -37 -40 -37h-66q-53 -4 -77.5 -26.5t-33.5 -75.5l-2 -21q0 -14 13 -14h172q16 0 24 -10.5t6 -26.5l-24 -205 q-6 -37 -41 -37h-172q-4 0 -9.5 -4t-5.5 -10l-90 -731q-2 -16 -13 -26.5t-28 -10.5h-258q-16 0 -24 10t-6 27l90 731q0 14 -13 14h-96q-16 0 -24.5 10.5t-6.5 26.5z" />
<glyph unicode="g" horiz-adv-x="1118" d="M76 412q0 49 8 127q18 152 70 258q61 127 170.5 202.5t242.5 75.5q139 0 207 -84q4 -8 9 -6t8 12l2 25q6 37 41 37h258q16 0 24 -10.5t6 -26.5l-110 -903q-35 -281 -207 -401.5t-412 -120.5q-78 0 -174 14q-35 6 -26 41l36 227q8 39 45 33q76 -16 138 -16q113 0 184.5 53 t85.5 168l-25 -21q-73 -67 -202 -67h-4q-131 0 -233.5 59t-131.5 209q-10 47 -10 115zM412 469q0 -49 12 -80q10 -43 43 -69.5t84 -26.5q100 0 145 94q25 50 37 154q8 70 8 82q0 31 -10 65q-10 45 -41 70.5t-82 25.5q-92 0 -143 -96q-39 -57 -49 -151q-4 -25 -4 -68z" />
<glyph unicode="h" horiz-adv-x="1093" d="M49 37l166 1360q2 16 13.5 26.5t27.5 10.5h258q35 0 31 -37l-53 -432q-2 -10 3 -12.5t11 5.5q92 117 250 117q141 0 225 -83t84 -230q0 -18 -4 -64l-82 -661q-2 -16 -12.5 -26.5t-26.5 -10.5h-258q-16 0 -25.5 10t-7.5 27l74 588l2 26q0 59 -31.5 96t-87.5 37 q-59 0 -103 -44t-52 -115l-72 -588q-6 -37 -41 -37h-258q-16 0 -24.5 10t-6.5 27z" />
<glyph unicode="i" d="M63 37l121 985q6 37 41 37h258q16 0 24.5 -10.5t6.5 -26.5l-121 -985q-2 -16 -12 -26.5t-27 -10.5h-258q-16 0 -25.5 10t-7.5 27zM190 1296q0 96 62.5 159t159.5 63q80 0 126 -44t46 -118q0 -100 -62.5 -164t-159.5 -64q-77 0 -124.5 46.5t-47.5 121.5z" />
<glyph unicode="j" horiz-adv-x="512" d="M-221 -377l26 209q2 37 41 37h23q95 0 136 29q46 34 58 129l121 995q6 37 41 37h258q16 0 24.5 -10.5t6.5 -26.5l-121 -991q-23 -180 -80 -276.5t-175 -134.5q-107 -34 -289 -34h-39q-35 0 -31 37zM190 1290q0 57 32 108.5t83 81t105 29.5q72 0 122 -49t50 -121 q0 -90 -63.5 -154.5t-156.5 -64.5q-77 0 -124.5 48.5t-47.5 121.5z" />
<glyph unicode="k" horiz-adv-x="1083" d="M49 37l166 1360q2 16 13.5 26.5t27.5 10.5h258q35 0 31 -37l-76 -617v-2q0 -8 5 -10t13 6l238 262q20 23 47 23h293q14 0 21.5 -5t7.5 -14q0 -10 -13 -26l-286 -328q-8 -10 -4 -20l213 -623q4 -8 4 -14q0 -12 -10.5 -20.5t-26.5 -8.5h-269q-31 0 -36 29l-123 422 q-2 8 -9.5 8t-11.5 -6l-102 -131q-8 -6 -8 -19l-33 -266q-6 -37 -41 -37h-258q-17 0 -25 10t-6 27z" />
<glyph unicode="l" horiz-adv-x="505" d="M51 37l168 1360q2 16 13.5 26.5t27.5 10.5h258q16 0 24.5 -10.5t6.5 -26.5l-166 -1360q-6 -37 -41 -37h-258q-16 0 -25.5 10t-7.5 27z" />
<glyph unicode="m" horiz-adv-x="1669" d="M49 37l121 985q2 16 12.5 26.5t26.5 10.5h258q16 0 25.5 -10.5t7.5 -26.5l-11 -72v-4q0 -8 5.5 -8t11.5 8q92 129 266 129q98 0 167 -44t99 -128q2 -8 7.5 -7t11.5 9q102 170 299 170q139 0 214 -78.5t75 -222.5q0 -49 -5 -74l-81 -663q-6 -37 -41 -37h-256 q-16 0 -24.5 10t-6.5 27l72 590q2 10 2 30q0 57 -30 92t-81 35q-57 0 -99 -43t-51 -114l-71 -590q-6 -37 -41 -37h-258q-16 0 -24.5 10t-6.5 27l72 590q2 10 2 28q0 59 -32 94t-83 35q-53 0 -93 -34.5t-54 -92.5l-76 -620q-6 -37 -41 -37h-258q-16 0 -24.5 10t-6.5 27z" />
<glyph unicode="n" horiz-adv-x="1093" d="M49 37l121 985q2 16 12.5 26.5t26.5 10.5h258q16 0 25.5 -10.5t7.5 -26.5l-8 -57q-2 -10 3 -12.5t11 5.5q92 117 250 117q141 0 225 -83t84 -230q0 -18 -4 -64l-82 -661q-2 -16 -12.5 -26.5t-26.5 -10.5h-258q-16 0 -25.5 10t-7.5 27l74 588l2 26q0 59 -31.5 96t-87.5 37 q-59 0 -103 -44t-52 -115l-72 -588q-6 -37 -41 -37h-258q-16 0 -24.5 10t-6.5 27z" />
<glyph unicode="o" horiz-adv-x="1107" d="M80 436q0 47 6 96q12 98 49 199q68 162 203 253t311 91q174 0 284.5 -91t137.5 -251q8 -47 8 -110q0 -57 -4 -86q-12 -102 -45 -181q-61 -172 -198.5 -272t-319.5 -100q-178 0 -290.5 98t-135.5 266q-6 43 -6 88zM412 457q0 -82 34.5 -132.5t102.5 -50.5q57 0 100 38 t68 104q16 45 26 116q4 45 5 64q0 88 -34 138t-104 50q-117 0 -164 -133q-23 -51 -28 -119q-6 -39 -6 -75z" />
<glyph unicode="p" horiz-adv-x="1118" d="M8 -338l168 1360q2 16 12.5 26.5t26.5 10.5h258q16 0 25.5 -10.5t7.5 -26.5l-6 -49q-2 -10 2 -12.5t12 6.5q91 108 237 108h3q129 0 227 -88t121 -227q12 -61 12 -127q0 -35 -8 -109q-20 -147 -74 -258q-61 -127 -172.5 -205.5t-238.5 -78.5q-154 0 -215 94q-6 8 -11.5 6 t-7.5 -12l-49 -408q-2 -16 -13.5 -26.5t-27.5 -10.5h-258q-16 0 -24.5 10.5t-6.5 26.5zM442 463q0 -66 19 -113q33 -69 104 -69h2q78 0 127 71q46 65 58 178q4 45 4 66q0 59 -17 104q-33 76 -112 76q-76 0 -125 -78q-43 -63 -56 -168q-4 -49 -4 -67z" />
<glyph unicode="q" horiz-adv-x="1118" d="M55 420q0 51 6 104q16 133 62 236q57 139 177 227t249 88q150 0 213 -108q6 -8 11 -6t5 12l6 49q6 37 41 37h258q16 0 24.5 -10.5t6.5 -26.5l-166 -1360q-6 -37 -41 -37h-258q-16 0 -24.5 10.5t-6.5 26.5l50 408q2 10 -3.5 12t-11.5 -6q-88 -94 -237 -94 q-127 0 -221.5 78.5t-122.5 205.5q-16 78 -17 154zM412 465q0 -66 18 -113q33 -71 109 -71h2q72 0 125 69q41 65 57 180q4 45 4 62q0 63 -18 106q-29 78 -107 78t-131 -76q-39 -63 -55 -170q-4 -45 -4 -65z" />
<glyph unicode="r" horiz-adv-x="774" d="M49 37l121 985q2 16 12.5 26.5t26.5 10.5h258q16 0 25.5 -10.5t7.5 -26.5l-6 -45q-2 -10 3 -12t11 6q88 102 213 102h5q58 0 97 -22q16 -10 17 -29q0 -10 -2 -16l-78 -263q-4 -18 -14.5 -23t-28.5 -1q-25 6 -60 6q-33 0 -49 -4q-61 -8 -109 -49t-57 -109l-63 -526 q-6 -37 -41 -37h-258q-16 0 -24.5 10t-6.5 27z" />
<glyph unicode="s" horiz-adv-x="1015" d="M53 268q0 23 2 35l2 10q2 16 12.5 26.5t26.5 10.5h244q39 0 35 -12l-2 -12v-7q-1 -33 33 -57q38 -26 102 -26q59 0 95 21.5t36 55.5q0 29 -33 43.5t-106 28.5q-121 25 -195 59q-86 39 -137 95.5t-51 148.5q0 27 2 41q20 160 151 253t328 93q186 0 296 -85t110 -226 q0 -27 -3 -41q-2 -10 -12 -17.5t-26 -7.5h-238q-35 0 -35 13l2 12v9q0 32 -28 54q-32 24 -93 25q-59 0 -97 -21.5t-38 -58.5q0 -33 37 -48t121 -32q98 -16 156 -37q106 -37 164.5 -97t58.5 -159q0 -27 -2 -41q-20 -160 -152.5 -246.5t-339.5 -86.5q-198 0 -312 77.5 t-114 206.5z" />
<glyph unicode="t" horiz-adv-x="765" d="M100 823l25 199q6 37 41 37h96q6 0 11.5 4t5.5 10l28 232q2 16 13.5 26t27.5 10h244q16 0 24.5 -10t6.5 -26l-29 -232q0 -14 12 -14h166q16 0 24.5 -10.5t6.5 -26.5l-25 -199q-2 -16 -13 -26.5t-28 -10.5h-164q-12 0 -16 -14l-43 -358q-2 -12 -2 -33q0 -84 78 -84h63 q16 0 24.5 -10.5t6.5 -26.5l-27 -215q-2 -33 -39 -37q-90 -4 -129 -4q-158 0 -235.5 46t-77.5 171q0 16 4 53l62 498v4q0 10 -13 10h-96q-16 0 -25.5 10.5t-7.5 26.5z" />
<glyph unicode="u" horiz-adv-x="1091" d="M78 287q0 45 4 69l82 666q2 16 12 26.5t27 10.5h258q16 0 25.5 -10.5t7.5 -26.5l-74 -588l-2 -26q0 -61 30.5 -96.5t86.5 -35.5q55 0 96 35t57 92l76 619q2 16 12 26.5t27 10.5h258q16 0 25.5 -10.5t7.5 -26.5l-121 -985q-6 -37 -41 -37h-258q-16 0 -24.5 10t-6.5 27 l6 51q0 10 -4 12t-12 -6q-93 -110 -257 -110h-3q-135 0 -215 78.5t-80 224.5z" />
<glyph unicode="v" horiz-adv-x="1064" d="M127 1018v8q0 33 35 33h284q14 0 23.5 -9.5t11.5 -23.5l64 -545q2 -8 7 -8t7 8l195 545q4 14 16 23.5t27 9.5l286 -2q14 0 22.5 -5t8.5 -16q0 -8 -6 -20l-422 -985q-14 -31 -47 -31h-291q-33 0 -39 31z" />
<glyph unicode="w" horiz-adv-x="1599" d="M127 1018v10q0 31 35 31h266q16 0 25.5 -9.5t9.5 -23.5l51 -534q0 -8 6 -8.5t8 8.5l189 532q12 33 45 33h233q31 0 37 -33l66 -537q2 -8 7 -8t7 8l197 539q10 33 43 33l266 -2q29 0 29 -23q0 -6 -5 -18l-407 -985q-10 -31 -43 -31h-270q-33 0 -35 31l-70 456 q-2 10 -8 10.5t-10 -10.5l-162 -454q-10 -33 -43 -33h-270q-33 0 -35 31z" />
<glyph unicode="x" horiz-adv-x="1110" d="M6 20q0 12 10 25l365 475q6 10 4 21l-248 473q-6 12 -6 20q0 10 9.5 17.5t23.5 7.5h276q31 0 41 -25l113 -229q4 -6 9 -6t9 6l172 229q18 25 47 25h295q29 0 29 -19q0 -10 -12 -26l-363 -473q-6 -8 -4 -21l250 -475q4 -6 4 -18q0 -27 -33 -27h-276q-31 0 -41 25l-113 229 q-6 14 -20 0l-170 -229q-18 -25 -47 -25h-297q-27 0 -27 20z" />
<glyph unicode="y" horiz-adv-x="1032" d="M-6 -371l24 205q2 16 7.5 26.5t9.5 10.5h10q127 0 184.5 22.5t79.5 96.5q2 8 2 18l-190 1010v8q0 33 33 33h278q16 0 25.5 -9.5t9.5 -23.5l63 -534q6 -20 17 0l190 534q4 14 16.5 23.5t28.5 9.5h275q31 0 30 -25l-4 -16l-458 -1038q-70 -154 -133.5 -233t-172 -117 t-301.5 -38h-14q-14 0 -10 37z" />
<glyph unicode="z" horiz-adv-x="923" d="M6 37l31 244q2 25 22 45l447 407q6 6 5 12.5t-9 6.5h-361q-16 0 -24 10t-6 26l28 234q2 16 13.5 26.5t27.5 10.5h740q16 0 24 -10.5t6 -26.5l-30 -244q-2 -25 -23 -45l-461 -407q-8 -8 -7 -13.5t9 -5.5h400q16 0 25 -10t7 -27l-28 -233q-6 -37 -41 -37h-764q-17 0 -25 10 t-6 27z" />
<glyph unicode="{" horiz-adv-x="798" d="M100 575l25 197q2 33 39 37q61 10 96 54t45 126l49 410q16 127 95 193.5t217 66.5h192q16 0 24.5 -10.5t6.5 -26.5l-27 -219q-6 -37 -41 -37h-35q-47 0 -80.5 -34t-39.5 -87l-37 -305q-14 -102 -50 -164.5t-102 -93.5q-14 -8 -2 -16q92 -47 92 -189q0 -20 -4 -69 l-39 -314q-2 -8 -2 -22q0 -45 25.5 -72t66.5 -27h37q16 0 24.5 -10t6.5 -26l-27 -220q-6 -37 -41 -36h-190q-123 0 -186.5 55t-63.5 158q0 31 2 47l51 415q2 16 2 45q0 63 -24.5 96t-75.5 42q-31 4 -29 36z" />
<glyph unicode="|" horiz-adv-x="430" d="M-6 -127l203 1647q2 16 13 26t28 10h258q16 0 24 -10t6 -26l-202 -1647q-2 -16 -12.5 -26.5t-26.5 -10.5h-260q-17 0 -25 10.5t-6 26.5z" />
<glyph unicode="}" horiz-adv-x="798" d="M-4 -283l27 220q2 16 12 26t26 10h37q47 0 80 33t41 88l37 314q12 100 49 163.5t103 94.5q12 8 2 16q-92 47 -93 188q0 20 5 70l38 305q6 53 -19.5 87t-72.5 34h-35q-16 0 -24 10t-6 27l26 219q2 16 12.5 26.5t26.5 10.5h193q123 0 186.5 -55.5t63.5 -157.5q0 -31 -2 -47 l-52 -410q-2 -16 -2 -45q0 -61 25 -94t76 -41q31 -4 28 -37l-24 -197q-2 -33 -39 -36q-61 -10 -96 -54.5t-45 -128.5l-52 -415q-16 -127 -95 -193.5t-216 -66.5h-190q-16 0 -24.5 10t-6.5 26z" />
<glyph unicode="~" horiz-adv-x="1085" d="M86 561q0 8 6 21q47 94 142.5 154.5t193.5 60.5q49 0 84 -13.5t76 -38.5q14 -8 44 -27.5t54.5 -28.5t48.5 -9q59 0 111 61q16 18 31 19q8 0 20 -8l150 -107q16 -12 16 -29q0 -10 -6 -22q-51 -92 -143.5 -148.5t-190.5 -56.5q-49 0 -85 13.5t-73 37.5q-47 29 -84 46.5 t-78 17.5q-66 0 -122 -62q-14 -16 -31 -16q-12 0 -21 6l-129 100q-14 14 -14 29z" />
<glyph unicode="&#xa1;" horiz-adv-x="704" d="M156 55l135 860q4 17 15 27t28 10h190q16 0 25.5 -10t7.5 -27l-76 -860q-2 -16 -12 -26.5t-27 -10.5h-258q-14 0 -22 10.5t-6 26.5zM258 1231q0 90 66.5 154.5t160.5 64.5q80 0 131.5 -48t51.5 -122q0 -59 -34 -110.5t-87 -82t-109 -30.5q-72 0 -126 51t-54 123z" />
<glyph unicode="&#xa2;" horiz-adv-x="1081" d="M102 614q0 53 7 105q16 139 65 235q51 106 139 179t203 104q6 2 9 6t3 10l11 136q0 18 10 27t29 9h202q16 0 24.5 -10t6.5 -26l-23 -129q-2 -10 11 -15q117 -29 194.5 -105.5t100.5 -176.5q8 -35 8 -68q0 -35 -37 -41l-258 -39l-10 -2q-12 0 -19.5 7t-7.5 18l-4 28 q-6 45 -43 74t-90 29q-105 -1 -150 -97q-29 -57 -41 -155q-6 -43 -6 -80q0 -43 6 -74q27 -104 129 -104q49 0 90 26.5t66 77.5l2 10q4 10 18.5 21.5t28.5 9.5l248 -41q37 -6 27 -41q-2 -8 -17 -51q-51 -113 -147 -187.5t-219 -101.5q-12 -2 -15 -16l-8 -125 q-2 -16 -12 -26.5t-27 -10.5h-203q-16 0 -24 10.5t-6 28.5l24 131q0 14 -10 16q-104 33 -174 108t-96 185q-14 57 -15 131z" />
<glyph unicode="&#xa3;" horiz-adv-x="1222" d="M127 37l29 225q2 27 28 45q45 33 65.5 74t26.5 98l11 80v4q0 10 -13 10h-110q-16 0 -24.5 10.5t-6.5 26.5l25 199q2 16 12 26.5t27 10.5h112q14 0 15 14l16 127q27 221 168 342t356 121q168 0 266.5 -88t133.5 -242q2 -4 2 -10q0 -27 -33 -33l-246 -43h-8q-23 0 -31 27 q-14 55 -44 76.5t-77 21.5q-135 -4 -157 -166l-17 -133q0 -14 13 -14h342q16 0 24 -10.5t6 -26.5l-24 -199q-2 -16 -12.5 -26.5t-26.5 -10.5h-342q-12 0 -17 -14l-10 -80q-6 -57 -27.5 -97t-56.5 -75q-6 -6 -4 -11t10 -5h598q16 0 24.5 -10.5t6.5 -26.5l-27 -217 q-2 -16 -12 -26.5t-26 -10.5h-932q-16 0 -25.5 10t-7.5 27z" />
<glyph unicode="&#xa4;" horiz-adv-x="1177" d="M41 248q0 14 14 28l129 117q8 8 4 19q-29 74 -28 153q0 139 73 260q6 10 0 19l-106 125q-10 10 -10 22q0 14 18 29l176 143q14 10 27 11q12 0 22 -13l97 -114q6 -8 18 -3q100 45 203 46q104 0 196 -50q10 -6 19 2l131 119q16 12 29 13q12 0 22 -11l139 -143 q10 -14 11 -23q0 -14 -15 -28l-147 -133q-10 -8 -6 -19q20 -72 20 -135q1 -137 -71 -260q-8 -10 0 -19l106 -127q10 -10 10 -22t-18 -29l-174 -143q-14 -10 -25 -10q-12 0 -24 12l-101 115q-6 8 -16 2q-102 -43 -201 -43q-98 0 -180 41q-10 4 -18 -4l-123 -111 q-14 -12 -29 -12q-12 0 -23 10l-139 143q-10 10 -10 23zM444 600q0 -65 45.5 -110.5t108.5 -45.5q72 0 129 52.5t66 126.5l2 22q0 68 -43 113t-109 45q-78 0 -138.5 -60.5t-60.5 -142.5z" />
<glyph unicode="&#xa5;" horiz-adv-x="1359" d="M240 248l12 110q6 37 41 37h225q4 0 9 4t5 11l11 71q0 14 -13 15h-225q-16 0 -24.5 10t-6.5 26l15 113q2 16 12 26.5t27 10.5h145q16 0 12 16l-235 693q-2 4 -2 14q0 12 9 20.5t24 8.5h282q31 0 39 -29l148 -502q2 -8 9 -8t9 8l272 502q14 29 45 29h283q29 0 29 -23 q0 -8 -6 -20l-412 -693q-6 -16 8 -16h146q16 0 24 -10t6 -27l-12 -113q-6 -37 -41 -36h-225q-14 0 -15 -15l-10 -71q0 -14 12 -15h226q35 0 30 -37l-14 -110q-2 -16 -12 -26.5t-27 -10.5h-225q-14 0 -14 -14l-21 -156q-2 -16 -12 -26.5t-27 -10.5h-258q-16 0 -24.5 10.5 t-6.5 26.5l19 156q2 6 -2 10t-8 4h-226q-16 0 -24 10t-6 27z" />
<glyph unicode="&#xa6;" horiz-adv-x="430" d="M-6 -127l82 655q2 16 12 26.5t27 10.5h258q16 0 25.5 -10t7.5 -27l-82 -655q-2 -16 -12.5 -26.5t-26.5 -10.5h-260q-17 0 -25 10.5t-6 26.5zM117 864l80 656q2 16 13 26t28 10h258q16 0 24 -10t6 -26l-80 -656q-6 -37 -40 -37h-259q-16 0 -24 10.5t-6 26.5z" />
<glyph unicode="&#xa7;" horiz-adv-x="1015" d="M25 -113q0 25 2 37l4 74q4 37 41 37h256q16 0 25 -7.5t7 -19.5l-4 -28q-6 -51 20.5 -83t78.5 -32q49 0 83.5 31.5t34.5 76.5q0 41 -37.5 68t-140.5 72l-45 18q-96 43 -150.5 80t-84.5 94q-33 61 -33 141q0 74 23.5 137.5t62.5 110.5q47 57 121 92q8 4 9 9.5t-5 9.5 q-135 86 -135 235q0 109 64.5 203t177 150.5t247.5 56.5q172 0 279.5 -89t107.5 -235q0 -29 -2 -45l-4 -43q-6 -37 -41 -37h-258q-16 0 -25.5 6.5t-7.5 16.5l2 20q6 51 -19.5 83t-72.5 32q-49 0 -84 -31.5t-35 -80.5q0 -55 45.5 -84t143.5 -64q82 -29 140 -59.5t99 -75.5 q63 -74 64 -186q0 -61 -22.5 -124t-61.5 -114q-55 -82 -129 -107q-14 -2 -4 -14q72 -49 106.5 -108.5t34.5 -133.5q0 -123 -67.5 -214t-182 -140t-250.5 -49q-182 0 -280 84t-98 229zM416 498q0 -33 14 -54q27 -39 86 -38q63 -1 98 40q25 25 31 66l2 16q0 31 -14 52 q-27 41 -90 41q-66 0 -101 -46q-20 -23 -26 -63v-14z" />
<glyph unicode="&#xa8;" horiz-adv-x="770" d="M149 1284q0 82 52.5 135.5t127.5 53.5q63 0 99.5 -37t36.5 -99q0 -84 -49.5 -137t-125.5 -53q-65 0 -103 37t-38 100zM548 1284q0 82 50.5 135.5t128.5 53.5q63 0 100 -37t37 -99q0 -84 -50 -137t-128 -53q-64 0 -101 37t-37 100z" />
<glyph unicode="&#xa9;" horiz-adv-x="1585" d="M119 618q0 53 6 109q25 205 138.5 370t288.5 259t378 94q186 0 330.5 -80t224.5 -221t80 -322q0 -47 -6 -100q-27 -213 -140.5 -383t-289 -265t-379.5 -95q-187 0 -330.5 79.5t-222 224t-78.5 330.5zM301 647q0 -141 58.5 -249.5t166 -169t246.5 -60.5q154 0 285 71.5 t216 198.5t105 289q4 27 4 76q0 133 -59 238.5t-167.5 165t-248.5 59.5q-152 0 -282.5 -70t-215.5 -192.5t-104 -276.5q-4 -29 -4 -80zM575 565q0 25 3 37l28 238q14 111 91 175t192 64q104 0 165.5 -52t61.5 -142q0 -20 -2 -31q-4 -14 -37 -14l-100 -2q-35 0 -35 6v6 q4 37 -15.5 59.5t-56.5 22.5t-61.5 -22.5t-28.5 -59.5l-32 -260q-4 -35 15 -57.5t56 -22.5q35 0 61.5 22.5t30.5 57.5q0 14 37 14l99 -2q14 0 25 -2t9 -6v-8q-12 -102 -89 -164t-191 -62q-105 0 -165.5 55.5t-60.5 149.5z" />
<glyph unicode="&#xaa;" horiz-adv-x="659" d="M41 510l10 90q6 37 41 37h529q16 0 24 -10.5t6 -26.5l-10 -90q-6 -37 -41 -37h-528q-35 0 -31 37zM92 903q0 18 2 29q14 106 97 168.5t212 62.5h115q14 0 17 13v12q6 47 -22 76.5t-79 29.5q-33 0 -61.5 -13t-44.5 -36q-20 -31 -43 -28l-105 10q-16 2 -24.5 11t-3.5 28 q23 80 106.5 132t192.5 52q82 0 144 -30.5t94 -84t26 -116.5l-56 -439q-2 -16 -12 -26.5t-26 -10.5h-105q-16 0 -25.5 7.5t-7.5 19.5v2q2 8 -3 10t-11 -4q-63 -47 -164 -47q-100 0 -156.5 45t-56.5 127zM272 936q0 -63 84 -64q62 0 106 36t48 77l4 29q0 14 -12 14h-88 q-141 0 -142 -92z" />
<glyph unicode="&#xab;" horiz-adv-x="989" d="M127 569q0 14 10 31l197 305q20 27 45 27h203q29 0 28 -21q0 -12 -8 -22l-201 -303q-6 -12 -2 -21l125 -303l4 -16q0 -27 -34 -27h-203q-25 0 -39 27l-121 305q-4 12 -4 18zM479 569q0 14 10 31l197 305q16 27 45 27h203q29 0 29 -21q0 -12 -9 -22l-200 -303 q-8 -10 -2 -21l125 -303q4 -12 4 -16q0 -12 -9.5 -19.5t-25.5 -7.5h-203q-25 0 -39 27l-121 305q-4 12 -4 18z" />
<glyph unicode="&#xac;" horiz-adv-x="956" d="M72 498l26 217q2 16 12.5 26.5t26.5 10.5h785q16 0 24 -10.5t6 -26.5l-55 -441q-2 -16 -12.5 -26t-26.5 -10h-209q-16 0 -24.5 10t-6.5 26l21 172q0 14 -12 15h-525q-16 0 -24 10t-6 27z" />
<glyph unicode="&#xad;" horiz-adv-x="823" d="M70 485l26 217q2 16 13.5 26.5t27.5 10.5h651q16 0 24.5 -10t6.5 -27l-26 -217q-2 -16 -13.5 -26t-27.5 -10h-652q-16 0 -24 10t-6 26z" />
<glyph unicode="&#xae;" horiz-adv-x="878" d="M115 981q0 18 4 63q14 115 78.5 208.5t165 146.5t215.5 53q106 0 188 -45t128 -126t46 -181q0 -18 -4 -56q-14 -123 -79.5 -220t-166 -152.5t-215.5 -55.5q-162 0 -261 101.5t-99 263.5zM244 997q0 -115 67.5 -184.5t180.5 -69.5q86 0 159.5 44t117.5 122t44 174 q0 104 -70.5 173t-181.5 69q-121 0 -211 -80t-104 -201q-2 -16 -2 -47zM385 885l37 309q6 37 41 37h112q49 0 78 -30t29 -79q0 -75 -55 -110q-10 -4 -11 -19l21 -102l2 -10q0 -14 -10.5 -23.5t-26.5 -9.5h-33q-33 0 -39 31l-14 98q-2 12 -10 12q-2 0 -4 -4t-2 -10l-13 -90 q-2 -16 -12 -26.5t-26 -10.5h-33q-35 0 -31 37zM512 1081q0 -14 12 -14h17q14 0 24 11.5t13 25.5v8q0 29 -29 29h-17q-4 0 -9 -4t-5 -11z" />
<glyph unicode="&#xaf;" horiz-adv-x="602" d="M109 1208l18 154q6 37 41 37h530q16 0 24.5 -10.5t6.5 -26.5l-18 -154q-2 -16 -13.5 -26.5t-27.5 -10.5h-531q-16 0 -24.5 10.5t-5.5 26.5z" />
<glyph unicode="&#xb0;" horiz-adv-x="743" d="M147 1262q0 106 53.5 196t143.5 143.5t191 53.5q131 0 216 -86t85 -217q0 -106 -53.5 -198.5t-142.5 -147t-191 -54.5q-132 0 -217 88t-85 222zM362 1288q0 -49 32 -81.5t81 -32.5q60 0 103 44t43 107q0 51 -31 83t-82 32q-57 0 -101.5 -44t-44.5 -108z" />
<glyph unicode="&#xb1;" horiz-adv-x="956" d="M72 37l26 217q2 16 12.5 26.5t26.5 10.5h785q16 0 24 -10.5t6 -26.5l-26 -217q-6 -37 -41 -37h-783q-16 0 -24 10t-6 27zM72 734l26 217q2 16 12.5 26.5t26.5 10.5h240q14 0 14 14l31 246q6 37 41 37h209q16 0 24.5 -10.5t5.5 -26.5l-30 -246q0 -14 12 -14h238 q16 0 24 -10.5t6 -26.5l-26 -217q-6 -37 -41 -37h-236q-12 0 -16 -15l-29 -241q-6 -37 -41 -37h-209q-16 0 -24 10t-6 27l28 241v5q0 10 -12 10h-238q-16 0 -24 10t-6 27z" />
<glyph unicode="&#xb2;" horiz-adv-x="696" d="M23 871l14 119q2 23 24 45q104 88 232 202l49 46q127 119 127 169q0 31 -20.5 49.5t-55.5 18.5q-39 0 -65.5 -22.5t-30.5 -57.5v-6q-6 -37 -41 -37h-139q-16 0 -24.5 10.5t-6.5 26.5l4 41q20 104 111.5 166.5t216.5 62.5q123 0 193.5 -64.5t70.5 -160.5 q0 -61 -29.5 -116.5t-91.5 -122.5q-59 -66 -223 -203q-6 -8 -4 -13.5t10 -5.5h258q16 0 25.5 -10t7.5 -27l-14 -110q-2 -16 -13.5 -26.5t-27.5 -10.5h-527q-16 0 -24.5 10t-5.5 27z" />
<glyph unicode="&#xb3;" horiz-adv-x="643" d="M18 1085q4 37 41 37h142q29 0 30 -27q0 -10 2 -16q4 -20 9 -31q6 -20 22.5 -31.5t38.5 -11.5q45 0 70 37q25 33 30 82q2 10 3 26q0 35 -13 60q-14 39 -59 39q-25 0 -49 -12q-14 -8 -27 -9q-16 0 -25 15l-53 82q-6 10 -6 20q0 20 19 33l165 108q8 6 6 12.5t-10 6.5h-225 q-16 0 -25.5 10t-7.5 27l15 112q6 37 41 37h485q16 0 24.5 -10t6.5 -27l-15 -121q-6 -29 -28 -45l-138 -100q-6 -4 -5 -11t10 -9q82 -27 112 -121q10 -29 10 -72q0 -37 -4 -57q-8 -70 -39 -131q-43 -76 -119.5 -121t-170.5 -45t-161 47t-89 131q-12 37 -13 86z" />
<glyph unicode="&#xb4;" horiz-adv-x="516" d="M152 1192q0 8 10 22l117 183q20 27 45 26h243q14 0 21.5 -5t7.5 -13q0 -10 -12 -27l-152 -184q-16 -23 -45 -23h-205q-30 1 -30 21z" />
<glyph unicode="&#xb5;" horiz-adv-x="1097" d="M-2 -373l172 1395q2 16 12.5 26.5t26.5 10.5h260q16 0 25.5 -10.5t7.5 -26.5l-74 -588l-2 -26q0 -61 30.5 -96.5t86.5 -35.5q55 0 96 35t55 92l78 619q2 16 12.5 26.5t26.5 10.5h258q16 0 25.5 -10.5t7.5 -26.5l-123 -985q-2 -16 -12.5 -26.5t-26.5 -10.5h-258 q-16 0 -25.5 10t-7.5 27l8 51q0 10 -4 12t-12 -6q-94 -111 -260 -110q-10 0 -10 -15l-43 -342q-2 -16 -13.5 -26.5t-27.5 -10.5h-258q-16 0 -24.5 10.5t-6.5 26.5z" />
<glyph unicode="&#xb6;" horiz-adv-x="1275" d="M117 911q0 20 4 62q18 135 92 239.5t198 163t281 58.5h600q16 0 24.5 -10.5t6.5 -26.5l-217 -1770q-2 -16 -12.5 -26.5t-26.5 -10.5h-168q-35 0 -31 37l191 1555v4q0 10 -12 10h-164q-6 0 -11.5 -4t-5.5 -10l-190 -1555q-6 -37 -41 -37h-168q-16 0 -25.5 10.5t-7.5 26.5 l109 873q0 14 -13 14q-190 16 -301.5 122.5t-111.5 274.5z" />
<glyph unicode="&#xb7;" horiz-adv-x="405" d="M-27 160q0 18 2 26q8 80 77.5 137.5t147.5 57.5q74 0 128.5 -50t54.5 -124q0 -90 -68 -154.5t-162 -64.5q-80 0 -130 49t-50 123z" />
<glyph unicode="&#xb8;" horiz-adv-x="358" d="M-78 -348q0 10 2 16l23 101q10 33 47 24q16 -4 26 -4q45 0 60 39q6 12 6 25q0 47 -63 104q-14 12 -15 25q0 18 31 18h127q29 0 45 -16q82 -86 82 -174q0 -37 -17 -76q-29 -72 -84 -102.5t-124 -30.5q-66 0 -125 22q-21 6 -21 29z" />
<glyph unicode="&#xb9;" horiz-adv-x="391" d="M96 871l76 622v5q0 10 -12 10l-31 -2q-16 0 -25.5 10t-7.5 27l10 86q6 31 35 43l33 14q18 8 47 8h150q16 0 24 -10t6 -27l-96 -786q-6 -37 -41 -37h-137q-16 0 -24.5 10t-6.5 27z" />
<glyph unicode="&#xba;" horiz-adv-x="704" d="M72 508l12 94q2 16 13.5 26.5t27.5 10.5h543q16 0 25 -10.5t7 -26.5l-12 -94q-2 -16 -13 -26.5t-28 -10.5h-543q-16 0 -25 10.5t-7 26.5zM127 1030q0 23 4 64q12 98 43 157q47 96 131 147.5t189 51.5q96 0 165.5 -50t94.5 -147q12 -45 12 -100q0 -23 -4 -55 q-4 -37 -16.5 -81t-30.5 -77q-51 -98 -133 -151.5t-179 -53.5q-100 0 -170.5 53.5t-95.5 151.5q-10 33 -10 90zM338 1049q0 -33 6 -62q18 -68 82 -67q61 -1 94 67q23 39 31 107q4 37 4 57q0 57 -25.5 87t-62.5 30q-55 0 -98 -70q-16 -29 -29 -104q-2 -14 -2 -45z" />
<glyph unicode="&#xbb;" horiz-adv-x="989" d="M104 240q0 12 9 22l200 303q8 10 2 21l-125 303q-4 12 -4 16q0 12 9.5 19.5t25.5 7.5h203q27 0 39 -27l121 -305q4 -12 4 -18q0 -14 -10 -31l-197 -305q-16 -27 -45 -27h-201q-14 0 -22.5 6t-8.5 15zM466 240q0 12 9 22l200 303q8 10 2 21l-125 303q-4 12 -4 16 q0 12 9.5 19.5t25.5 7.5h203q27 0 39 -27l121 -305q4 -12 4 -18q0 -14 -10 -31l-197 -305q-16 -27 -45 -27h-201q-14 0 -22.5 6t-8.5 15z" />
<glyph unicode="&#xbc;" horiz-adv-x="1650" d="M96 610l76 622v5q0 10 -12 10l-31 -2q-16 0 -25.5 10t-7.5 27l10 86q6 31 35 43l33 14q18 8 47 8h150q16 0 24 -10t6 -27l-96 -786q-6 -37 -41 -37h-137q-16 0 -24.5 10t-6.5 27zM188 20q0 14 8 25l922 1364q18 25 45 25h158q29 0 28 -21q0 -14 -8 -24l-921 -1364 q-16 -25 -43 -25h-160q-29 0 -29 20zM946 246l13 94q4 25 14 47l244 444q14 29 45 29h145q29 0 29 -22q0 -8 -6 -21l-213 -397q-4 -8 -2 -12.5t8 -4.5h125q4 0 9 4.5t5 10.5l13 102q6 37 40 37h138q16 0 24 -10t6 -27l-12 -102q0 -14 12 -15h23q16 0 24.5 -10t6.5 -26 l-15 -121q-6 -37 -41 -37h-22q-14 0 -15 -14l-20 -158q-2 -16 -12.5 -26.5t-26.5 -10.5h-137q-16 0 -25.5 10t-7.5 27l21 158q0 14 -13 14h-346q-35 0 -31 37z" />
<glyph unicode="&#xbd;" horiz-adv-x="1593" d="M96 610l76 622v5q0 10 -12 10l-31 -2q-16 0 -25.5 10t-7.5 27l10 86q6 31 35 43l33 14q18 8 47 8h150q16 0 24 -10t6 -27l-96 -786q-6 -37 -41 -37h-137q-16 0 -24.5 10t-6.5 27zM188 20q0 14 8 25l922 1364q18 25 45 25h158q29 0 28 -21q0 -14 -8 -24l-921 -1364 q-16 -25 -43 -25h-160q-29 0 -29 20zM949 37l14 119q2 23 24 45q104 88 232 202l49 46q127 119 127 169q0 31 -20.5 49.5t-55.5 18.5q-39 0 -65.5 -22.5t-30.5 -57.5v-6q-6 -37 -41 -37h-139q-16 0 -24.5 10.5t-6.5 26.5l4 41q20 104 111.5 166.5t216.5 62.5 q123 0 193.5 -64.5t70.5 -160.5q0 -61 -29.5 -116.5t-91.5 -122.5q-59 -66 -223 -203q-6 -8 -4 -13.5t10 -5.5h258q16 0 25.5 -10t7.5 -27l-14 -110q-2 -16 -13.5 -26.5t-27.5 -10.5h-527q-16 0 -24.5 10t-5.5 27z" />
<glyph unicode="&#xbe;" horiz-adv-x="1824" d="M18 832q4 37 41 37h142q29 0 30 -27q0 -10 2 -16q4 -20 9 -31q6 -20 22.5 -31.5t38.5 -11.5q45 0 70 37q25 33 30 82q2 10 3 26q0 35 -13 60q-14 39 -59 39q-25 0 -49 -12q-14 -8 -27 -9q-16 0 -25 15l-53 82q-6 10 -6 20q0 20 19 33l165 108q8 6 6 12.5t-10 6.5h-225 q-16 0 -25.5 10t-7.5 27l15 112q6 37 41 37h485q16 0 24.5 -10t6.5 -27l-15 -121q-6 -29 -28 -45l-138 -100q-6 -4 -5 -11t10 -9q82 -27 112 -121q10 -29 10 -72q0 -37 -4 -57q-8 -70 -39 -131q-43 -76 -119.5 -121t-170.5 -45t-161 47t-89 131q-12 37 -13 86zM369 20 q0 14 8 25l922 1364q18 25 45 25h158q29 0 28 -21q0 -14 -8 -24l-921 -1364q-16 -25 -43 -25h-160q-29 0 -29 20zM1126 246l13 94q4 25 14 47l244 444q14 29 45 29h145q29 0 29 -22q0 -8 -6 -21l-213 -397q-4 -8 -2 -12.5t8 -4.5h125q4 0 9 4.5t5 10.5l13 102q6 37 40 37 h138q16 0 24 -10t6 -27l-12 -102q0 -14 12 -15h23q16 0 24.5 -10t6.5 -26l-15 -121q-6 -37 -41 -37h-22q-14 0 -15 -14l-20 -158q-2 -16 -12.5 -26.5t-26.5 -10.5h-137q-16 0 -25.5 10t-7.5 27l21 158q0 14 -13 14h-346q-35 0 -31 37z" />
<glyph unicode="&#xbf;" horiz-adv-x="1079" d="M4 -76q0 16 4 58q12 92 51 156.5t89.5 105.5t123.5 88q78 49 116 84t44 86v16q6 37 41 37h258q17 0 26 -10t7 -27l-6 -37q-10 -78 -47 -134t-83 -92t-120 -83q-86 -55 -126 -93t-40 -97q0 -47 38 -75t101 -28q76 0 125 36t58 93v10q2 16 13 26.5t28 8.5l256 -12 q35 -4 34 -16l-2 -17q-16 -129 -92 -228t-196.5 -154.5t-268.5 -55.5q-201 0 -316.5 96t-115.5 258zM434 829q0 53 31 99.5t80 75t102 28.5q72 0 119 -45t47 -113q0 -84 -64.5 -145t-148.5 -61q-68 0 -117 47t-49 114z" />
<glyph unicode="&#xc0;" horiz-adv-x="1378" d="M14 25l4 16l586 1362q12 31 45 31h350q33 0 39 -31l252 -1362v-8q0 -33 -35 -33h-280q-33 0 -35 31l-27 168q0 12 -14 12h-448q-12 0 -17 -12l-67 -168q-10 -31 -43 -31h-281q-29 0 -29 25zM549 1774q0 10 9 17t24 7h243q27 0 39 -26l74 -183q4 -12 4 -16q0 -12 -9 -19.5 t-26 -7.5h-204q-29 0 -41 23l-107 184q-6 10 -6 21zM550 478q3 -5 11 -5h293q8 0 12 5t2 11l-84 545q-2 10 -7 10t-9 -10l-217 -545q-4 -6 -1 -11z" />
<glyph unicode="&#xc1;" horiz-adv-x="1378" d="M14 25l4 16l586 1362q12 31 45 31h350q33 0 39 -31l252 -1362v-8q0 -33 -35 -33h-280q-33 0 -35 31l-27 168q0 12 -14 12h-448q-12 0 -17 -12l-67 -168q-10 -31 -43 -31h-281q-29 0 -29 25zM550 478q3 -5 11 -5h293q8 0 12 5t2 11l-84 545q-2 10 -7 10t-9 -10l-217 -545 q-4 -6 -1 -11zM660 1567q0 8 10 22l117 183q20 27 45 26h243q14 0 21.5 -5t7.5 -13q0 -10 -12 -27l-152 -184q-16 -23 -45 -23h-205q-30 1 -30 21z" />
<glyph unicode="&#xc2;" horiz-adv-x="1378" d="M14 25l4 16l586 1362q12 31 45 31h350q33 0 39 -31l252 -1362v-8q0 -33 -35 -33h-280q-33 0 -35 31l-27 168q0 12 -14 12h-448q-12 0 -17 -12l-67 -168q-10 -31 -43 -31h-281q-29 0 -29 25zM483 1563q0 12 12 26l160 195q14 23 45 23h258q29 0 41 -23l117 -195 q6 -8 6 -18q0 -27 -35 -27h-178q-29 0 -39 25l-45 98q-10 14 -20 0l-70 -98q-16 -25 -45 -25h-178q-29 1 -29 19zM550 478q3 -5 11 -5h293q8 0 12 5t2 11l-84 545q-2 10 -7 10t-9 -10l-217 -545q-4 -6 -1 -11z" />
<glyph unicode="&#xc3;" horiz-adv-x="1378" d="M14 25l4 16l586 1362q12 31 45 31h350q33 0 39 -31l252 -1362v-8q0 -33 -35 -33h-280q-33 0 -35 31l-27 168q0 12 -14 12h-448q-12 0 -17 -12l-67 -168q-10 -31 -43 -31h-281q-29 0 -29 25zM528 1669q0 14 4 21q37 72 92.5 109.5t116.5 37.5q35 0 60.5 -11t66.5 -38 q16 -12 41 -22.5t45 -10.5q37 0 64 29q18 18 32 18q8 0 19 -6l78 -61q12 -8 12 -27q0 -18 -15 -41q-45 -63 -100 -96t-108 -33q-39 0 -69 13.5t-60 35.5q-27 18 -41.5 24.5t-30.5 6.5q-39 0 -66 -29q-16 -18 -30 -18q-12 0 -21 8l-76 62q-14 12 -14 28zM550 478q3 -5 11 -5 h293q8 0 12 5t2 11l-84 545q-2 10 -7 10t-9 -10l-217 -545q-4 -6 -1 -11z" />
<glyph unicode="&#xc4;" horiz-adv-x="1378" d="M14 25l4 16l586 1362q12 31 45 31h350q33 0 39 -31l252 -1362v-8q0 -33 -35 -33h-280q-33 0 -35 31l-27 168q0 12 -14 12h-448q-12 0 -17 -12l-67 -168q-10 -31 -43 -31h-281q-29 0 -29 25zM459 1659q0 82 52.5 135.5t127.5 53.5q63 0 99.5 -37t36.5 -99 q0 -84 -49.5 -137t-125.5 -53q-65 0 -103 37t-38 100zM550 478q3 -5 11 -5h293q8 0 12 5t2 11l-84 545q-2 10 -7 10t-9 -10l-217 -545q-4 -6 -1 -11zM858 1659q0 82 50.5 135.5t128.5 53.5q63 0 100 -37t37 -99q0 -84 -50 -137t-128 -53q-64 0 -101 37t-37 100z" />
<glyph unicode="&#xc5;" horiz-adv-x="1378" d="M14 25l4 16l586 1362q12 31 45 31h350q33 0 39 -31l252 -1362v-8q0 -33 -35 -33h-280q-33 0 -35 31l-27 168q0 12 -14 12h-448q-12 0 -17 -12l-67 -168q-10 -31 -43 -31h-281q-29 0 -29 25zM550 478q3 -5 11 -5h293q8 0 12 5t2 11l-84 545q-2 10 -7 10t-9 -10l-217 -545 q-4 -6 -1 -11zM601 1718q0 72 35.5 132.5t95 96.5t127.5 36q88 0 144 -57.5t56 -145.5q0 -72 -34.5 -132.5t-94 -96t-129.5 -35.5q-88 0 -144 57t-56 145zM748 1737q0 -31 19.5 -51.5t52.5 -20.5q37 0 64.5 29t27.5 67q0 33 -20.5 53.5t-51.5 20.5q-37 0 -64.5 -28.5 t-27.5 -69.5z" />
<glyph unicode="&#xc6;" horiz-adv-x="1935" d="M23 20q0 10 6 23l823 1364q14 27 47 27h1075q16 0 24.5 -10.5t6.5 -26.5l-27 -217q-2 -17 -13 -27t-28 -10h-602q-4 0 -9 -4t-5 -11l-31 -243q0 -14 13 -15h376q16 0 25.5 -10t7.5 -26l-26 -216q-6 -37 -41 -36h-377q-12 0 -17 -15l-32 -262q0 -14 12 -14h602 q16 0 25.5 -10.5t7.5 -26.5l-27 -217q-6 -37 -41 -37h-909q-16 0 -25.5 10t-7.5 27l21 160q0 14 -13 14h-364q-10 0 -17 -10l-102 -174q-14 -27 -45 -27h-287q-27 0 -26 20zM653 489q-5 -16 9 -16h235q14 0 14 14l64 519q2 10 -3 12t-11 -8z" />
<glyph unicode="&#xc7;" horiz-adv-x="1210" d="M92 422q0 49 4 76l56 442q18 152 98 267.5t209 179t286 63.5q221 0 349.5 -111.5t128.5 -302.5q0 -20 -4 -69v-11q-2 -8 -37 -12l-260 -18h-9q-29 0 -28 10l2 12q2 12 2 35q0 82 -48 129t-130 47q-90 0 -153.5 -58.5t-76.5 -152.5l-57 -465q-2 -10 -2 -30 q0 -82 49 -130.5t131 -48.5q92 0 154.5 57.5t72.5 151.5q2 10 12.5 17.5t26.5 5.5l258 -14q35 -4 33 -11v-10q-25 -195 -157 -324t-336 -157q-18 -4 -7 -19q55 -68 56 -139q0 -39 -17 -78q-29 -72 -84 -102.5t-125 -30.5q-68 0 -127 23q-18 6 -18 28q0 10 2 17l23 100 q10 33 47 25q16 -4 26 -4q45 0 60 38q4 16 4 25q0 55 -82 121q-4 4 -14 8q-152 39 -235 148.5t-83 271.5z" />
<glyph unicode="&#xc8;" horiz-adv-x="1146" d="M61 37l168 1360q2 16 13.5 26.5t27.5 10.5h916q16 0 24.5 -10.5t6.5 -26.5l-27 -217q-2 -17 -13.5 -27t-27.5 -10h-608q-4 0 -9.5 -4t-5.5 -11l-30 -243q0 -14 12 -15h383q16 0 25.5 -10t7.5 -26l-27 -216q-6 -37 -41 -36h-383q-12 0 -16 -15l-33 -262q0 -14 12 -14h608 q16 0 24.5 -10.5t6.5 -26.5l-26 -217q-2 -16 -12.5 -26.5t-26.5 -10.5h-916q-16 0 -25.5 10t-7.5 27zM449 1800q0 10 9 17t24 7h243q27 0 39 -26l74 -183q4 -12 4 -16q0 -12 -9 -19.5t-26 -7.5h-204q-29 0 -41 23l-107 184q-6 10 -6 21z" />
<glyph unicode="&#xc9;" horiz-adv-x="1146" d="M61 37l168 1360q2 16 13.5 26.5t27.5 10.5h916q16 0 24.5 -10.5t6.5 -26.5l-27 -217q-2 -17 -13.5 -27t-27.5 -10h-608q-4 0 -9.5 -4t-5.5 -11l-30 -243q0 -14 12 -15h383q16 0 25.5 -10t7.5 -26l-27 -216q-6 -37 -41 -36h-383q-12 0 -16 -15l-33 -262q0 -14 12 -14h608 q16 0 24.5 -10.5t6.5 -26.5l-26 -217q-2 -16 -12.5 -26.5t-26.5 -10.5h-916q-16 0 -25.5 10t-7.5 27zM559 1593q0 8 10 22l117 183q20 27 45 26h243q14 0 21.5 -5t7.5 -13q0 -10 -12 -27l-152 -184q-16 -23 -45 -23h-205q-30 1 -30 21z" />
<glyph unicode="&#xca;" horiz-adv-x="1146" d="M61 37l168 1360q2 16 13.5 26.5t27.5 10.5h916q16 0 24.5 -10.5t6.5 -26.5l-27 -217q-2 -17 -13.5 -27t-27.5 -10h-608q-4 0 -9.5 -4t-5.5 -11l-30 -243q0 -14 12 -15h383q16 0 25.5 -10t7.5 -26l-27 -216q-6 -37 -41 -36h-383q-12 0 -16 -15l-33 -262q0 -14 12 -14h608 q16 0 24.5 -10.5t6.5 -26.5l-26 -217q-2 -16 -12.5 -26.5t-26.5 -10.5h-916q-16 0 -25.5 10t-7.5 27zM383 1589q0 12 12 26l160 195q14 23 45 23h258q29 0 41 -23l117 -195q6 -8 6 -18q0 -27 -35 -27h-178q-29 0 -39 25l-45 98q-10 14 -20 0l-70 -98q-16 -25 -45 -25h-178 q-29 1 -29 19z" />
<glyph unicode="&#xcb;" horiz-adv-x="1146" d="M61 37l168 1360q2 16 13.5 26.5t27.5 10.5h916q16 0 24.5 -10.5t6.5 -26.5l-27 -217q-2 -17 -13.5 -27t-27.5 -10h-608q-4 0 -9.5 -4t-5.5 -11l-30 -243q0 -14 12 -15h383q16 0 25.5 -10t7.5 -26l-27 -216q-6 -37 -41 -36h-383q-12 0 -16 -15l-33 -262q0 -14 12 -14h608 q16 0 24.5 -10.5t6.5 -26.5l-26 -217q-2 -16 -12.5 -26.5t-26.5 -10.5h-916q-16 0 -25.5 10t-7.5 27zM358 1685q0 82 52.5 135.5t127.5 53.5q63 0 99.5 -37t36.5 -99q0 -84 -49.5 -137t-125.5 -53q-65 0 -103 37t-38 100zM757 1685q0 82 50.5 135.5t128.5 53.5q63 0 100 -37 t37 -99q0 -84 -50 -137t-128 -53q-64 0 -101 37t-37 100z" />
<glyph unicode="&#xcc;" d="M61 37l168 1360q2 16 13.5 26.5t27.5 10.5h258q16 0 24.5 -10.5t6.5 -26.5l-168 -1360q-2 -16 -12 -26.5t-27 -10.5h-258q-16 0 -25.5 10t-7.5 27zM113 1800q0 10 9 17t24 7h243q27 0 39 -26l74 -183q4 -12 4 -16q0 -12 -9 -19.5t-26 -7.5h-204q-29 0 -41 23l-107 184 q-6 10 -6 21z" />
<glyph unicode="&#xcd;" d="M61 37l168 1360q2 16 13.5 26.5t27.5 10.5h258q16 0 24.5 -10.5t6.5 -26.5l-168 -1360q-2 -16 -12 -26.5t-27 -10.5h-258q-16 0 -25.5 10t-7.5 27zM224 1593q0 8 10 22l117 183q20 27 45 26h243q14 0 21.5 -5t7.5 -13q0 -10 -12 -27l-152 -184q-16 -23 -45 -23h-205 q-30 1 -30 21z" />
<glyph unicode="&#xce;" d="M47 1589q0 12 12 26l160 195q14 23 45 23h258q29 0 41 -23l117 -195q6 -8 6 -18q0 -27 -35 -27h-178q-29 0 -39 25l-45 98q-10 14 -20 0l-70 -98q-16 -25 -45 -25h-178q-29 1 -29 19zM61 37l168 1360q2 16 13.5 26.5t27.5 10.5h258q16 0 24.5 -10.5t6.5 -26.5l-168 -1360 q-2 -16 -12 -26.5t-27 -10.5h-258q-16 0 -25.5 10t-7.5 27z" />
<glyph unicode="&#xcf;" d="M22 1685q0 82 52.5 135.5t127.5 53.5q63 0 99.5 -37t36.5 -99q0 -84 -49.5 -137t-125.5 -53q-65 0 -103 37t-38 100zM61 37l168 1360q2 16 13.5 26.5t27.5 10.5h258q16 0 24.5 -10.5t6.5 -26.5l-168 -1360q-2 -16 -12 -26.5t-27 -10.5h-258q-16 0 -25.5 10t-7.5 27z M421 1685q0 82 50.5 135.5t128.5 53.5q63 0 100 -37t37 -99q0 -84 -50 -137t-128 -53q-64 0 -101 37t-37 100z" />
<glyph unicode="&#xd0;" horiz-adv-x="1318" d="M139 659l19 154q2 16 13 26.5t28 10.5h41q12 0 16 14l63 533q6 37 41 37h496q217 0 345 -105.5t128 -284.5q0 -18 -4 -59l-65 -536q-16 -133 -94.5 -235.5t-204 -158t-281.5 -55.5h-496q-16 0 -24 10t-6 27l69 571v4q0 10 -12 11h-41q-16 0 -24.5 10t-6.5 26zM516 305 q0 -14 12 -14h201q78 0 135.5 58.5t71.5 156.5l51 422q2 14 2 39q0 82 -43 129t-115 47h-198q-12 0 -17 -15l-30 -264v-4q0 -10 12 -10h117q16 0 24.5 -10.5t5.5 -26.5l-18 -154q-6 -37 -41 -36h-117q-12 0 -16 -15z" />
<glyph unicode="&#xd1;" horiz-adv-x="1296" d="M63 37l168 1360q2 16 13.5 26.5t27.5 10.5h244q27 0 39 -25l342 -762q4 -8 8 -8q6 0 10 14l89 744q6 37 40 37h254q16 0 24.5 -10.5t6.5 -26.5l-166 -1360q-6 -37 -41 -37h-243q-27 0 -39 25l-342 772q-4 10 -10.5 8t-8.5 -12l-90 -756q-2 -16 -12 -26.5t-27 -10.5h-254 q-16 0 -25.5 10t-7.5 27zM471 1695q0 14 4 21q37 72 92.5 109.5t116.5 37.5q35 0 60.5 -11t66.5 -38q16 -12 41 -22.5t45 -10.5q37 0 64 29q18 18 32 18q8 0 19 -6l78 -61q12 -8 12 -27q0 -18 -15 -41q-45 -63 -100 -96t-108 -33q-39 0 -69 13.5t-60 35.5q-27 18 -41.5 24.5 t-30.5 6.5q-39 0 -66 -29q-16 -18 -30 -18q-12 0 -21 8l-76 62q-14 12 -14 28z" />
<glyph unicode="&#xd2;" horiz-adv-x="1232" d="M94 432q0 51 4 80l52 410q18 156 101 275.5t213 186t290 66.5q147 0 255.5 -55.5t167 -156.5t58.5 -237q0 -53 -4 -79l-49 -410q-18 -160 -101.5 -280.5t-214.5 -187.5t-293 -67q-221 0 -350 123t-129 332zM426 461q0 -90 49 -141.5t133 -51.5q97 0 163.5 64.5 t78.5 169.5l53 424q2 12 2 37q0 90 -50 143t-136 53q-94 0 -160.5 -64.5t-79.5 -168.5l-51 -424q-2 -14 -2 -41zM477 1790q0 10 9 17t24 7h243q27 0 39 -26l74 -183q4 -12 4 -16q0 -12 -9 -19.5t-26 -7.5h-204q-29 0 -41 23l-107 184q-6 10 -6 21z" />
<glyph unicode="&#xd3;" horiz-adv-x="1232" d="M94 432q0 51 4 80l52 410q18 156 101 275.5t213 186t290 66.5q147 0 255.5 -55.5t167 -156.5t58.5 -237q0 -53 -4 -79l-49 -410q-18 -160 -101.5 -280.5t-214.5 -187.5t-293 -67q-221 0 -350 123t-129 332zM426 461q0 -90 49 -141.5t133 -51.5q97 0 163.5 64.5 t78.5 169.5l53 424q2 12 2 37q0 90 -50 143t-136 53q-94 0 -160.5 -64.5t-79.5 -168.5l-51 -424q-2 -14 -2 -41zM588 1583q0 8 10 22l117 183q20 27 45 26h243q14 0 21.5 -5t7.5 -13q0 -10 -12 -27l-152 -184q-16 -23 -45 -23h-205q-30 1 -30 21z" />
<glyph unicode="&#xd4;" horiz-adv-x="1232" d="M94 432q0 51 4 80l52 410q18 156 101 275.5t213 186t290 66.5q147 0 255.5 -55.5t167 -156.5t58.5 -237q0 -53 -4 -79l-49 -410q-18 -160 -101.5 -280.5t-214.5 -187.5t-293 -67q-221 0 -350 123t-129 332zM412 1579q0 12 12 26l160 195q14 23 45 23h258q29 0 41 -23 l117 -195q6 -8 6 -18q0 -27 -35 -27h-178q-29 0 -39 25l-45 98q-10 14 -20 0l-70 -98q-16 -25 -45 -25h-178q-29 1 -29 19zM426 461q0 -90 49 -141.5t133 -51.5q97 0 163.5 64.5t78.5 169.5l53 424q2 12 2 37q0 90 -50 143t-136 53q-94 0 -160.5 -64.5t-79.5 -168.5 l-51 -424q-2 -14 -2 -41z" />
<glyph unicode="&#xd5;" horiz-adv-x="1232" d="M94 432q0 51 4 80l52 410q18 156 101 275.5t213 186t290 66.5q147 0 255.5 -55.5t167 -156.5t58.5 -237q0 -53 -4 -79l-49 -410q-18 -160 -101.5 -280.5t-214.5 -187.5t-293 -67q-221 0 -350 123t-129 332zM426 461q0 -90 49 -141.5t133 -51.5q97 0 163.5 64.5 t78.5 169.5l53 424q2 12 2 37q0 90 -50 143t-136 53q-94 0 -160.5 -64.5t-79.5 -168.5l-51 -424q-2 -14 -2 -41zM457 1685q0 14 4 21q37 72 92.5 109.5t116.5 37.5q35 0 60.5 -11t66.5 -38q16 -12 41 -22.5t45 -10.5q37 0 64 29q18 18 32 18q8 0 19 -6l78 -61q12 -8 12 -27 q0 -18 -15 -41q-45 -63 -100 -96t-108 -33q-39 0 -69 13.5t-60 35.5q-27 18 -41.5 24.5t-30.5 6.5q-39 0 -66 -29q-16 -18 -30 -18q-12 0 -21 8l-76 62q-14 12 -14 28z" />
<glyph unicode="&#xd6;" horiz-adv-x="1232" d="M94 432q0 51 4 80l52 410q18 156 101 275.5t213 186t290 66.5q147 0 255.5 -55.5t167 -156.5t58.5 -237q0 -53 -4 -79l-49 -410q-18 -160 -101.5 -280.5t-214.5 -187.5t-293 -67q-221 0 -350 123t-129 332zM387 1675q0 82 52.5 135.5t127.5 53.5q63 0 99.5 -37t36.5 -99 q0 -84 -49.5 -137t-125.5 -53q-65 0 -103 37t-38 100zM426 461q0 -90 49 -141.5t133 -51.5q97 0 163.5 64.5t78.5 169.5l53 424q2 12 2 37q0 90 -50 143t-136 53q-94 0 -160.5 -64.5t-79.5 -168.5l-51 -424q-2 -14 -2 -41zM786 1675q0 82 50.5 135.5t128.5 53.5 q63 0 100 -37t37 -99q0 -84 -50 -137t-128 -53q-64 0 -101 37t-37 100z" />
<glyph unicode="&#xd7;" horiz-adv-x="901" d="M76 428q0 14 16 29l191 174q10 10 2 20l-148 172q-10 14 -10 23q0 14 16 31l166 151q14 14 27 14q12 0 24 -14l148 -172q10 -10 20 0l187 170q12 12 26 12q16 0 25 -12l131 -152q8 -10 8 -22q0 -14 -16 -31l-187 -172q-12 -8 -4 -20l146 -170q8 -12 8 -23q0 -14 -16 -30 l-164 -152q-18 -14 -29 -14q-10 0 -25 14l-143 170q-8 8 -20 0l-187 -172q-12 -12 -28 -12q-12 0 -25 12l-129 151q-10 10 -10 25z" />
<glyph unicode="&#xd8;" horiz-adv-x="1236" d="M98 432q0 53 4 80l52 410q18 156 101 275.5t213 186t290 66.5q121 0 219 -41h6q8 0 14 8l37 62q14 27 47 26h95q29 0 28 -20q0 -12 -8 -23l-76 -125q-8 -8 0 -20q119 -119 119 -316q0 -53 -4 -79l-49 -410q-20 -160 -102.5 -280.5t-213.5 -187.5t-292 -67q-137 0 -246 52 q-12 6 -19 -6l-41 -66q-14 -27 -47 -27h-92q-29 0 -29 21q0 12 9 22l84 142q8 10 0 18q-98 117 -99 299zM434 526q0 -8 5 -8t12 8l364 596q6 12 -4 19q-37 18 -88 18q-94 0 -160.5 -64.5t-79.5 -168.5l-49 -396v-4zM496 324q-6 -8 2 -21q47 -35 114 -35q96 0 163 64.5 t79 169.5l53 424l2 35v2q0 10 -6 10t-12 -8z" />
<glyph unicode="&#xd9;" horiz-adv-x="1236" d="M104 414q0 25 5 73l112 910q2 16 13.5 26.5t27.5 10.5h258q16 0 24.5 -10.5t6.5 -26.5l-113 -910q-2 -10 -2 -32q0 -82 48 -131.5t130 -49.5q88 0 150.5 58.5t73.5 154.5l112 910q2 16 13.5 26.5t27.5 10.5h258q16 0 24.5 -10.5t6.5 -26.5l-113 -910q-18 -150 -98 -264 t-207 -176.5t-284 -62.5q-218 0 -346 116.5t-128 313.5zM481 1800q0 10 9 17t24 7h243q27 0 39 -26l74 -183q4 -12 4 -16q0 -12 -9 -19.5t-26 -7.5h-204q-29 0 -41 23l-107 184q-6 10 -6 21z" />
<glyph unicode="&#xda;" horiz-adv-x="1236" d="M104 414q0 25 5 73l112 910q2 16 13.5 26.5t27.5 10.5h258q16 0 24.5 -10.5t6.5 -26.5l-113 -910q-2 -10 -2 -32q0 -82 48 -131.5t130 -49.5q88 0 150.5 58.5t73.5 154.5l112 910q2 16 13.5 26.5t27.5 10.5h258q16 0 24.5 -10.5t6.5 -26.5l-113 -910q-18 -150 -98 -264 t-207 -176.5t-284 -62.5q-218 0 -346 116.5t-128 313.5zM592 1593q0 8 10 22l117 183q20 27 45 26h243q14 0 21.5 -5t7.5 -13q0 -10 -12 -27l-152 -184q-16 -23 -45 -23h-205q-30 1 -30 21z" />
<glyph unicode="&#xdb;" horiz-adv-x="1236" d="M104 414q0 25 5 73l112 910q2 16 13.5 26.5t27.5 10.5h258q16 0 24.5 -10.5t6.5 -26.5l-113 -910q-2 -10 -2 -32q0 -82 48 -131.5t130 -49.5q88 0 150.5 58.5t73.5 154.5l112 910q2 16 13.5 26.5t27.5 10.5h258q16 0 24.5 -10.5t6.5 -26.5l-113 -910q-18 -150 -98 -264 t-207 -176.5t-284 -62.5q-218 0 -346 116.5t-128 313.5zM416 1589q0 12 12 26l160 195q14 23 45 23h258q29 0 41 -23l117 -195q6 -8 6 -18q0 -27 -35 -27h-178q-29 0 -39 25l-45 98q-10 14 -20 0l-70 -98q-16 -25 -45 -25h-178q-29 1 -29 19z" />
<glyph unicode="&#xdc;" horiz-adv-x="1236" d="M104 414q0 25 5 73l112 910q2 16 13.5 26.5t27.5 10.5h258q16 0 24.5 -10.5t6.5 -26.5l-113 -910q-2 -10 -2 -32q0 -82 48 -131.5t130 -49.5q88 0 150.5 58.5t73.5 154.5l112 910q2 16 13.5 26.5t27.5 10.5h258q16 0 24.5 -10.5t6.5 -26.5l-113 -910q-18 -150 -98 -264 t-207 -176.5t-284 -62.5q-218 0 -346 116.5t-128 313.5zM391 1685q0 82 52.5 135.5t127.5 53.5q63 0 99.5 -37t36.5 -99q0 -84 -49.5 -137t-125.5 -53q-65 0 -103 37t-38 100zM790 1685q0 82 50.5 135.5t128.5 53.5q63 0 100 -37t37 -99q0 -84 -50 -137t-128 -53 q-64 0 -101 37t-37 100z" />
<glyph unicode="&#xdd;" horiz-adv-x="1261" d="M190 1403q0 14 9.5 22.5t25.5 8.5h281q31 0 39 -29l145 -502q4 -8 10.5 -8t10.5 8l272 502q14 29 45 29h283q29 0 28 -23q0 -8 -6 -20l-512 -863l-6 -18l-57 -469q-2 -16 -13.5 -26.5t-27.5 -10.5h-256q-17 0 -25 10.5t-6 26.5l57 469q2 6 -2 18l-292 863q-2 4 -3 12z M602 1567q0 8 10 22l117 183q20 27 45 26h243q14 0 21.5 -5t7.5 -13q0 -10 -12 -27l-152 -184q-16 -23 -45 -23h-205q-30 1 -30 21z" />
<glyph unicode="&#xde;" horiz-adv-x="1163" d="M55 37l168 1360q2 16 13.5 26.5t27.5 10.5h258q16 0 24.5 -10.5t6.5 -26.5l-27 -221v-5q0 -10 13 -10h227q186 0 295.5 -104.5t109.5 -276.5q0 -23 -4 -67q-16 -131 -91 -230.5t-189.5 -155t-245.5 -55.5h-213q-14 0 -14 -14l-29 -221q-2 -16 -12.5 -26.5t-26.5 -10.5 h-258q-16 0 -25.5 10t-7.5 27zM451 555q0 -10 12 -10h176q88 0 145.5 49t57.5 137q0 66 -44 102.5t-118 36.5h-178q-14 0 -15 -14l-36 -297v-4z" />
<glyph unicode="&#xdf;" horiz-adv-x="1226" d="M53 39l115 934q29 225 178.5 351t390.5 126q227 0 357.5 -94t130.5 -262q0 -33 -2 -50q-20 -166 -158 -251q-18 -10 -4 -21q53 -39 84 -110.5t31 -163.5q0 -23 -5 -68q-25 -207 -184.5 -318.5t-449.5 -111.5h-39q-16 0 -24.5 10t-6.5 27l27 215q2 16 13 26.5t28 10.5h83 q106 0 168 54t62 151q0 70 -47 108.5t-131 38.5h-82q-16 0 -24.5 10.5t-6.5 26.5l23 190q2 16 13 26.5t28 10.5h92q74 0 123 38t57 93q4 51 -33 88t-131 37q-84 0 -151.5 -42t-75.5 -113l-119 -969q-6 -37 -41 -37l-258 2q-16 0 -24.5 10.5t-6.5 26.5z" />
<glyph unicode="&#xe0;" horiz-adv-x="1112" d="M55 416q0 41 8 119q16 139 74 258q61 127 173 205.5t239 78.5q154 0 215 -94q4 -8 10 -6t6 12l4 33q6 37 41 37h258q16 0 24.5 -10.5t6.5 -26.5l-121 -985q-2 -16 -12 -26.5t-27 -10.5h-258q-16 0 -25 10t-7 27l6 49q2 10 -3 12t-12 -6q-92 -109 -239 -108 q-129 0 -228.5 88t-121.5 227q-10 66 -11 117zM412 471q0 -66 18 -113q29 -76 111 -75q78 0 127 77q43 70 55 168q4 49 4 68q0 68 -18 113q-33 70 -107 69q-78 0 -127 -71q-43 -63 -59 -179q-4 -41 -4 -57zM418 1399q0 10 9 17t24 7h243q27 0 39 -26l74 -183q4 -12 4 -16 q0 -12 -9 -19.5t-26 -7.5h-204q-29 0 -41 23l-107 184q-6 10 -6 21z" />
<glyph unicode="&#xe1;" horiz-adv-x="1112" d="M55 416q0 41 8 119q16 139 74 258q61 127 173 205.5t239 78.5q154 0 215 -94q4 -8 10 -6t6 12l4 33q6 37 41 37h258q16 0 24.5 -10.5t6.5 -26.5l-121 -985q-2 -16 -12 -26.5t-27 -10.5h-258q-16 0 -25 10t-7 27l6 49q2 10 -3 12t-12 -6q-92 -109 -239 -108 q-129 0 -228.5 88t-121.5 227q-10 66 -11 117zM412 471q0 -66 18 -113q29 -76 111 -75q78 0 127 77q43 70 55 168q4 49 4 68q0 68 -18 113q-33 70 -107 69q-78 0 -127 -71q-43 -63 -59 -179q-4 -41 -4 -57zM529 1192q0 8 10 22l117 183q20 27 45 26h243q14 0 21.5 -5 t7.5 -13q0 -10 -12 -27l-152 -184q-16 -23 -45 -23h-205q-30 1 -30 21z" />
<glyph unicode="&#xe2;" horiz-adv-x="1112" d="M55 416q0 41 8 119q16 139 74 258q61 127 173 205.5t239 78.5q154 0 215 -94q4 -8 10 -6t6 12l4 33q6 37 41 37h258q16 0 24.5 -10.5t6.5 -26.5l-121 -985q-2 -16 -12 -26.5t-27 -10.5h-258q-16 0 -25 10t-7 27l6 49q2 10 -3 12t-12 -6q-92 -109 -239 -108 q-129 0 -228.5 88t-121.5 227q-10 66 -11 117zM352 1188q0 12 12 26l160 195q14 23 45 23h258q29 0 41 -23l117 -195q6 -8 6 -18q0 -27 -35 -27h-178q-29 0 -39 25l-45 98q-10 14 -20 0l-70 -98q-16 -25 -45 -25h-178q-29 1 -29 19zM412 471q0 -66 18 -113q29 -76 111 -75 q78 0 127 77q43 70 55 168q4 49 4 68q0 68 -18 113q-33 70 -107 69q-78 0 -127 -71q-43 -63 -59 -179q-4 -41 -4 -57z" />
<glyph unicode="&#xe3;" horiz-adv-x="1112" d="M55 416q0 41 8 119q16 139 74 258q61 127 173 205.5t239 78.5q154 0 215 -94q4 -8 10 -6t6 12l4 33q6 37 41 37h258q16 0 24.5 -10.5t6.5 -26.5l-121 -985q-2 -16 -12 -26.5t-27 -10.5h-258q-16 0 -25 10t-7 27l6 49q2 10 -3 12t-12 -6q-92 -109 -239 -108 q-129 0 -228.5 88t-121.5 227q-10 66 -11 117zM397 1294q0 14 4 21q37 72 92.5 109.5t116.5 37.5q35 0 60.5 -11t66.5 -38q16 -12 41 -22.5t45 -10.5q37 0 64 29q18 18 32 18q8 0 19 -6l78 -61q12 -8 12 -27q0 -18 -15 -41q-45 -63 -100 -96t-108 -33q-39 0 -69 13.5 t-60 35.5q-27 18 -41.5 24.5t-30.5 6.5q-39 0 -66 -29q-16 -18 -30 -18q-12 0 -21 8l-76 62q-14 12 -14 28zM412 471q0 -66 18 -113q29 -76 111 -75q78 0 127 77q43 70 55 168q4 49 4 68q0 68 -18 113q-33 70 -107 69q-78 0 -127 -71q-43 -63 -59 -179q-4 -41 -4 -57z" />
<glyph unicode="&#xe4;" horiz-adv-x="1112" d="M55 416q0 41 8 119q16 139 74 258q61 127 173 205.5t239 78.5q154 0 215 -94q4 -8 10 -6t6 12l4 33q6 37 41 37h258q16 0 24.5 -10.5t6.5 -26.5l-121 -985q-2 -16 -12 -26.5t-27 -10.5h-258q-16 0 -25 10t-7 27l6 49q2 10 -3 12t-12 -6q-92 -109 -239 -108 q-129 0 -228.5 88t-121.5 227q-10 66 -11 117zM328 1284q0 82 52.5 135.5t127.5 53.5q63 0 99.5 -37t36.5 -99q0 -84 -49.5 -137t-125.5 -53q-65 0 -103 37t-38 100zM412 471q0 -66 18 -113q29 -76 111 -75q78 0 127 77q43 70 55 168q4 49 4 68q0 68 -18 113q-33 70 -107 69 q-78 0 -127 -71q-43 -63 -59 -179q-4 -41 -4 -57zM727 1284q0 82 50.5 135.5t128.5 53.5q63 0 100 -37t37 -99q0 -84 -50 -137t-128 -53q-64 0 -101 37t-37 100z" />
<glyph unicode="&#xe5;" horiz-adv-x="1112" d="M55 416q0 41 8 119q16 139 74 258q61 127 173 205.5t239 78.5q154 0 215 -94q4 -8 10 -6t6 12l4 33q6 37 41 37h258q16 0 24.5 -10.5t6.5 -26.5l-121 -985q-2 -16 -12 -26.5t-27 -10.5h-258q-16 0 -25 10t-7 27l6 49q2 10 -3 12t-12 -6q-92 -109 -239 -108 q-129 0 -228.5 88t-121.5 227q-10 66 -11 117zM412 471q0 -66 18 -113q29 -76 111 -75q78 0 127 77q43 70 55 168q4 49 4 68q0 68 -18 113q-33 70 -107 69q-78 0 -127 -71q-43 -63 -59 -179q-4 -41 -4 -57zM469 1343q0 72 35.5 132.5t95 96.5t127.5 36q88 0 144 -57.5 t56 -145.5q0 -72 -34.5 -132.5t-94 -96t-129.5 -35.5q-88 0 -144 57t-56 145zM616 1362q0 -31 19.5 -51.5t52.5 -20.5q37 0 64.5 29t27.5 67q0 33 -20.5 53.5t-51.5 20.5q-37 0 -64.5 -28.5t-27.5 -69.5z" />
<glyph unicode="&#xe6;" horiz-adv-x="1673" d="M33 256q0 166 118.5 266.5t333.5 100.5h191q12 0 16 14l2 25l2 20q0 47 -31.5 74.5t-91.5 27.5q-45 0 -80.5 -15t-52.5 -42q-12 -16 -21 -22.5t-24 -4.5l-260 35q-16 2 -22.5 12.5t-1.5 26.5q23 84 93 152.5t170.5 108.5t207.5 40q109 0 195.5 -43t125.5 -106 q4 -6 9.5 -6t9.5 6q47 59 134 104t187 45q141 0 255 -85t142 -226q12 -57 13 -121q0 -63 -13 -174q-2 -18 -13 -28.5t-28 -10.5h-579q-14 0 -14 -14l2 -29q8 -59 58 -87t130 -28q125 0 201 66q16 12 26 12q14 0 23 -12l100 -129q6 -12 6 -23q0 -14 -12 -30 q-82 -82 -185.5 -127t-217.5 -45q-119 0 -207 47t-121 119q-2 8 -5 9t-7 -3q-55 -74 -165 -123t-245 -49q-162 0 -258 70.5t-96 201.5zM367 309q0 -37 27.5 -62.5t80.5 -25.5q66 0 121 42t63 108l7 45q0 14 -13 14h-118q-78 0 -123 -31.5t-45 -89.5zM1030 637q-2 -6 1 -10 t9 -4h269q14 0 14 14q-4 39 -6 43q-10 47 -42 75.5t-83 28.5q-49 0 -88 -28.5t-60 -75.5q-6 -14 -14 -43z" />
<glyph unicode="&#xe7;" horiz-adv-x="1081" d="M80 430q0 53 6 105q16 139 66 235q70 143 201.5 224t295.5 81t279.5 -84t142.5 -213q8 -35 8 -67q0 -35 -37 -41l-258 -39l-10 -2q-12 0 -19 7t-7 17l-5 29q-6 45 -42.5 73.5t-90.5 28.5q-104 0 -149 -96q-29 -57 -41 -156q-6 -43 -6 -79q0 -43 6 -74q27 -104 129 -105 q49 0 90 27t66 78l2 10q4 10 18 21.5t29 9.5l247 -41q37 -6 27 -41q-6 -23 -18 -51q-49 -113 -146.5 -187.5t-220.5 -101.5q-8 -2 -10 -7t2 -11q61 -74 61 -152q0 -39 -14 -74q-29 -72 -85 -102.5t-126 -30.5q-66 0 -125 23q-27 8 -18 45l24 100q8 33 45 25q16 -4 27 -4 q45 0 59 38q4 8 4 25q0 51 -73 115q-10 6 -17 8q-117 27 -196.5 105.5t-106.5 197.5q-14 57 -14 131z" />
<glyph unicode="&#xe8;" horiz-adv-x="1095" d="M84 444q0 45 6 95q10 92 45 184q61 160 200.5 257t311.5 97q199 0 305.5 -127t116.5 -354q0 -82 -4 -125q-2 -37 -41 -37h-600q-14 0 -14 -14q0 -27 6 -43q14 -51 60 -78t118 -27q63 0 118.5 19.5t92.5 52.5q14 14 26 14q14 0 23 -14l104 -151q8 -10 9 -25q0 -12 -13 -29 q-78 -74 -186.5 -114.5t-224.5 -40.5q-135 0 -233.5 50t-155.5 140q-70 115 -70 270zM406 1417q0 10 9 17t24 7h243q27 0 39 -26l74 -183q4 -12 4 -16q0 -12 -9 -19.5t-26 -7.5h-204q-29 0 -41 23l-107 184q-6 10 -6 21zM440 647q0 -4 5.5 -7t9.5 -3h270q8 0 12 5t2 11 l-4 27q-10 49 -43 76.5t-88 27.5q-98 0 -149 -100l-13 -31z" />
<glyph unicode="&#xe9;" horiz-adv-x="1095" d="M84 444q0 45 6 95q10 92 45 184q61 160 200.5 257t311.5 97q199 0 305.5 -127t116.5 -354q0 -82 -4 -125q-2 -37 -41 -37h-600q-14 0 -14 -14q0 -27 6 -43q14 -51 60 -78t118 -27q63 0 118.5 19.5t92.5 52.5q14 14 26 14q14 0 23 -14l104 -151q8 -10 9 -25q0 -12 -13 -29 q-78 -74 -186.5 -114.5t-224.5 -40.5q-135 0 -233.5 50t-155.5 140q-70 115 -70 270zM440 647q0 -4 5.5 -7t9.5 -3h270q8 0 12 5t2 11l-4 27q-10 49 -43 76.5t-88 27.5q-98 0 -149 -100l-13 -31zM516 1210q0 8 10 22l117 183q20 27 45 26h243q14 0 21.5 -5t7.5 -13 q0 -10 -12 -27l-152 -184q-16 -23 -45 -23h-205q-30 1 -30 21z" />
<glyph unicode="&#xea;" horiz-adv-x="1095" d="M84 444q0 45 6 95q10 92 45 184q61 160 200.5 257t311.5 97q199 0 305.5 -127t116.5 -354q0 -82 -4 -125q-2 -37 -41 -37h-600q-14 0 -14 -14q0 -27 6 -43q14 -51 60 -78t118 -27q63 0 118.5 19.5t92.5 52.5q14 14 26 14q14 0 23 -14l104 -151q8 -10 9 -25q0 -12 -13 -29 q-78 -74 -186.5 -114.5t-224.5 -40.5q-135 0 -233.5 50t-155.5 140q-70 115 -70 270zM340 1206q0 12 12 26l160 195q14 23 45 23h258q29 0 41 -23l117 -195q6 -8 6 -18q0 -27 -35 -27h-178q-29 0 -39 25l-45 98q-10 14 -20 0l-70 -98q-16 -25 -45 -25h-178q-29 1 -29 19z M440 647q0 -4 5.5 -7t9.5 -3h270q8 0 12 5t2 11l-4 27q-10 49 -43 76.5t-88 27.5q-98 0 -149 -100l-13 -31z" />
<glyph unicode="&#xeb;" horiz-adv-x="1095" d="M84 444q0 45 6 95q10 92 45 184q61 160 200.5 257t311.5 97q199 0 305.5 -127t116.5 -354q0 -82 -4 -125q-2 -37 -41 -37h-600q-14 0 -14 -14q0 -27 6 -43q14 -51 60 -78t118 -27q63 0 118.5 19.5t92.5 52.5q14 14 26 14q14 0 23 -14l104 -151q8 -10 9 -25q0 -12 -13 -29 q-78 -74 -186.5 -114.5t-224.5 -40.5q-135 0 -233.5 50t-155.5 140q-70 115 -70 270zM315 1302q0 82 52.5 135.5t127.5 53.5q63 0 99.5 -37t36.5 -99q0 -84 -49.5 -137t-125.5 -53q-65 0 -103 37t-38 100zM440 647q0 -4 5.5 -7t9.5 -3h270q8 0 12 5t2 11l-4 27 q-10 49 -43 76.5t-88 27.5q-98 0 -149 -100l-13 -31zM714 1302q0 82 50.5 135.5t128.5 53.5q63 0 100 -37t37 -99q0 -84 -50 -137t-128 -53q-64 0 -101 37t-37 100z" />
<glyph unicode="&#xec;" horiz-adv-x="495" d="M45 37l121 985q2 16 12 26.5t27 10.5h258q16 0 25.5 -10.5t7.5 -26.5l-121 -985q-6 -37 -41 -37h-258q-17 0 -25 10t-6 27zM86 1424q0 10 9 17t24 7h243q27 0 39 -26l74 -183q4 -12 4 -16q0 -12 -9 -19.5t-26 -7.5h-204q-29 0 -41 23l-107 184q-6 10 -6 21z" />
<glyph unicode="&#xed;" horiz-adv-x="495" d="M45 37l121 985q2 16 12 26.5t27 10.5h258q16 0 25.5 -10.5t7.5 -26.5l-121 -985q-6 -37 -41 -37h-258q-17 0 -25 10t-6 27zM197 1217q0 8 10 22l117 183q20 27 45 26h243q14 0 21.5 -5t7.5 -13q0 -10 -12 -27l-152 -184q-16 -23 -45 -23h-205q-30 1 -30 21z" />
<glyph unicode="&#xee;" horiz-adv-x="495" d="M20 1213q0 12 12 26l160 195q14 23 45 23h258q29 0 41 -23l117 -195q6 -8 6 -18q0 -27 -35 -27h-178q-29 0 -39 25l-45 98q-10 14 -20 0l-70 -98q-16 -25 -45 -25h-178q-29 1 -29 19zM45 37l121 985q2 16 12 26.5t27 10.5h258q16 0 25.5 -10.5t7.5 -26.5l-121 -985 q-6 -37 -41 -37h-258q-17 0 -25 10t-6 27z" />
<glyph unicode="&#xef;" horiz-adv-x="518" d="M10 1309q0 82 52.5 135.5t127.5 53.5q63 0 99.5 -37t36.5 -99q0 -84 -49.5 -137t-125.5 -53q-65 0 -103 37t-38 100zM59 37l121 985q2 16 12 26.5t27 10.5h258q16 0 25.5 -10.5t7.5 -26.5l-121 -985q-6 -37 -41 -37h-258q-17 0 -25 10t-6 27zM409 1309q0 82 50.5 135.5 t128.5 53.5q63 0 100 -37t37 -99q0 -84 -50 -137t-128 -53q-64 0 -101 37t-37 100z" />
<glyph unicode="&#xf0;" horiz-adv-x="1085" d="M51 385q0 55 4 86q14 119 64 209q72 137 205 194q43 20 111.5 35t131.5 15t101 -15q18 -6 12 13q-20 68 -51 129q-4 10 -17 6l-196 -49q-4 -2 -13 -2q-20 0 -26 28l-12 107v6q0 29 28 37l123 33q8 2 11 7t-1 11q-27 39 -114 154q-10 14 -11 22q0 10 9.5 16.5t25.5 6.5 h266q25 0 41 -23l70 -108q8 -12 18 -9l162 43q4 2 13 2q25 0 26 -30l15 -105v-6q0 -27 -33 -37l-88 -22q-16 -4 -6 -21q96 -190 108 -360q8 -55 8 -125q0 -68 -10 -160q-14 -121 -61 -211q-68 -125 -198 -201.5t-286 -76.5q-158 0 -267.5 74.5t-145.5 203.5q-16 51 -17 123z M385 408q0 -43 12 -74q10 -45 41 -70.5t74 -25.5t80 25.5t61 70.5q41 71 41 182q0 35 -10 70q-29 92 -119 92q-45 0 -82 -23.5t-57 -68.5q-29 -47 -37 -123q-4 -41 -4 -55z" />
<glyph unicode="&#xf1;" horiz-adv-x="1093" d="M49 37l121 985q2 16 12.5 26.5t26.5 10.5h258q16 0 25.5 -10.5t7.5 -26.5l-8 -57q-2 -10 3 -12.5t11 5.5q92 117 250 117q141 0 225 -83t84 -230q0 -18 -4 -64l-82 -661q-2 -16 -12.5 -26.5t-26.5 -10.5h-258q-16 0 -25.5 10t-7.5 27l74 588l2 26q0 59 -31.5 96t-87.5 37 q-59 0 -103 -44t-52 -115l-72 -588q-6 -37 -41 -37h-258q-16 0 -24.5 10t-6.5 27zM399 1294q0 14 4 21q37 72 92.5 109.5t116.5 37.5q35 0 60.5 -11t66.5 -38q16 -12 41 -22.5t45 -10.5q37 0 64 29q18 18 32 18q8 0 19 -6l78 -61q12 -8 12 -27q0 -18 -15 -41 q-45 -63 -100 -96t-108 -33q-39 0 -69 13.5t-60 35.5q-27 18 -41.5 24.5t-30.5 6.5q-39 0 -66 -29q-16 -18 -30 -18q-12 0 -21 8l-76 62q-14 12 -14 28z" />
<glyph unicode="&#xf2;" horiz-adv-x="1107" d="M80 436q0 47 6 96q12 98 49 199q68 162 203 253t311 91q174 0 284.5 -91t137.5 -251q8 -47 8 -110q0 -57 -4 -86q-12 -102 -45 -181q-61 -172 -198.5 -272t-319.5 -100q-178 0 -290.5 98t-135.5 266q-6 43 -6 88zM412 457q0 -82 34.5 -132.5t102.5 -50.5q57 0 100 38 t68 104q16 45 26 116q4 45 5 64q0 88 -34 138t-104 50q-117 0 -164 -133q-23 -51 -28 -119q-6 -39 -6 -75zM414 1415q0 10 9 17t24 7h243q27 0 39 -26l74 -183q4 -12 4 -16q0 -12 -9 -19.5t-26 -7.5h-204q-29 0 -41 23l-107 184q-6 10 -6 21z" />
<glyph unicode="&#xf3;" horiz-adv-x="1107" d="M80 436q0 47 6 96q12 98 49 199q68 162 203 253t311 91q174 0 284.5 -91t137.5 -251q8 -47 8 -110q0 -57 -4 -86q-12 -102 -45 -181q-61 -172 -198.5 -272t-319.5 -100q-178 0 -290.5 98t-135.5 266q-6 43 -6 88zM412 457q0 -82 34.5 -132.5t102.5 -50.5q57 0 100 38 t68 104q16 45 26 116q4 45 5 64q0 88 -34 138t-104 50q-117 0 -164 -133q-23 -51 -28 -119q-6 -39 -6 -75zM525 1208q0 8 10 22l117 183q20 27 45 26h243q14 0 21.5 -5t7.5 -13q0 -10 -12 -27l-152 -184q-16 -23 -45 -23h-205q-30 1 -30 21z" />
<glyph unicode="&#xf4;" horiz-adv-x="1107" d="M80 436q0 47 6 96q12 98 49 199q68 162 203 253t311 91q174 0 284.5 -91t137.5 -251q8 -47 8 -110q0 -57 -4 -86q-12 -102 -45 -181q-61 -172 -198.5 -272t-319.5 -100q-178 0 -290.5 98t-135.5 266q-6 43 -6 88zM348 1204q0 12 12 26l160 195q14 23 45 23h258 q29 0 41 -23l117 -195q6 -8 6 -18q0 -27 -35 -27h-178q-29 0 -39 25l-45 98q-10 14 -20 0l-70 -98q-16 -25 -45 -25h-178q-29 1 -29 19zM412 457q0 -82 34.5 -132.5t102.5 -50.5q57 0 100 38t68 104q16 45 26 116q4 45 5 64q0 88 -34 138t-104 50q-117 0 -164 -133 q-23 -51 -28 -119q-6 -39 -6 -75z" />
<glyph unicode="&#xf5;" horiz-adv-x="1107" d="M80 436q0 47 6 96q12 98 49 199q68 162 203 253t311 91q174 0 284.5 -91t137.5 -251q8 -47 8 -110q0 -57 -4 -86q-12 -102 -45 -181q-61 -172 -198.5 -272t-319.5 -100q-178 0 -290.5 98t-135.5 266q-6 43 -6 88zM393 1310q0 14 4 21q37 72 92.5 109.5t116.5 37.5 q35 0 60.5 -11t66.5 -38q16 -12 41 -22.5t45 -10.5q37 0 64 29q18 18 32 18q8 0 19 -6l78 -61q12 -8 12 -27q0 -18 -15 -41q-45 -63 -100 -96t-108 -33q-39 0 -69 13.5t-60 35.5q-27 18 -41.5 24.5t-30.5 6.5q-39 0 -66 -29q-16 -18 -30 -18q-12 0 -21 8l-76 62 q-14 12 -14 28zM412 457q0 -82 34.5 -132.5t102.5 -50.5q57 0 100 38t68 104q16 45 26 116q4 45 5 64q0 88 -34 138t-104 50q-117 0 -164 -133q-23 -51 -28 -119q-6 -39 -6 -75z" />
<glyph unicode="&#xf6;" horiz-adv-x="1107" d="M80 436q0 47 6 96q12 98 49 199q68 162 203 253t311 91q174 0 284.5 -91t137.5 -251q8 -47 8 -110q0 -57 -4 -86q-12 -102 -45 -181q-61 -172 -198.5 -272t-319.5 -100q-178 0 -290.5 98t-135.5 266q-6 43 -6 88zM323 1300q0 82 52.5 135.5t127.5 53.5q63 0 99.5 -37 t36.5 -99q0 -84 -49.5 -137t-125.5 -53q-65 0 -103 37t-38 100zM412 457q0 -82 34.5 -132.5t102.5 -50.5q57 0 100 38t68 104q16 45 26 116q4 45 5 64q0 88 -34 138t-104 50q-117 0 -164 -133q-23 -51 -28 -119q-6 -39 -6 -75zM722 1300q0 82 50.5 135.5t128.5 53.5 q63 0 100 -37t37 -99q0 -84 -50 -137t-128 -53q-64 0 -101 37t-37 100z" />
<glyph unicode="&#xf7;" horiz-adv-x="956" d="M74 518l26 217q2 16 13.5 26.5t27.5 10.5h783q16 0 24 -10t6 -27l-26 -217q-2 -16 -13.5 -26.5t-27.5 -10.5h-783q-34 0 -30 37zM319 262q0 68 52.5 119t117.5 51q55 0 93.5 -39t38.5 -94q0 -68 -51.5 -120t-116.5 -52q-58 0 -96 39t-38 96zM408 973q0 68 52 119t118 51 q55 0 93 -39t38 -94q0 -68 -52.5 -120t-115.5 -52q-58 0 -95.5 38.5t-37.5 96.5z" />
<glyph unicode="&#xf8;" horiz-adv-x="1112" d="M84 436q0 47 6 96q12 98 49 199q68 162 203 253t311 91q129 0 226 -51q14 -6 20 4l72 90q16 16 30 17q12 0 21 -9l53 -43q12 -8 12 -24q0 -12 -12 -29l-71 -92q-8 -12 -3 -18q55 -80 74 -187q8 -47 8 -110q0 -57 -4 -86q-12 -90 -45 -181q-61 -172 -199.5 -272 t-318.5 -100q-121 0 -219 49q-14 8 -21 -4l-69 -88q-16 -16 -31 -17q-14 0 -22 8l-52 45q-12 12 -12 25q0 12 10 27l72 90q6 10 2 20q-70 88 -84 209q-6 43 -6 88zM418 451q0 -8 6 -10.5t10 5.5l244 306q12 12 -2 18q-33 14 -62 14q-115 0 -165 -133q-20 -55 -27 -119 q-6 -46 -4 -81zM496 303q-8 -12 4 -18q27 -10 53 -11q57 0 100 38t68 104q17 44 27 116l4 64q-2 10 -7.5 11t-11.5 -7z" />
<glyph unicode="&#xf9;" horiz-adv-x="1091" d="M78 287q0 45 4 69l82 666q2 16 12 26.5t27 10.5h258q16 0 25.5 -10.5t7.5 -26.5l-74 -588l-2 -26q0 -61 30.5 -96.5t86.5 -35.5q55 0 96 35t57 92l76 619q2 16 12 26.5t27 10.5h258q16 0 25.5 -10.5t7.5 -26.5l-121 -985q-6 -37 -41 -37h-258q-16 0 -24.5 10t-6.5 27 l6 51q0 10 -4 12t-12 -6q-94 -111 -260 -110q-135 0 -215 78.5t-80 224.5zM399 1399q0 10 9 17t24 7h243q27 0 39 -26l74 -183q4 -12 4 -16q0 -12 -9 -19.5t-26 -7.5h-204q-29 0 -41 23l-107 184q-6 10 -6 21z" />
<glyph unicode="&#xfa;" horiz-adv-x="1091" d="M78 287q0 45 4 69l82 666q2 16 12 26.5t27 10.5h258q16 0 25.5 -10.5t7.5 -26.5l-74 -588l-2 -26q0 -61 30.5 -96.5t86.5 -35.5q55 0 96 35t57 92l76 619q2 16 12 26.5t27 10.5h258q16 0 25.5 -10.5t7.5 -26.5l-121 -985q-6 -37 -41 -37h-258q-16 0 -24.5 10t-6.5 27 l6 51q0 10 -4 12t-12 -6q-94 -111 -260 -110q-135 0 -215 78.5t-80 224.5zM510 1192q0 8 10 22l117 183q20 27 45 26h243q14 0 21.5 -5t7.5 -13q0 -10 -12 -27l-152 -184q-16 -23 -45 -23h-205q-30 1 -30 21z" />
<glyph unicode="&#xfb;" horiz-adv-x="1091" d="M78 287q0 45 4 69l82 666q2 16 12 26.5t27 10.5h258q16 0 25.5 -10.5t7.5 -26.5l-74 -588l-2 -26q0 -61 30.5 -96.5t86.5 -35.5q55 0 96 35t57 92l76 619q2 16 12 26.5t27 10.5h258q16 0 25.5 -10.5t7.5 -26.5l-121 -985q-6 -37 -41 -37h-258q-16 0 -24.5 10t-6.5 27 l6 51q0 10 -4 12t-12 -6q-94 -111 -260 -110q-135 0 -215 78.5t-80 224.5zM334 1188q0 12 12 26l160 195q14 23 45 23h258q29 0 41 -23l117 -195q6 -8 6 -18q0 -27 -35 -27h-178q-29 0 -39 25l-45 98q-10 14 -20 0l-70 -98q-16 -25 -45 -25h-178q-29 1 -29 19z" />
<glyph unicode="&#xfc;" horiz-adv-x="1091" d="M78 287q0 45 4 69l82 666q2 16 12 26.5t27 10.5h258q16 0 25.5 -10.5t7.5 -26.5l-74 -588l-2 -26q0 -61 30.5 -96.5t86.5 -35.5q55 0 96 35t57 92l76 619q2 16 12 26.5t27 10.5h258q16 0 25.5 -10.5t7.5 -26.5l-121 -985q-6 -37 -41 -37h-258q-16 0 -24.5 10t-6.5 27 l6 51q0 10 -4 12t-12 -6q-94 -111 -260 -110q-135 0 -215 78.5t-80 224.5zM309 1284q0 82 52.5 135.5t127.5 53.5q63 0 99.5 -37t36.5 -99q0 -84 -49.5 -137t-125.5 -53q-65 0 -103 37t-38 100zM708 1284q0 82 50.5 135.5t128.5 53.5q63 0 100 -37t37 -99q0 -84 -50 -137 t-128 -53q-64 0 -101 37t-37 100z" />
<glyph unicode="&#xfd;" horiz-adv-x="1032" d="M-6 -371l24 205q2 16 7.5 26.5t9.5 10.5h10q127 0 184.5 22.5t79.5 96.5q2 8 2 18l-190 1010v8q0 33 33 33h278q16 0 25.5 -9.5t9.5 -23.5l63 -534q6 -20 17 0l190 534q4 14 16.5 23.5t28.5 9.5h275q31 0 30 -25l-4 -16l-458 -1038q-70 -154 -133.5 -233t-172 -117 t-301.5 -38h-14q-14 0 -10 37zM484 1217q0 8 10 22l117 183q20 27 45 26h243q14 0 21.5 -5t7.5 -13q0 -10 -12 -27l-152 -184q-16 -23 -45 -23h-205q-30 1 -30 21z" />
<glyph unicode="&#xfe;" horiz-adv-x="1087" d="M2 -373l217 1770q2 16 13.5 26.5t27.5 10.5h258q16 0 24.5 -10.5t6.5 -26.5l-45 -375q-2 -8 3 -10t11 4q80 61 205 61q127 0 220 -78.5t122 -205.5q16 -64 16 -148q0 -55 -6 -110q-16 -133 -61 -236q-57 -139 -177 -227t-249 -88q-123 0 -189 71q-4 8 -9 6t-7 -12 l-51 -422q-2 -16 -13.5 -26.5t-27.5 -10.5h-258q-16 0 -24.5 10.5t-6.5 26.5zM424 383l2 -16l2 -7q29 -78 107 -77q82 0 131 75q43 70 55 170q4 45 4 66q0 68 -18 113q-33 72 -111 71q-68 0 -119 -61q-2 -8 -10 -17l-6 -18z" />
<glyph unicode="&#xff;" horiz-adv-x="1032" d="M-6 -371l24 205q2 16 7.5 26.5t9.5 10.5h10q127 0 184.5 22.5t79.5 96.5q2 8 2 18l-190 1010v8q0 33 33 33h278q16 0 25.5 -9.5t9.5 -23.5l63 -534q6 -20 17 0l190 534q4 14 16.5 23.5t28.5 9.5h275q31 0 30 -25l-4 -16l-458 -1038q-70 -154 -133.5 -233t-172 -117 t-301.5 -38h-14q-14 0 -10 37zM282 1309q0 82 52.5 135.5t127.5 53.5q63 0 99.5 -37t36.5 -99q0 -84 -49.5 -137t-125.5 -53q-65 0 -103 37t-38 100zM681 1309q0 82 50.5 135.5t128.5 53.5q63 0 100 -37t37 -99q0 -84 -50 -137t-128 -53q-64 0 -101 37t-37 100z" />
<glyph unicode="&#x152;" horiz-adv-x="1855" d="M92 422q0 41 6 84l52 422q18 152 93.5 270.5t187.5 185t233 66.5q150 0 268 -82q2 -2 6 -2q8 0 10 12l2 19q2 16 13.5 26.5t27.5 10.5h903q16 0 24.5 -10.5t6.5 -26.5l-27 -217q-2 -17 -12 -27t-26 -10h-596q-6 0 -11.5 -4t-5.5 -11l-30 -243q0 -14 12 -15h373 q16 0 24 -10t6 -26l-26 -216q-2 -16 -13.5 -26t-27.5 -10h-371q-12 0 -16 -15l-31 -262q-2 -6 2 -10t8 -4h596q16 0 25.5 -10.5t7.5 -26.5l-27 -217q-6 -37 -41 -37h-903q-16 0 -25.5 10t-7.5 27l2 14q2 8 -3 11.5t-11 -1.5q-141 -84 -289 -84q-109 0 -197.5 55.5t-140 157 t-51.5 232.5zM424 457q0 -86 48 -137.5t130 -51.5q94 0 159.5 62.5t78.5 165.5l53 434q2 12 2 37q0 88 -49 140t-133 52q-92 0 -156.5 -63.5t-77.5 -165.5l-53 -434q-2 -12 -2 -39z" />
<glyph unicode="&#x153;" horiz-adv-x="1740" d="M78 422q0 37 8 110q16 137 64 238q70 143 198.5 224t288.5 81q90 0 167 -35.5t134 -101.5q4 -4 9 -4t9 4q162 137 336 137q164 0 275.5 -87t140.5 -224q12 -43 12 -117q0 -68 -12 -176q-2 -18 -12 -28.5t-27 -10.5h-586q-14 0 -14 -16l6 -37q25 -111 189 -111 q49 0 99 17.5t87 50.5q14 12 27 12q14 0 22 -12l109 -135q10 -14 10 -23q0 -14 -14 -28q-172 -166 -420 -166q-211 0 -326 141q-10 10 -20 0q-74 -66 -160 -103.5t-178 -37.5q-158 0 -265.5 84t-142.5 229q-14 57 -14 125zM412 449q0 -53 8 -80q12 -45 42 -70t75 -25 q43 0 78.5 26t58.5 69q33 55 45 166q6 47 6 79q0 47 -12 78q-10 43 -40 67.5t-75 24.5t-80 -24.5t-57 -67.5q-31 -55 -43 -157q-6 -49 -6 -86zM1098 639q-2 -6 1 -10t9 -4h268q14 0 15 16q0 6 -2.5 19.5t-4.5 19.5q-10 47 -41.5 75.5t-82.5 28.5q-95 0 -148 -104 q-8 -16 -14 -41z" />
<glyph unicode="&#x178;" horiz-adv-x="1261" d="M190 1403q0 14 9.5 22.5t25.5 8.5h281q31 0 39 -29l145 -502q4 -8 10.5 -8t10.5 8l272 502q14 29 45 29h283q29 0 28 -23q0 -8 -6 -20l-512 -863l-6 -18l-57 -469q-2 -16 -13.5 -26.5t-27.5 -10.5h-256q-17 0 -25 10.5t-6 26.5l57 469q2 6 -2 18l-292 863q-2 4 -3 12z M401 1659q0 82 52.5 135.5t127.5 53.5q63 0 99.5 -37t36.5 -99q0 -84 -49.5 -137t-125.5 -53q-65 0 -103 37t-38 100zM800 1659q0 82 50.5 135.5t128.5 53.5q63 0 100 -37t37 -99q0 -84 -50 -137t-128 -53q-64 0 -101 37t-37 100z" />
<glyph unicode="&#x2c6;" horiz-adv-x="684" d="M129 1188q0 12 12 26l160 195q14 23 45 23h258q29 0 41 -23l117 -195q6 -8 6 -18q0 -27 -35 -27h-178q-29 0 -39 25l-45 98q-10 14 -20 0l-70 -98q-16 -25 -45 -25h-178q-29 1 -29 19z" />
<glyph unicode="&#x2dc;" horiz-adv-x="708" d="M160 1294q0 14 4 21q37 72 92.5 109.5t116.5 37.5q35 0 60.5 -11t66.5 -38q16 -12 41 -22.5t45 -10.5q37 0 64 29q18 18 32 18q8 0 19 -6l78 -61q12 -8 12 -27q0 -18 -15 -41q-45 -63 -100 -96t-108 -33q-39 0 -69 13.5t-60 35.5q-27 18 -41.5 24.5t-30.5 6.5 q-39 0 -66 -29q-16 -18 -30 -18q-12 0 -21 8l-76 62q-14 12 -14 28z" />
<glyph unicode="&#x2000;" horiz-adv-x="991" />
<glyph unicode="&#x2001;" horiz-adv-x="1983" />
<glyph unicode="&#x2002;" horiz-adv-x="991" />
<glyph unicode="&#x2003;" horiz-adv-x="1983" />
<glyph unicode="&#x2004;" horiz-adv-x="661" />
<glyph unicode="&#x2005;" horiz-adv-x="495" />
<glyph unicode="&#x2006;" horiz-adv-x="330" />
<glyph unicode="&#x2007;" horiz-adv-x="330" />
<glyph unicode="&#x2008;" horiz-adv-x="247" />
<glyph unicode="&#x2009;" horiz-adv-x="396" />
<glyph unicode="&#x200a;" horiz-adv-x="110" />
<glyph unicode="&#x2010;" horiz-adv-x="823" d="M70 485l26 217q2 16 13.5 26.5t27.5 10.5h651q16 0 24.5 -10t6.5 -27l-26 -217q-2 -16 -13.5 -26t-27.5 -10h-652q-16 0 -24 10t-6 26z" />
<glyph unicode="&#x2011;" horiz-adv-x="823" d="M70 485l26 217q2 16 13.5 26.5t27.5 10.5h651q16 0 24.5 -10t6.5 -27l-26 -217q-2 -16 -13.5 -26t-27.5 -10h-652q-16 0 -24 10t-6 26z" />
<glyph unicode="&#x2012;" horiz-adv-x="823" d="M70 485l26 217q2 16 13.5 26.5t27.5 10.5h651q16 0 24.5 -10t6.5 -27l-26 -217q-2 -16 -13.5 -26t-27.5 -10h-652q-16 0 -24 10t-6 26z" />
<glyph unicode="&#x2013;" horiz-adv-x="964" d="M68 473l26 217q6 37 41 37h795q35 0 31 -37l-27 -217q-2 -16 -13.5 -26.5t-27.5 -10.5h-795q-16 0 -24 10.5t-6 26.5z" />
<glyph unicode="&#x2014;" horiz-adv-x="1290" d="M68 475l26 215q6 37 41 37h1118q16 0 24.5 -10t6.5 -27l-27 -215q-2 -16 -12 -26.5t-26 -10.5h-1119q-16 0 -25 10.5t-7 26.5z" />
<glyph unicode="&#x2018;" horiz-adv-x="448" d="M94 981q0 10 6 18l209 406q16 29 45 29h189q31 0 30 -25l-4 -16l-147 -404q-12 -33 -45 -33h-254q-29 0 -29 25z" />
<glyph unicode="&#x2019;" horiz-adv-x="448" d="M92 997l150 404q12 33 43 33h254q28 0 28 -23q0 -8 -6 -20l-207 -406q-16 -29 -47 -29h-188q-18 0 -25.5 11.5t-1.5 29.5z" />
<glyph unicode="&#x201a;" horiz-adv-x="1191" d="M2 -176l115 467q8 35 43 35h217q31 0 31 -25l-5 -16l-178 -469q-10 -31 -43 -31h-151q-35 0 -29 39z" />
<glyph unicode="&#x201c;" horiz-adv-x="790" d="M92 981q0 6 4 18l187 404q16 31 45 31h180q37 0 27 -41l-129 -404q-10 -33 -41 -33h-244q-29 0 -29 25zM473 981q0 10 6 18l185 404q12 31 43 31h180q29 0 28 -25q0 -10 -2 -16l-125 -404q-10 -33 -40 -33h-244q-15 0 -23 7.5t-8 17.5z" />
<glyph unicode="&#x201d;" horiz-adv-x="790" d="M90 997l125 404q10 33 43 33h244q28 0 28 -25q0 -6 -4 -18l-184 -404q-12 -31 -43 -31h-182q-37 0 -27 41zM471 997l129 404q10 33 41 33h242q14 0 22 -7.5t8 -17.5q0 -8 -6 -18l-186 -404q-12 -31 -43 -31h-180q-18 0 -25.5 11.5t-1.5 29.5z" />
<glyph unicode="&#x201e;" horiz-adv-x="835" d="M90 -172l125 404q10 33 43 33h244q28 0 28 -25q0 -6 -4 -18l-184 -404q-12 -31 -43 -31h-182q-37 0 -27 41zM471 -172l129 404q10 33 41 33h242q14 0 22 -7.5t8 -17.5q0 -8 -6 -18l-186 -404q-12 -31 -43 -31h-180q-18 0 -25.5 11.5t-1.5 29.5z" />
<glyph unicode="&#x2022;" horiz-adv-x="632" d="M78 539q0 84 43 154.5t113.5 112.5t150.5 42q100 0 165.5 -68.5t65.5 -171.5q0 -82 -42 -153.5t-111.5 -114.5t-145.5 -43q-104 0 -171.5 69.5t-67.5 172.5z" />
<glyph unicode="&#x2026;" horiz-adv-x="1728" d="M41 160q0 18 2 26q8 80 77.5 137.5t147.5 57.5q74 0 128.5 -50t54.5 -124q0 -90 -68 -154.5t-162 -64.5q-80 0 -130 49t-50 123zM659 160q0 18 2 26q8 80 77.5 137.5t147.5 57.5q74 0 128.5 -50t54.5 -124q0 -90 -68 -154.5t-162 -64.5q-80 0 -130 49t-50 123zM1280 160 q0 18 2 26q8 80 77.5 137.5t147.5 57.5q74 0 128.5 -50t54.5 -124q0 -90 -68 -154.5t-162 -64.5q-80 0 -130 49t-50 123z" />
<glyph unicode="&#x202f;" horiz-adv-x="396" />
<glyph unicode="&#x2039;" horiz-adv-x="645" d="M119 569q0 14 10 31l197 305q20 27 45 27h202q29 0 29 -21q0 -12 -8 -22l-201 -303q-4 -10 -2 -21l125 -303q4 -12 4 -18q0 -10 -9 -17.5t-26 -7.5h-202q-25 0 -39 27l-121 305q-4 12 -4 18z" />
<glyph unicode="&#x203a;" horiz-adv-x="647" d="M104 240q0 12 9 22l200 303q8 10 2 21l-125 303q-4 12 -4 16q0 12 9.5 19.5t25.5 7.5h203q27 0 39 -27l121 -305q4 -12 4 -18q0 -14 -10 -31l-197 -305q-16 -27 -45 -27h-201q-14 0 -22.5 6t-8.5 15z" />
<glyph unicode="&#x205f;" horiz-adv-x="495" />
<glyph unicode="&#x20ac;" horiz-adv-x="1259" d="M102 551l15 100q2 16 12 26.5t27 10.5h110q4 0 9.5 4t5.5 10l4 33v4q0 10 -13 11h-108q-16 0 -24.5 10t-6.5 26l12 101q2 16 12.5 26.5t26.5 10.5h111q14 0 14 14l6 43q16 141 89 247.5t189 164t259 57.5q193 0 306.5 -94t121.5 -258v-4q0 -16 -10 -25.5t-25 -11.5 l-266 -33h-4q-27 0 -31 31q-8 49 -42 76.5t-87 27.5q-66 0 -113 -46t-57 -124l-6 -51q0 -14 12 -14h350q14 0 22.5 -5.5t8.5 -15.5q0 -8 -6 -20l-43 -103q-10 -31 -43 -30h-309q-12 0 -17 -15l-4 -33q0 -14 13 -14h282q29 0 29 -22q0 -6 -4 -19l-43 -102q-10 -31 -43 -31 h-242q-12 0 -16 -14l-6 -58q-2 -10 -2 -28q0 -63 34.5 -101.5t94.5 -38.5q55 0 97 31t60 84q12 37 45 31l252 -47q33 -6 25 -43q-53 -160 -189.5 -253t-324.5 -93q-199 0 -312.5 107.5t-113.5 291.5q0 25 4 74l6 43v4q0 10 -12 10h-109q-16 0 -25.5 10.5t-7.5 26.5z" />
<glyph unicode="&#x2122;" horiz-adv-x="1339" d="M143 1315l11 82q2 16 13 26.5t28 10.5h493q16 0 24.5 -10.5t6.5 -26.5l-8 -82q-6 -37 -41 -37h-150q-12 0 -16 -14l-62 -512q-6 -37 -41 -37h-102q-16 0 -25.5 10t-7.5 27l64 512v4q0 10 -13 10h-143q-16 0 -24.5 10t-6.5 27zM725 752l78 645q6 37 41 37h106q29 0 41 -23 l92 -156q10 -14 21 0l135 156q18 23 45 23h107q16 0 24 -10.5t6 -26.5l-80 -645q-2 -16 -12 -26.5t-26 -10.5h-105q-16 0 -24.5 10t-6.5 27l47 378q0 10 -5 12.5t-13 -5.5l-74 -90q-18 -23 -47 -23h-20q-29 0 -41 23l-49 90q-4 8 -11.5 6t-7.5 -13l-47 -378 q-2 -16 -13.5 -26.5t-27.5 -10.5h-102q-16 0 -24.5 10t-6.5 27z" />
<glyph unicode="&#x25fc;" horiz-adv-x="1054" d="M0 0v1055h1055v-1055h-1055z" />
</font>
</defs>
</svg>
