<?xml version="1.0" standalone="no"?>
<!DOCTYPE svg PUBLIC "-//W3C//DTD SVG 1.1//EN" "http://www.w3.org/Graphics/SVG/1.1/DTD/svg11.dtd">
<svg xmlns="http://www.w3.org/2000/svg">
<metadata>Copyright (C) 2020 by original authors @ fontello.com</metadata>
<defs>
<font id="acro" horiz-adv-x="1000" >
<font-face font-family="acro" font-weight="400" font-stretch="normal" units-per-em="1000" ascent="850" descent="-150" />
<missing-glyph horiz-adv-x="1000" />
<glyph glyph-name="twitter" unicode="&#x61;" d="M894 534c0-8 1-16 1-24 0-244-204-526-578-526-115 0-221 31-311 83 16-2 32-3 48-3 95 0 183 30 252 79-89 1-164 55-190 128 12-2 25-3 38-3 19 0 36 2 54 6-93 17-163 92-163 181v2c27-14 59-22 92-23-54 33-90 90-90 154 0 34 10 66 28 93 100-112 250-185 419-193-3 14-5 28-5 42 0 102 91 185 203 185 58 0 111-22 148-58 46 8 90 24 129 45-15-43-47-79-89-102 41 4 80 14 117 29-29-37-64-69-103-95" horiz-adv-x="1000" />

<glyph glyph-name="caret-down" unicode="&#x62;" d="M977 574l-35 32c-24 22-63 22-87 0l-355-326-355 326c-24 22-63 22-87 0l-35-32c-12-11-19-26-19-41 0-16 7-30 19-41l433-397c12-11 28-16 43-16 16 0 31 5 43 16l433 397c12 11 18 26 18 41s-5 30-16 41z" horiz-adv-x="1000" />

<glyph glyph-name="caret-down-thin" unicode="&#x63;" d="M13 531l446-432c23-22 59-22 82 0l446 432c11 11 11 29 0 40l-41 40c-11 11-30 11-41 0l-385-374c-11-11-30-11-41 0l-384 373c-11 11-30 11-41 0l-41-40c-11-11-11-28 0-39" horiz-adv-x="1000" />

<glyph glyph-name="caret-left" unicode="&#x64;" d="M724-127l32 35c22 24 22 63 0 87l-326 355 325 355c22 24 22 63 0 87l-32 35c-11 12-26 19-41 19-16 0-30-7-41-19l-397-434c-11-12-16-28-16-43 0-16 5-31 16-43l397-433c11-12 26-18 41-18 16-1 31 6 42 17z" horiz-adv-x="1000" />

<glyph glyph-name="caret-left-thin" unicode="&#x65;" d="M681 837l-433-446c-22-23-22-59 0-82l432-446c11-11 29-11 40 0l40 41c11 11 11 30 0 41l-373 385c-11 11-11 30 0 41l373 384c11 11 11 30 0 41l-40 41c-11 11-28 11-39 0" horiz-adv-x="1000" />

<glyph glyph-name="caret-right" unicode="&#x66;" d="M276 827l-32-35c-22-24-22-63 0-87l326-355-326-355c-22-24-22-63 0-87l32-35c11-12 26-19 41-19 16 0 30 7 41 19l397 433c11 12 16 28 16 43 0 16-5 31-16 43l-396 435c-11 12-26 18-41 18-16 0-31-7-42-18z" horiz-adv-x="1000" />

<glyph glyph-name="caret-right-thin" unicode="&#x67;" d="M319-137l432 446c22 23 22 59 0 82l-432 446c-11 11-29 11-40 0l-40-41c-11-11-11-30 0-41l374-385c11-11 11-30 0-41l-373-384c-11-11-11-30 0-41l40-41c11-11 28-11 39 0" horiz-adv-x="1000" />

<glyph glyph-name="caret-top-thin" unicode="&#x68;" d="M987 169l-446 433c-23 22-59 22-82 0l-446-433c-11-11-11-29 0-40l41-40c11-11 30-11 41 0l385 374c11 11 30 11 41 0l384-373c11-11 30-11 41 0l41 40c11 11 11 28 0 39" horiz-adv-x="1000" />

<glyph glyph-name="caret-up" unicode="&#x69;" d="M23 126l35-32c24-22 63-22 87 0l355 326 355-325c24-22 63-22 87 0l35 32c12 11 19 26 19 41 0 16-7 30-19 41l-434 397c-12 11-28 16-43 16-16 0-31-5-43-16l-434-397c-12-11-18-26-18-41 0-16 7-31 18-42z" horiz-adv-x="1000" />

<glyph glyph-name="close" unicode="&#x6a;" d="M618 350l353 353c32 32 32 85 0 118-32 32-85 32-118 0l-353-353-353 353c-32 32-85 32-118 0-32-32-32-85 0-118l353-353-353-353c-32-32-32-85 0-118s85-32 118 0l353 353 353-353c32-32 85-32 118 0 32 32 32 85 0 118l-353 353z" horiz-adv-x="1000" />

<glyph glyph-name="facebook" unicode="&#x6b;" d="M747 521l-19-171h-146v-495h-220v495h-110v171h110v102c0 139 62 222 238 222h146v-171h-92c-68 0-73-24-73-68l0-85h166z" horiz-adv-x="1000" />

<glyph glyph-name="google" unicode="&#x6c;" d="M886 406v110h-78v-110h-112v-78h112v-113h78v113h109v78h-109z m-567 7v-125c0 0 121 0 170 0-27-81-68-126-170-126-103 0-184 84-184 188 0 104 81 188 184 188 55 0 90-19 122-46 26 26 24 30 89 92-56 51-130 82-212 82-172 1-313-141-313-316 0-175 141-317 314-317 260 0 323 228 302 380h-302z" horiz-adv-x="1000" />

<glyph glyph-name="img-placeholder" unicode="&#x6d;" d="M961 193l-261 267c-6 7-17 7-24 0 0 0 0 0 0 0l-228-233c-7-7-7-18 0-24 6-7 17-7 24 0 0 0 0 0 0 0l216 220 264-270c2-2 6-4 9-5v-110h-400l-330 334c-6 7-17 7-24 0 0 0 0 0 0 0l-168-170v459h922l0-468 0 0z m-922-154v116l180 182 294-298h-474z m376 325c52-1 94 40 95 92s-40 94-92 95-94-40-95-92c0-1 0-1 0-2 0-50 41-92 92-93z m0 153c33 1 59-25 60-58 1-33-25-59-58-60-33-1-59 25-60 58 0 0 0 1 0 1 0 32 26 58 58 59l0 0z m563 178h-956c-9 0-17-8-17-17v-656c0-9 8-17 17-17h956c9 0 17 8 17 17v656c0 9-7 17-17 17l0 0z" horiz-adv-x="1000" />

<glyph glyph-name="linkedin" unicode="&#x6e;" d="M995 243v-366h-212v341c0 86-31 144-107 144-59 0-94-39-109-78-6-14-7-33-7-52v-356h-213c0 0 3 578 0 638h212v-90c0-1-1-1-1-2h1v2c29 44 79 106 192 106 139 0 244-91 244-287z m-870 580c-73 0-120-48-120-110 0-61 46-110 117-110h1c74 0 120 49 120 110-1 62-45 110-118 110z m-107-946h212v638h-212v-638z" horiz-adv-x="1000" />

<glyph glyph-name="instagram" unicode="&#x6f;" d="M571 350q0 59-41 101t-101 42-101-42-42-101 42-101 101-42 101 42 41 101z m77 0q0-91-64-156t-155-64-156 64-64 156 64 156 156 64 155-64 64-156z m61 229q0-21-15-36t-37-15-36 15-15 36 15 36 36 15 37-15 15-36z m-280 123q-4 0-43 0t-59 0-54-2-57-5-40-11q-28-11-49-32t-33-49q-6-16-10-40t-6-58-1-53 0-59 0-43 0-43 0-59 1-53 6-58 10-40q12-28 33-49t49-32q16-6 40-11t57-5 54-2 59 0 43 0 42 0 59 0 54 2 58 5 39 11q28 11 50 32t32 49q6 16 10 40t6 58 1 53 0 59 0 43 0 43 0 59-1 53-6 58-10 40q-11 28-32 49t-50 32q-16 6-39 11t-58 5-54 2-59 0-42 0z m428-352q0-128-3-177-5-116-69-180t-179-69q-50-3-177-3t-177 3q-116 6-180 69t-69 180q-3 49-3 177t3 177q5 116 69 180t180 69q49 3 177 3t177-3q116-6 179-69t69-180q3-49 3-177z" horiz-adv-x="857.1" />

<glyph glyph-name="pinterest-circled" unicode="&#x70;" d="M857 350q0-117-57-215t-156-156-215-58q-62 0-122 18 33 52 43 92 6 19 31 118 11-22 40-38t64-16q68 0 121 38t82 105 29 151q0 64-34 120t-96 90-142 36q-59 0-110-17t-86-43-61-61-37-72-12-75q0-58 22-102t66-62q16-7 21 11 1 4 4 17t5 17q3 13-6 24-29 34-29 84 0 84 58 145t153 61q84 0 132-46t47-119q0-95-39-161t-98-67q-34 0-54 25t-13 58q4 19 15 52t17 57 6 43q0 28-15 46t-43 18q-35 0-59-31t-24-80q0-40 14-68l-55-233q-9-39-7-99-115 51-186 157t-71 236q0 117 58 215t155 156 216 58 215-58 156-156 57-215z" horiz-adv-x="857.1" />

<glyph glyph-name="youtube-play" unicode="&#x71;" d="M397 221l270 139-270 141v-280z m103 481q94 0 181-3t128-5l41-2q0 0 9-1t13-2 13-2 16-5 16-7 17-11 16-15q4-3 9-10t16-33 15-56q4-36 7-76t3-64v-98q1-81-10-162-4-30-14-55t-18-35l-8-9q-7-8-16-15t-17-10-16-7-16-5-13-2-13-2-9-1q-140-11-350-11-115 2-201 4t-111 4l-28 3-20 2q-20 3-30 5t-29 12-31 23q-4 3-9 10t-16 33-15 56q-4 36-7 76t-3 64v98q-1 81 10 162 4 31 14 55t18 35l8 9q8 9 16 15t17 11 16 7 16 5 13 2 13 2 9 1q140 10 350 10z" horiz-adv-x="1000" />

<glyph glyph-name="search" unicode="&#x72;" d="M987-53l-256 256c-10 10-11 24-3 36 105 160 81 380-74 511-149 126-376 122-520-10-167-151-171-408-14-565 134-133 342-150 495-49 11 8 26 7 36-3l256-255c11-11 29-11 40 0l40 40c11 10 11 28 0 39l0 0z m-787 308c-109 108-109 285 0 393 109 109 287 109 396 0 109-109 109-285 0-394-109-108-287-108-396 1l0 0z" horiz-adv-x="1000" />

<glyph glyph-name="link" unicode="&#x73;" d="M294 116q14 14 34 14t36-14q32-34 0-70l-42-40q-56-56-132-56-78 0-134 56t-56 132q0 78 56 134l148 148q70 68 144 77t128-43q16-16 16-36t-16-36q-36-32-70 0-50 48-132-34l-148-146q-26-26-26-64t26-62q26-26 63-26t63 26z m450 574q56-56 56-132 0-78-56-134l-158-158q-74-72-150-72-62 0-112 50-14 14-14 34t14 36q14 14 35 14t35-14q50-48 122 24l158 156q28 28 28 64 0 38-28 62-24 26-56 31t-60-21l-50-50q-16-14-36-14t-34 14q-34 34 0 70l50 50q54 54 127 51t129-61z" horiz-adv-x="800" />

<glyph glyph-name="shopping-cart" unicode="&#x74;" d="M461-74c0-39-32-71-71-71s-71 32-71 71c0 40 32 71 71 71s71-31 71-71z m369 71c-39 0-71-31-71-71 0-39 32-71 71-71s71 32 71 71c0 40-32 71-71 71z m164 614c-5 6-12 9-19 9l-758 1-50 204c-3 12-13 20-25 20h-117c-14 0-25-12-25-26s11-25 25-25h97l145-588 22-103c9-41 46-71 88-71h490c14 0 26 11 26 25s-12 25-26 25h-490c-18 0-34 14-38 32l-16 72h581c13 0 23 9 25 21l71 383c1 8-1 15-6 21z" horiz-adv-x="1000" />

<glyph glyph-name="edit" unicode="&#x75;" d="M126-26h156l461 461-156 156-461-461v-156z m750 611a40 40 0 0 1-12 30l-97 97a43 43 0 0 1-59 0l-76-76 156-156 76 76a40 40 0 0 1 12 29z" horiz-adv-x="1000" />

<glyph glyph-name="check" unicode="&#x76;" d="M112 365l-74-74 293-293 631 630-71 74-560-559z" horiz-adv-x="1000" />

<glyph glyph-name="star-empty" unicode="&#x77;" d="M635 290l170 166-235 34-106 213-105-213-236-34 171-166-41-235 211 111 211-111z m294 199q0-12-15-27l-202-197 48-279q0-4 0-12 0-28-23-28-10 0-22 7l-251 132-250-132q-12-7-23-7-11 0-17 9t-6 19q0 4 1 12l48 279-203 197q-14 15-14 27 0 21 31 26l280 40 126 254q11 23 27 23t28-23l125-254 280-40q32-5 32-26z" horiz-adv-x="928.6" />

<glyph glyph-name="star" unicode="&#x78;" d="M929 489q0-12-15-27l-202-197 48-279q0-4 0-12 0-11-6-19t-17-9q-10 0-22 7l-251 132-250-132q-12-7-23-7-11 0-17 9t-6 19q0 4 1 12l48 279-203 197q-14 15-14 27 0 21 31 26l280 40 126 254q11 23 27 23t28-23l125-254 280-40q32-5 32-26z" horiz-adv-x="928.6" />

<glyph glyph-name="eye" unicode="&#x79;" d="M0 350q0 30 15 67t44 77 70 78 92 68 115 49 133 18 132-18 115-49 92-68 70-78 44-77 15-67q0-30-15-67t-44-77-70-78-92-68-115-48-132-19-133 19-115 48-92 68-70 78-44 77-15 67z m234 0q0-64 32-117t85-85 118-32 117 32 85 85 32 117-32 117-85 86-117 31-118-31-85-86-32-117z m136 0q0-41 29-70t70-28 69 28 29 70q0 41-29 70t-69 29-70-29-29-70z" horiz-adv-x="937.5" />

<glyph glyph-name="left-open-big" unicode="&#x7a;" d="M452-20q26-26 0-48-26-26-48 0l-392 394q-24 24 0 50l392 394q22 26 48 0 26-22 0-48l-358-372z" horiz-adv-x="465" />

<glyph glyph-name="right-open-big" unicode="&#x7e;" d="M13-20l358 370-358 372q-26 26 0 48 26 26 48 0l392-394q24-26 0-50l-392-394q-22-26-48 0-26 22 0 48z" horiz-adv-x="465" />
</font>
</defs>
</svg>
