<?xml version="1.0" standalone="no"?>
<!DOCTYPE svg PUBLIC "-//W3C//DTD SVG 1.1//EN" "http://www.w3.org/Graphics/SVG/1.1/DTD/svg11.dtd" >
<svg xmlns="http://www.w3.org/2000/svg" xmlns:xlink="http://www.w3.org/1999/xlink" version="1.1">
<metadata>
Created by FontForge 20150824 at Thu Oct  6 22:37:46 2016
 By Everything Fonts
Copyright (c) 2011 by Jos Buivenga. All rights reserved.
</metadata>
<defs>
<font id="museosanscnd700webfont" horiz-adv-x="1001" >
  <font-face 
    font-family="museosanscnd700webfont"
    font-weight="600"
    font-stretch="condensed"
    units-per-em="2048"
    panose-1="2 0 0 0 0 0 0 0 0 0"
    ascent="1536"
    descent="-512"
    x-height="1044"
    cap-height="1454"
    bbox="-78 -440 1675 1849"
    underline-thickness="102"
    underline-position="-306"
    unicode-range="U+000D-FB04"
  />
<missing-glyph horiz-adv-x="748" 
d="M68 0v1365h544v-1365h-544zM136 68h408v1229h-408v-1229z" />
    <glyph glyph-name="uniFB01" unicode="fi" horiz-adv-x="1060" 
d="M53 844v200h99v31q0 98 26 171.5t63 113t88.5 64t92 31.5t82.5 7q51 0 80 -4v-209q-16 4 -43 4q-24 0 -45.5 -6.5t-45.5 -24t-38.5 -57t-14.5 -96.5v-25h557v-1044h-245v844h-312v-844h-245v844h-99zM709 1221v233h245v-233h-245z" />
    <glyph glyph-name="uniFB02" unicode="fl" horiz-adv-x="1112" 
d="M55 829v201h99v45q0 82 17 146.5t47.5 105t65.5 69t78 42t77 19t69 5.5q51 0 80 -4v-217q-28 4 -41 4q-146 0 -146 -176v-39h158v-201h-158v-829h-247v829h-99zM711 326v1128h245v-1092q0 -86 16.5 -115.5t61.5 -29.5q21 0 33 2v-223q-27 -6 -76 -6q-37 0 -67 4.5
t-63.5 16.5t-59 36t-46.5 59.5t-32.5 91.5t-11.5 128z" />
    <glyph glyph-name="uniFB03" unicode="ffi" horiz-adv-x="1679" 
d="M53 844v200h99v31q0 98 26 171.5t63 113t88.5 64t92 31.5t82.5 7q51 0 80 -4v-209q-16 4 -43 4q-24 0 -45.5 -6.5t-45.5 -24t-38.5 -57t-14.5 -96.5v-25h365v31q0 98 26 171.5t63 113t88.5 64t92 31.5t82.5 7q51 0 80 -4v-209q-16 4 -41 4q-19 0 -36.5 -3.5t-38 -15
t-35.5 -30.5t-25 -54t-10 -81v-25h563v-1044h-244v844h-319v-844h-246v844h-365v-844h-245v844h-99zM1325 1221v233h246v-233h-246z" />
    <glyph glyph-name="uniFB04" unicode="ffl" horiz-adv-x="1718" 
d="M53 844v200h99v31q0 98 26 171.5t63 113t88.5 64t92 31.5t82.5 7q51 0 80 -4v-209q-16 4 -43 4q-24 0 -45.5 -6.5t-45.5 -24t-38.5 -57t-14.5 -96.5v-25h365v31q0 98 26 171.5t63 113t88.5 64t92 31.5t82.5 7q51 0 80 -4v-209q-16 4 -41 4q-19 0 -36.5 -3.5t-38 -15
t-35.5 -30.5t-25 -54t-10 -81v-25h159v-200h-159v-844h-246v844h-365v-844h-245v844h-99zM1321 326v1128h246v-1092q0 -86 16 -115.5t59 -29.5q21 0 33 2v-223q-27 -6 -76 -6q-44 0 -79 6t-74 27t-65 56t-43 98t-17 149z" />
    <glyph glyph-name=".notdef" horiz-adv-x="748" 
d="M68 0v1365h544v-1365h-544zM136 68h408v1229h-408v-1229z" />
    <glyph glyph-name="glyph1" horiz-adv-x="2048" 
 />
    <glyph glyph-name="glyph1" horiz-adv-x="2048" 
 />
    <glyph glyph-name="uni000D" unicode="&#xd;" horiz-adv-x="2048" 
 />
    <glyph glyph-name="space" unicode=" " horiz-adv-x="405" 
 />
    <glyph glyph-name="exclam" unicode="!" horiz-adv-x="499" 
d="M123 1454h256l-23 -1034h-211zM137 0v242h225v-242h-225z" />
    <glyph glyph-name="quotedbl" unicode="&#x22;" horiz-adv-x="679" 
d="M111 1051v430h176v-430h-176zM393 1051v430h176v-430h-176z" />
    <glyph glyph-name="numbersign" unicode="#" horiz-adv-x="1140" 
d="M66 383l26 182h170l39 297h-168l29 182h164l57 410h186l-57 -410h201l57 410h186l-57 -410h176l-26 -182h-175l-38 -297h170l-27 -182h-172l-49 -383h-187l52 383h-203l-51 -383h-185l52 383h-170zM446 565h203l39 297h-201z" />
    <glyph glyph-name="dollar" unicode="$" horiz-adv-x="935" 
d="M59 139l117 203q49 -48 121.5 -79.5t140.5 -31.5q84 0 131 44.5t47 119.5q0 53 -29 97t-75 76.5t-102 65t-112 70.5t-102 83t-75 113t-29 151q0 145 81 249.5t226 137.5v225h158v-215q164 -7 293 -90l-94 -211q-40 29 -111 52.5t-125 23.5q-82 0 -128 -45.5t-46 -116.5
q0 -52 29 -95.5t75.5 -76t102.5 -64.5t112 -70t102.5 -83t75.5 -113t29 -151q0 -148 -82 -256.5t-233 -139.5v-219h-158v211q-201 16 -340 135z" />
    <glyph glyph-name="percent" unicode="%" horiz-adv-x="1351" 
d="M72 1153q0 137 75.5 231.5t196.5 94.5q122 0 199.5 -94.5t77.5 -231.5q0 -136 -77.5 -229t-199.5 -93t-197 92.5t-75 229.5zM125 0l887 1454h209l-887 -1454h-209zM254 1155q0 -143 90 -143q48 0 71 39t23 104q0 63 -23 102t-71 39q-47 0 -68.5 -38.5t-21.5 -102.5z
M733 299q0 136 76 230t199 94q122 0 198 -94t76 -230q0 -138 -76 -231t-198 -93q-123 0 -199 93t-76 231zM918 299q0 -141 90 -141q47 0 69.5 38.5t22.5 102.5q0 63 -22.5 103t-69.5 40t-68.5 -39.5t-21.5 -103.5z" />
    <glyph glyph-name="ampersand" unicode="&#x26;" horiz-adv-x="1105" 
d="M80 410q0 132 55 223t152 139v8q-79 46 -119.5 130.5t-40.5 189.5q0 77 21.5 141t58 107.5t85.5 73.5t103 43.5t111 13.5q90 0 164 -27l-58 -205q-30 15 -77 15q-72 0 -114 -54.5t-42 -138.5q0 -85 43.5 -143t114.5 -58h133v183h243v-183h142v-223h-142v-211
q0 -214 -116.5 -336.5t-300.5 -122.5q-187 0 -301.5 121t-114.5 314zM336 422q0 -97 41.5 -154t118.5 -57q76 0 125 61.5t49 196.5v176h-148q-80 0 -133 -55t-53 -168z" />
    <glyph glyph-name="quotesingle" unicode="'" horiz-adv-x="401" 
d="M111 1051v430h180v-430h-180z" />
    <glyph glyph-name="parenleft" unicode="(" horiz-adv-x="528" 
d="M78 702q0 432 192 816h203q-178 -383 -178 -816q0 -466 178 -897h-203q-192 394 -192 897z" />
    <glyph glyph-name="parenright" unicode=")" horiz-adv-x="528" 
d="M55 -195q178 423 178 897q0 433 -178 816h203q195 -390 195 -816q0 -497 -195 -897h-203z" />
    <glyph glyph-name="asterisk" unicode="*" horiz-adv-x="858" 
d="M74 1065l82 221l180 -98l-17 266h218l-17 -266l180 98l84 -219l-209 -66v-4l152 -221l-182 -119l-115 224h-4l-113 -224l-184 119l152 221v4z" />
    <glyph glyph-name="plus" unicode="+" 
d="M74 483v203h329v485h195v-485h330v-203h-330v-483h-195v483h-329z" />
    <glyph glyph-name="comma" unicode="," horiz-adv-x="485" 
d="M37 -215l113 481h235l-166 -481h-182z" />
    <glyph glyph-name="hyphen" unicode="-" horiz-adv-x="698" 
d="M106 471v229h486v-229h-486z" />
    <glyph glyph-name="period" unicode="." horiz-adv-x="446" 
d="M106 0v260h234v-260h-234z" />
    <glyph glyph-name="slash" unicode="/" horiz-adv-x="718" 
d="M55 -86l404 1616h207l-406 -1616h-205z" />
    <glyph glyph-name="zero" unicode="0" horiz-adv-x="1034" 
d="M92 729q0 132 11.5 239t41 205t76.5 163.5t122.5 104t174.5 38.5q83 0 148.5 -26t111 -76t78 -115.5t50.5 -152.5t26 -178.5t8 -201.5q0 -133 -11 -240t-40.5 -205.5t-76 -164.5t-121 -105t-173.5 -39t-174.5 39t-122.5 105t-76.5 164.5t-41 205.5t-11.5 240zM348 729
q0 -120 6.5 -205t24 -160t52 -113t87.5 -38q42 0 72.5 26.5t48.5 70.5t29 112.5t14.5 140t3.5 166.5q0 94 -3.5 164.5t-14.5 139t-29 112t-48.5 70t-72.5 26.5q-53 0 -87.5 -38t-52 -112.5t-24 -158.5t-6.5 -203z" />
    <glyph glyph-name="one" unicode="1" horiz-adv-x="862" 
d="M68 1094l297 360h215v-1239h239v-215h-725v215h242v817l4 92h-4q-12 -32 -47 -75l-76 -97z" />
    <glyph glyph-name="two" unicode="2" horiz-adv-x="962" 
d="M70 1276q58 88 164 145.5t225 57.5q170 0 284.5 -109t114.5 -301q0 -89 -26.5 -169.5t-69.5 -141.5t-95.5 -116.5t-105 -105.5t-96.5 -98t-73 -103.5t-32 -113.5h514v-221h-765q-13 76 -13 135q0 100 27.5 187t72 149.5t98 118.5t107 106t98 100.5t72 113t27.5 132.5
q0 93 -47 144t-127 51q-57 0 -105 -26.5t-79 -73.5z" />
    <glyph glyph-name="three" unicode="3" horiz-adv-x="929" 
d="M61 106l115 199q88 -88 205 -88q93 0 154 59.5t61 172.5q0 108 -69 163.5t-203 55.5h-93l-51 145l264 334q21 24 41 45.5t29 31.5l10 9v4q-36 -4 -102 -4h-309v221h700v-199l-317 -389q165 -25 261.5 -134t96.5 -286q0 -95 -29 -179.5t-84 -150t-141.5 -103.5t-193.5 -38
q-211 0 -345 131z" />
    <glyph glyph-name="four" unicode="4" horiz-adv-x="1003" 
d="M49 352v178l443 924h311v-872h139v-230h-139v-352h-244v352h-510zM289 582h270v460l4 132h-4q-12 -56 -37 -113l-233 -475v-4z" />
    <glyph glyph-name="five" unicode="5" horiz-adv-x="935" 
d="M68 104l114 201q98 -88 213 -88q103 0 159 74t56 186q0 114 -63 180t-162 66q-60 0 -131 -31l-137 60l51 702h616v-221h-399l-18 -236l-7 -65h5q35 12 92 12q73 0 145 -30.5t132.5 -87.5t98 -149t37.5 -204q0 -214 -127.5 -356t-324.5 -142q-200 0 -350 129z" />
    <glyph glyph-name="six" unicode="6" 
d="M84 664q0 121 18 234t59.5 220t103.5 186t156.5 127t211.5 48q131 0 229 -52l-65 -221q-72 37 -158 37q-240 0 -281 -379h2q30 35 84.5 56.5t118.5 21.5q111 0 197 -64.5t132 -173t46 -241.5q0 -136 -46.5 -246t-138 -176t-212.5 -66q-201 0 -329 182.5t-128 506.5z
M340 549q0 -57 13 -114.5t37.5 -108.5t65.5 -83t91 -32q70 0 104.5 67t34.5 171q0 54 -10 101t-31.5 88t-61 65t-94.5 24q-70 0 -109.5 -46.5t-39.5 -131.5z" />
    <glyph glyph-name="seven" unicode="7" horiz-adv-x="890" 
d="M63 1233v221h795v-186l-487 -1268h-258l428 1092l61 141v4q-27 -4 -72 -4h-467z" />
    <glyph glyph-name="eight" unicode="8" horiz-adv-x="1009" 
d="M78 377q0 76 24 146.5t62.5 121.5t66 79t54.5 50q-164 139 -164 330q0 75 23 141t68 119t120.5 84t173.5 31q190 0 290.5 -101.5t100.5 -257.5q0 -186 -158 -383q187 -138 187 -348q0 -113 -47 -205.5t-146.5 -150.5t-236.5 -58q-103 0 -184 32.5t-131.5 89t-76.5 128
t-26 152.5zM332 410q0 -92 44 -149.5t128 -57.5q80 0 124 51t44 131q0 51 -17 92.5t-50.5 73t-63 52.5t-74.5 47l-21 12q-114 -107 -114 -252zM367 1104q0 -51 16 -92.5t48.5 -74t60 -52t71.5 -45.5q90 112 90 239q0 81 -38 126.5t-113 45.5q-135 0 -135 -147z" />
    <glyph glyph-name="nine" unicode="9" horiz-adv-x="1003" 
d="M70 985q0 215 108.5 354.5t294.5 139.5q90 0 170 -47t141.5 -133.5t97.5 -219.5t36 -293q0 -121 -19.5 -234.5t-63 -219.5t-107 -184.5t-159.5 -125.5t-213 -47q-128 0 -231 50l72 223q64 -37 155 -37q59 0 106.5 22t79 58t54 86.5t35 102t18.5 110.5h-2
q-32 -35 -86.5 -56.5t-118.5 -21.5q-115 0 -200 65t-126.5 171t-41.5 237zM322 1006q0 -54 9.5 -101t30 -88.5t59 -65.5t91.5 -24q70 0 110 46.5t40 131.5q0 76 -21.5 151t-69 131t-110.5 56q-67 0 -103 -67t-36 -170z" />
    <glyph glyph-name="colon" unicode=":" horiz-adv-x="446" 
d="M106 0v262h236v-262h-236zM106 782v262h236v-262h-236z" />
    <glyph glyph-name="semicolon" unicode=";" horiz-adv-x="509" 
d="M57 -215l99 481h237l-151 -481h-185zM162 782v262h229v-262h-229z" />
    <glyph glyph-name="less" unicode="&#x3c;" 
d="M88 508v156l780 444v-227l-530 -293v-4l530 -293v-228z" />
    <glyph glyph-name="equal" unicode="=" 
d="M106 272v203h789v-203h-789zM106 694v203h789v-203h-789z" />
    <glyph glyph-name="greater" unicode="&#x3e;" 
d="M131 63v228l531 293v4l-531 293v227l780 -444v-156z" />
    <glyph glyph-name="question" unicode="?" horiz-adv-x="813" 
d="M59 1382q54 43 136.5 72t166.5 29q167 0 275 -109t108 -295q0 -76 -20.5 -140.5t-51 -106t-66.5 -84.5t-66.5 -78t-51 -84t-20.5 -105v-61h-236v78q0 73 19 134.5t47 101t61 79.5t61 72t47 77.5t19 96.5q0 89 -46 139.5t-119 50.5q-94 0 -150 -53zM238 0v242h227v-242
h-227z" />
    <glyph glyph-name="at" unicode="@" horiz-adv-x="1331" 
d="M86 502q0 161 44.5 299.5t125.5 239t200.5 157.5t262.5 57q208 0 320 -117t112 -313v-534h117v-180h-434q-85 0 -150.5 31.5t-103.5 85.5t-57 120.5t-19 143.5q0 76 18.5 141t56 118.5t103 84t152.5 30.5h88q1 91 -56 136t-141 45q-129 0 -220.5 -74.5t-135 -195.5
t-43.5 -275q0 -160 47.5 -287t141.5 -202.5t220 -75.5v-197q-147 0 -269.5 58t-205 159.5t-128.5 241.5t-46 303zM711 498q0 -89 33.5 -144t103.5 -55h74v399h-70q-72 0 -106.5 -55.5t-34.5 -144.5z" />
    <glyph glyph-name="A" unicode="A" horiz-adv-x="1054" 
d="M10 0l381 1454h271l382 -1454h-249l-90 375h-357l-88 -375h-250zM389 584h277l-93 391q-9 37 -19.5 93.5t-17.5 93.5l-6 38h-6q-23 -141 -41 -225z" />
    <glyph glyph-name="B" unicode="B" horiz-adv-x="1036" 
d="M131 0v1454h393q178 0 289 -99t111 -276q0 -103 -45 -185.5t-125 -125.5v-4q108 -34 162.5 -127t54.5 -217q0 -210 -119 -315t-320 -105h-401zM381 221h147q94 0 140.5 58.5t46.5 154.5q0 98 -43 157.5t-115 59.5h-176v-430zM381 858h154q61 0 98 54t37 137t-41 133.5
t-113 50.5h-135v-375z" />
    <glyph glyph-name="C" unicode="C" horiz-adv-x="1114" 
d="M70 729q0 218 74.5 386.5t220.5 266t342 97.5q99 0 192.5 -30.5t161.5 -90.5l-105 -215q-37 42 -106 71t-135 29q-122 0 -211.5 -68.5t-133.5 -181t-44 -254.5q0 -144 45.5 -263t134.5 -192t205 -73q137 0 270 106l102 -211q-159 -131 -391 -131q-192 0 -334.5 99
t-215 269t-72.5 386z" />
    <glyph glyph-name="D" unicode="D" horiz-adv-x="1191" 
d="M131 0v1454h404q271 0 428 -192t157 -533q0 -342 -157.5 -535.5t-427.5 -193.5h-404zM381 223h143q161 0 249.5 130.5t88.5 375.5q0 243 -89.5 372.5t-248.5 129.5h-143v-1008z" />
    <glyph glyph-name="E" unicode="E" horiz-adv-x="905" 
d="M131 0v1454h692v-221h-442v-389h356v-221h-356v-402h467v-221h-717z" />
    <glyph glyph-name="F" unicode="F" horiz-adv-x="847" 
d="M131 0v1454h674v-221h-424v-420h354v-221h-354v-592h-250z" />
    <glyph glyph-name="G" unicode="G" horiz-adv-x="1226" 
d="M70 723q0 225 77 396.5t220 265.5t331 94q103 0 206.5 -33.5t178.5 -93.5l-106 -211q-51 47 -121.5 74.5t-146.5 27.5q-182 0 -282.5 -141t-100.5 -371q0 -232 102 -374t260 -142q70 0 132 26t102 76v230h-164v221h385v-768h-197v53l4 56h-4q-45 -60 -127.5 -97
t-177.5 -37q-111 0 -213.5 51.5t-182.5 145t-127.5 237t-47.5 314.5z" />
    <glyph glyph-name="H" unicode="H" horiz-adv-x="1208" 
d="M131 0v1454h250v-618h448v618h248v-1454h-248v614h-448v-614h-250z" />
    <glyph glyph-name="I" unicode="I" horiz-adv-x="512" 
d="M131 0v1454h250v-1454h-250z" />
    <glyph glyph-name="J" unicode="J" horiz-adv-x="899" 
d="M35 426v90h250v-92q0 -68 10.5 -113.5t29.5 -67t38.5 -29t44.5 -7.5q59 0 89.5 46.5t30.5 170.5v809h-274v221h522v-1028q0 -120 -31 -210t-84 -141t-117 -75.5t-138 -24.5t-138 25t-117.5 76.5t-84.5 141.5t-31 208z" />
    <glyph glyph-name="K" unicode="K" horiz-adv-x="1052" 
d="M131 0v1454h250v-590h104l265 590h268l-309 -692v-4l327 -758h-282l-269 635h-104v-635h-250z" />
    <glyph glyph-name="L" unicode="L" horiz-adv-x="872" 
d="M131 0v1454h250v-1233h469v-221h-719z" />
    <glyph glyph-name="M" unicode="M" horiz-adv-x="1402" 
d="M88 0l94 1454h275l196 -706q10 -39 21.5 -94.5t17.5 -91.5l6 -36h7q25 134 45 222l196 706h275l92 -1454h-232l-49 809q-3 44 -3 87q1 7 1 14q0 50 2 87l2 37h-6q-26 -147 -49 -233l-156 -551h-243l-156 551q-10 37 -22 95.5t-18 97.5l-7 40h-8q1 -14 2 -37t2 -87v-30
q0 -43 -2 -71l-49 -809h-234z" />
    <glyph glyph-name="N" unicode="N" horiz-adv-x="1200" 
d="M131 0v1454h262l375 -823q17 -39 35.5 -94.5t28.5 -90.5l10 -36h8q-14 137 -14 223v821h233v-1454h-260l-375 825q-17 40 -35.5 95.5t-28.5 91.5l-10 35h-8q15 -138 15 -224v-823h-236z" />
    <glyph glyph-name="O" unicode="O" horiz-adv-x="1310" 
d="M70 737q0 216 70.5 384t204 263t310.5 95q176 0 310 -94.5t205 -263t71 -386.5q0 -220 -71 -392.5t-205 -270t-310 -97.5q-177 0 -310.5 97.5t-204 270t-70.5 394.5zM326 737q0 -240 87.5 -381t241.5 -141q152 0 240 141.5t88 378.5q0 233 -87.5 368.5t-240.5 135.5
q-154 0 -241.5 -135.5t-87.5 -366.5z" />
    <glyph glyph-name="P" unicode="P" horiz-adv-x="1013" 
d="M131 0v1454h414q191 0 310.5 -131.5t119.5 -343.5t-119.5 -344.5t-310.5 -132.5h-164v-502h-250zM381 723h121q101 0 160 70t59 186t-60 185t-155 69h-125v-510z" />
    <glyph glyph-name="Q" unicode="Q" horiz-adv-x="1310" 
d="M70 737q0 216 70.5 384t204 263t310.5 95q176 0 310 -94.5t205 -263t71 -386.5q0 -265 -125 -471l150 -141l-140 -164l-143 141q-136 -125 -328 -125q-177 0 -310.5 97.5t-204 270t-70.5 394.5zM326 737q0 -244 87.5 -387t241.5 -143q91 0 160 61l-168 166l141 162
l140 -156q55 127 55 295q0 233 -87.5 368.5t-240.5 135.5q-154 0 -241.5 -135.5t-87.5 -366.5z" />
    <glyph glyph-name="R" unicode="R" horiz-adv-x="1056" 
d="M131 0v1454h422q101 0 190 -45q100 -47 160 -149t60 -238q0 -137 -61.5 -242.5t-151.5 -156.5v-5q18 -26 43 -77l241 -541h-274l-221 543h-158v-543h-250zM381 764h133q80 0 137.5 64.5t57.5 172.5q0 64 -20.5 115.5t-57.5 79.5q-50 35 -113 35h-137v-467z" />
    <glyph glyph-name="S" unicode="S" horiz-adv-x="905" 
d="M45 117l117 213q51 -55 116.5 -89t135.5 -34q83 0 130.5 50t47.5 130q0 53 -28 98t-73.5 79t-100 68t-109 73.5t-100 87t-73.5 117.5t-28 155q0 180 116.5 297t315.5 117q184 0 322 -97l-91 -221q-40 34 -106 59t-121 25q-90 0 -138 -51t-48 -127q0 -54 28.5 -98
t73.5 -77t100 -65t110 -71t100 -85t73.5 -116.5t28.5 -157.5t-27 -163t-78.5 -134t-133 -91.5t-183.5 -33.5t-201.5 36.5t-175.5 105.5z" />
    <glyph glyph-name="T" unicode="T" horiz-adv-x="999" 
d="M25 1233v221h950v-221h-352v-1233h-248v1233h-350z" />
    <glyph glyph-name="U" unicode="U" horiz-adv-x="1171" 
d="M123 469v985h248v-983q0 -133 56.5 -198.5t158.5 -65.5t158.5 65.5t56.5 198.5v983h250v-985q0 -229 -126 -361.5t-337 -132.5q-213 0 -339 132.5t-126 361.5z" />
    <glyph glyph-name="V" unicode="V" horiz-adv-x="1069" 
d="M4 1454h268l224 -946q8 -37 16.5 -90t13.5 -87l4 -34h9q16 127 36 211l224 946h264l-401 -1454h-256z" />
    <glyph glyph-name="W" unicode="W" horiz-adv-x="1517" 
d="M27 1454h245l158 -1001q5 -31 8.5 -71.5t4.5 -65.5l1 -25h9q4 92 16 162l176 1001h240l166 -1001q5 -31 9 -71.5t6 -65.5l1 -25h8q5 92 15 162l157 1001h244l-264 -1454h-289l-150 856q-6 42 -11 90t-7 76l-2 27h-8q-7 -97 -23 -191l-155 -858h-289z" />
    <glyph glyph-name="X" unicode="X" horiz-adv-x="1026" 
d="M20 0l345 737l-340 717h276l150 -354q16 -38 31 -81.5t22 -68.5l8 -24h4q25 88 62 174l151 354h275l-342 -717l346 -737h-271l-162 389l-61 168h-4q-24 -82 -59 -168l-162 -389h-269z" />
    <glyph glyph-name="Y" unicode="Y" horiz-adv-x="989" 
d="M-2 1454h274l162 -426q15 -40 29.5 -88t21.5 -76l7 -28h6q26 102 59 192l160 426h274l-373 -846v-608h-247v608z" />
    <glyph glyph-name="Z" unicode="Z" horiz-adv-x="980" 
d="M53 0v172l490 928q20 38 40 71.5t30 47.5l10 14v4q-31 -4 -82 -4h-465v221h835v-170l-491 -930q-20 -38 -40 -71.5t-30 -47.5l-10 -14v-4q31 4 82 4h498v-221h-867z" />
    <glyph glyph-name="bracketleft" unicode="[" horiz-adv-x="557" 
d="M127 -195v1713h360v-183h-153v-1347h153v-183h-360z" />
    <glyph glyph-name="backslash" unicode="\" horiz-adv-x="716" 
d="M53 1530h207l404 -1616h-207z" />
    <glyph glyph-name="bracketright" unicode="]" horiz-adv-x="557" 
d="M70 -12h153v1347h-153v183h360v-1713h-360v183z" />
    <glyph glyph-name="asciicircum" unicode="^" horiz-adv-x="985" 
d="M94 502l320 952h153l320 -952h-209l-189 631l-186 -631h-209z" />
    <glyph glyph-name="underscore" unicode="_" horiz-adv-x="989" 
d="M35 0h919v-203h-919v203z" />
    <glyph glyph-name="grave" unicode="`" horiz-adv-x="770" 
d="M203 1831h246l126 -281h-194z" />
    <glyph glyph-name="a" unicode="a" horiz-adv-x="882" 
d="M47 299q0 84 28.5 148.5t73 102t106.5 61.5t120.5 32t124.5 8h37v23q0 102 -38 145t-108 43q-52 0 -112.5 -20t-108.5 -51l-66 186q52 38 141 65t177 27q175 0 267.5 -107.5t92.5 -308.5v-653h-217v68l4 77h-4q-39 -69 -104 -115t-146 -46q-115 0 -191.5 84t-76.5 231z
M272 317q0 -60 28 -98.5t79 -38.5q75 0 116.5 72t41.5 160v77h-37q-228 0 -228 -172z" />
    <glyph glyph-name="b" unicode="b" horiz-adv-x="1009" 
d="M111 0v1454h243v-432l-4 -88h4q29 59 88.5 97t147.5 38q167 0 261.5 -149.5t94.5 -395.5q0 -250 -100.5 -399.5t-270.5 -149.5q-83 0 -147 36t-96 104h-4q6 -31 6 -68v-47h-223zM348 520q0 -68 8 -124t27 -105t53.5 -76t83.5 -27q86 0 132 86t46 246q0 156 -43.5 244
t-130.5 88q-176 0 -176 -332z" />
    <glyph glyph-name="c" unicode="c" horiz-adv-x="880" 
d="M59 520q0 154 54 276.5t165.5 197.5t264.5 75q172 0 280 -100l-86 -187q-74 74 -182 74q-117 0 -182.5 -93.5t-65.5 -238.5q0 -144 65 -240t185 -96q125 0 223 95l66 -191q-53 -53 -137.5 -85t-182.5 -32q-144 0 -251 72.5t-161.5 195t-54.5 277.5z" />
    <glyph glyph-name="d" unicode="d" horiz-adv-x="1007" 
d="M63 524q0 251 97.5 398t273.5 147q72 0 131.5 -28t87.5 -80h4q-4 34 -4 69v424h246v-1454h-231v70l6 67h-4q-31 -73 -95.5 -117.5t-156.5 -44.5q-112 0 -193 69.5t-121.5 192.5t-40.5 287zM311 522q0 -334 174 -334q80 0 128.5 83t48.5 245q0 93 -16.5 166t-56.5 121.5
t-100 48.5q-178 0 -178 -330z" />
    <glyph glyph-name="e" unicode="e" horiz-adv-x="911" 
d="M61 532q0 154 47 274.5t142 191.5t225 71q95 0 168 -38.5t116.5 -105.5t65 -151.5t21.5 -183.5q0 -31 -4 -113h-533q9 -145 72 -216t156 -71q65 0 127.5 24.5t109.5 68.5l64 -187q-58 -56 -147.5 -88.5t-182.5 -32.5q-111 0 -197.5 43.5t-140 120t-81.5 176.5t-28 217z
M305 641h305q0 231 -139 231q-142 0 -166 -231z" />
    <glyph glyph-name="f" unicode="f" horiz-adv-x="598" 
d="M55 829v201h99v45q0 82 17 146.5t47.5 105t65.5 69t78 42t77 19t69 5.5q51 0 80 -4v-217q-28 4 -41 4q-146 0 -146 -176v-39h158v-201h-158v-829h-247v829h-99z" />
    <glyph glyph-name="g" unicode="g" horiz-adv-x="997" 
d="M66 545q0 149 39.5 266t123 187.5t199.5 70.5q77 0 139 -33.5t95 -97.5h4q-2 11 -2 29v77h223v-978q0 -104 -25.5 -189t-68.5 -141.5t-101 -94.5t-121 -54.5t-131 -16.5q-75 0 -154.5 21t-138.5 55l58 200q38 -25 99.5 -43t117.5 -18q219 0 219 262v45l4 62h-4
q-33 -68 -81 -101t-130 -33q-91 0 -162 42.5t-114.5 116t-65.5 166.5t-22 200zM313 555q0 -144 42.5 -231.5t127.5 -87.5q164 0 164 311q0 307 -168 307q-166 0 -166 -299z" />
    <glyph glyph-name="h" unicode="h" horiz-adv-x="1003" 
d="M111 0v1454h243v-481l-4 -82h4q89 178 277 178q122 0 196 -91t74 -273v-705h-246v653q0 85 -24.5 131.5t-85.5 46.5t-106 -50.5t-65 -118t-20 -136.5v-526h-243z" />
    <glyph glyph-name="i" unicode="i" horiz-adv-x="464" 
d="M109 1221v233h245v-233h-245zM111 0v1044h243v-1044h-243z" />
    <glyph glyph-name="j" unicode="j" horiz-adv-x="464" 
d="M-78 -207q10 -2 35 -2q24 0 47 7t49 25t42 59.5t16 101.5v1060h243v-1075q0 -100 -27 -175t-66 -115t-92 -65t-94.5 -31.5t-84.5 -6.5q-38 0 -68 6v211zM109 1221v233h243v-233h-243z" />
    <glyph glyph-name="k" unicode="k" horiz-adv-x="931" 
d="M111 0v1454h243v-770h80l189 360h264l-244 -466v-5l272 -573h-272l-203 455h-86v-455h-243z" />
    <glyph glyph-name="l" unicode="l" horiz-adv-x="507" 
d="M109 326v1128h245v-1092q0 -86 16.5 -115.5t61.5 -29.5q21 0 33 2v-223q-27 -6 -76 -6q-37 0 -67 4.5t-63.5 16.5t-59 36t-46.5 59.5t-32.5 91.5t-11.5 128z" />
    <glyph glyph-name="m" unicode="m" horiz-adv-x="1460" 
d="M111 0v1044h235v-69l-4 -66h4q84 160 256 160q161 0 221 -160h6q50 74 112 117t163 43q117 0 185.5 -86t68.5 -258v-725h-246v682q0 156 -98 156q-71 0 -114.5 -75t-43.5 -175v-588h-246v682q0 156 -98 156q-49 0 -86 -40t-54.5 -100.5t-17.5 -128.5v-569h-243z" />
    <glyph glyph-name="n" unicode="n" horiz-adv-x="1003" 
d="M111 0v1044h235v-69l-4 -66h4q35 66 102.5 113t174.5 47q130 0 204 -85.5t74 -258.5v-725h-246v682q0 156 -110 156q-61 0 -106 -45t-65 -104.5t-20 -119.5v-569h-243z" />
    <glyph glyph-name="o" unicode="o" horiz-adv-x="1026" 
d="M59 522q0 242 126 394.5t329 152.5t328 -153t125 -394t-125 -394t-328 -153t-329 152.5t-126 394.5zM307 522q0 -152 54.5 -243t152.5 -91q97 0 151 91t54 243t-54 243t-151 91q-98 0 -152.5 -91t-54.5 -243z" />
    <glyph glyph-name="p" unicode="p" horiz-adv-x="1007" 
d="M111 -410v1454h221v-59l-4 -72h4q70 156 252 156q171 0 265.5 -149t94.5 -394q0 -252 -100 -401.5t-269 -149.5q-71 0 -132 30.5t-89 88.5h-4q4 -37 4 -86v-418h-243zM348 522q0 -334 172 -334q86 0 132 85.5t46 244.5q0 157 -43.5 245.5t-130.5 88.5q-176 0 -176 -330z
" />
    <glyph glyph-name="q" unicode="q" horiz-adv-x="1007" 
d="M63 522q0 252 98 399.5t275 147.5q77 0 143.5 -36t94.5 -99h4q-6 35 -6 74v36h227v-1454h-246v437l4 88h-4q-24 -66 -86.5 -103t-142.5 -37q-171 0 -266 149.5t-95 397.5zM311 522q0 -157 43.5 -245.5t130.5 -88.5q177 0 177 332q0 68 -8.5 125t-27.5 105t-54 75t-83 27
q-87 0 -132.5 -85.5t-45.5 -244.5z" />
    <glyph glyph-name="r" unicode="r" horiz-adv-x="669" 
d="M111 0v1044h235v-155l-4 -72h4q25 99 97.5 170.5t154.5 71.5q25 0 39 -4v-252q-16 4 -53 4q-48 0 -87.5 -22.5t-65.5 -59.5t-43.5 -86t-25.5 -101t-8 -106v-432h-243z" />
    <glyph glyph-name="s" unicode="s" horiz-adv-x="745" 
d="M41 90l94 182q112 -88 211 -88q51 0 82 27.5t31 73.5q0 36 -21 65t-54.5 50.5t-74.5 43.5t-81.5 49.5t-74 61.5t-54.5 86.5t-21 118.5q0 142 91 225.5t245 83.5q149 0 258 -78l-74 -194q-90 63 -180 63q-47 0 -78 -26t-31 -72q0 -35 21 -62.5t54.5 -48.5t74.5 -42
t81.5 -48t74 -60.5t54.5 -86.5t21 -119q0 -138 -87.5 -229t-248.5 -91q-179 0 -313 115z" />
    <glyph glyph-name="t" unicode="t" horiz-adv-x="624" 
d="M39 829v201h113v299h237v-299h174v-201h-174v-417q0 -62 12.5 -103t35.5 -59.5t46.5 -25.5t55.5 -7q27 0 39 2v-223q-36 -6 -72 -6q-44 0 -85.5 7t-94 31.5t-90.5 64.5t-64.5 115t-26.5 175v446h-106z" />
    <glyph glyph-name="u" unicode="u" horiz-adv-x="997" 
d="M102 319v725h246v-682q0 -155 111 -155q56 0 99.5 43.5t64 103t20.5 119.5v571h244v-1044h-236v70l4 65h-4q-22 -40 -52 -72.5t-87.5 -60t-128.5 -27.5q-132 0 -206.5 86t-74.5 258z" />
    <glyph glyph-name="v" unicode="v" horiz-adv-x="913" 
d="M25 1044h258l145 -645l25 -157h6q12 96 24 157l146 645h258l-281 -1044h-297z" />
    <glyph glyph-name="w" unicode="w" horiz-adv-x="1320" 
d="M25 1044h241l117 -684l12 -110h6q7 67 15 110l129 682h233l131 -682l13 -110h6q4 55 14 110l117 684h237l-221 -1044h-280l-117 600l-12 113h-7q-4 -64 -14 -113l-117 -600h-284z" />
    <glyph glyph-name="x" unicode="x" horiz-adv-x="868" 
d="M25 0l256 543l-246 501h252l114 -272l25 -72h6q13 45 25 72l123 272h254l-248 -501l258 -543h-240l-141 319l-21 66h-6q-10 -39 -22 -66l-144 -319h-245z" />
    <glyph glyph-name="y" unicode="y" horiz-adv-x="897" 
d="M8 1044h262l158 -600q5 -24 10.5 -59t7.5 -59l3 -23h8q10 84 20 137l137 604h256l-335 -1189q-40 -142 -129.5 -213.5t-194.5 -71.5q-46 0 -90.5 14t-66.5 28l-21 13l67 187q48 -35 97 -35q40 0 76.5 36.5t58.5 108.5l22 84z" />
    <glyph glyph-name="z" unicode="z" horiz-adv-x="851" 
d="M57 0v139l365 602q16 26 31.5 50t23.5 35l8 10v4q-18 -4 -67 -4h-346v208h710v-141l-362 -600q-16 -26 -33 -50t-26 -35l-9 -11v-4q19 6 70 6h369v-209h-734z" />
    <glyph glyph-name="braceleft" unicode="{" horiz-adv-x="622" 
d="M59 559v223q48 8 80 42.5t44 78.5t12 96v179q0 89 22 155t53.5 101.5t75.5 57t78 27t70 5.5l61 -2v-187q-15 2 -35 2q-121 0 -121 -174v-229q0 -83 -32 -153.5t-99 -106.5v-4q68 -28 99.5 -101t31.5 -157v-252q0 -174 121 -174l35 4v-189q-24 -4 -61 -4q-25 0 -48.5 2.5
t-54.5 11.5t-57 24t-52.5 42t-45 62t-30 88t-11.5 118v201q0 79 -33 140.5t-103 72.5z" />
    <glyph glyph-name="bar" unicode="|" horiz-adv-x="454" 
d="M125 -332v1962h205v-1962h-205z" />
    <glyph glyph-name="braceright" unicode="}" horiz-adv-x="622" 
d="M66 -10q14 -4 34 -4q121 0 121 174v252q0 85 32.5 158t98.5 100v4q-61 30 -96 98.5t-35 161.5v229q0 174 -121 174l-34 -2v187q26 2 63 2q36 0 70 -5.5t78 -27t75.5 -57t53.5 -101.5t22 -155v-179q0 -51 11.5 -94t42.5 -79t79 -44v-223q-65 -9 -99 -69.5t-34 -143.5v-201
q0 -65 -11.5 -118t-30 -88t-45 -62t-52.5 -42t-57 -24t-54.5 -11.5t-48.5 -2.5l-63 4v189z" />
    <glyph glyph-name="asciitilde" unicode="~" horiz-adv-x="1011" 
d="M96 408q0 186 67 279t187 93q44 0 81 -14t60 -34.5t44.5 -44.5t36.5 -44.5t34 -34.5t39 -14q41 0 62.5 51t21.5 127h191q0 -186 -66.5 -279.5t-185.5 -93.5q-52 0 -94 19t-67.5 46.5t-46.5 54.5t-42.5 46t-44.5 19q-41 0 -62.5 -50.5t-21.5 -125.5h-193z" />
    <glyph glyph-name="uni00A0" unicode="&#xa0;" horiz-adv-x="405" 
 />
    <glyph glyph-name="exclamdown" unicode="&#xa1;" horiz-adv-x="466" 
d="M104 -412l23 1035h211l22 -1035h-256zM121 801v241h225v-241h-225z" />
    <glyph glyph-name="cent" unicode="&#xa2;" horiz-adv-x="935" 
d="M70 727q0 223 91.5 383.5t241.5 194.5v172h160v-172q104 -20 182.5 -94t114.5 -181l-213 -92q-46 133 -151 133q-79 0 -130 -97t-51 -247q0 -156 49 -250t132 -94q105 0 151 135l213 -92q-34 -102 -110.5 -179.5t-186.5 -94.5v-177h-160v177q-150 32 -241.5 192
t-91.5 383z" />
    <glyph glyph-name="sterling" unicode="&#xa3;" horiz-adv-x="935" 
d="M66 637v178h94v234q0 198 103.5 314t271.5 116q85 0 169.5 -29t139.5 -86l-129 -180q-29 27 -71 44t-85 17q-68 0 -105.5 -52.5t-37.5 -135.5v-242h266v-178h-266v-416h469v-221h-813v223h88v414h-94z" />
    <glyph glyph-name="yen" unicode="&#xa5;" horiz-adv-x="935" 
d="M8 1470h273l137 -421q13 -44 24.5 -94t17.5 -77l5 -28h6q20 99 49 199l137 421h273l-228 -591h150v-156h-217l-41 -100v-68h258v-158h-258v-397h-252v397h-258v158h258v68l-41 100h-217v156h149z" />
    <glyph glyph-name="section" unicode="&#xa7;" horiz-adv-x="817" 
d="M82 -31l90 164q40 -26 95 -43.5t104 -17.5q161 0 161 198q0 37 -12 111l-114 686h194l119 -700q12 -59 12 -115q0 -76 -20 -142t-61 -120t-111 -85.5t-162 -31.5q-176 0 -295 96zM84 1102q0 75 20.5 141t61.5 119.5t111.5 85t162.5 31.5q174 0 295 -97l-90 -163
q-36 25 -94 43t-105 18q-161 0 -161 -199q0 -51 14 -112l113 -684h-195l-119 700q-14 65 -14 117z" />
    <glyph glyph-name="dieresis" unicode="&#xa8;" horiz-adv-x="768" 
d="M135 1591v240h182v-240h-182zM451 1591v240h182v-240h-182z" />
    <glyph glyph-name="copyright" unicode="&#xa9;" horiz-adv-x="1314" 
d="M84 727q0 214 70.5 385t201 269t299.5 98q173 0 305 -98.5t201.5 -268.5t69.5 -385t-69.5 -385t-201.5 -268.5t-305 -98.5q-169 0 -299.5 98t-201 269t-70.5 385zM252 727q0 -265 107.5 -428.5t295.5 -163.5q193 0 300.5 163t107.5 429q0 265 -107.5 428.5t-300.5 163.5
q-188 0 -295.5 -164t-107.5 -428zM381 723q0 105 31 193.5t98.5 147t159.5 58.5q88 0 153 -59t88 -148l-131 -53q-8 38 -37 68.5t-67 30.5q-60 0 -90.5 -70t-30.5 -172q0 -61 10.5 -111t37.5 -85.5t69 -35.5q40 0 71.5 31t42.5 74l125 -60q-20 -87 -86 -147.5t-157 -60.5
t-158 58.5t-98 147t-31 193.5z" />
    <glyph glyph-name="ordfeminine" unicode="&#xaa;" horiz-adv-x="698" 
d="M109 987q0 49 14.5 88t40.5 62t53.5 39t61.5 22.5t56.5 9t45.5 2.5h25v21q0 106 -87 106q-63 0 -124 -41l-54 119q29 25 89.5 42.5t115.5 17.5q117 0 174.5 -69.5t57.5 -197.5v-411h-150v96h-4q-21 -45 -59.5 -77t-88.5 -32q-70 0 -118.5 55t-48.5 148zM111 545v141h473
v-141h-473zM260 1001q0 -34 19 -55.5t45 -21.5q34 0 58 38.5t24 96.5v35h-25q-49 0 -85 -20.5t-36 -72.5z" />
    <glyph glyph-name="guillemotleft" unicode="&#xab;" horiz-adv-x="1015" 
d="M66 578l258 421h227l-258 -421l258 -420h-227zM455 578l260 421h225l-258 -421l258 -420h-225z" />
    <glyph glyph-name="logicalnot" unicode="&#xac;" horiz-adv-x="1005" 
d="M98 694v203h789v-604h-195v401h-594z" />
    <glyph glyph-name="uni00AD" unicode="&#xad;" horiz-adv-x="698" 
d="M106 471v229h486v-229h-486z" />
    <glyph glyph-name="registered" unicode="&#xae;" horiz-adv-x="1314" 
d="M84 727q0 214 70.5 385t201 269t299.5 98q173 0 305 -98.5t201.5 -268.5t69.5 -385t-69.5 -385t-201.5 -268.5t-305 -98.5q-169 0 -299.5 98t-201 269t-70.5 385zM252 727q0 -265 107.5 -428.5t295.5 -163.5q193 0 300.5 163t107.5 429q0 265 -107.5 428.5t-300.5 163.5
q-188 0 -295.5 -164t-107.5 -428zM451 356v750h256q89 0 140.5 -65t51.5 -173q0 -79 -31.5 -130t-66.5 -64v-4q8 -10 20 -45l94 -269h-165l-86 277h-54v-277h-159zM610 756h56q34 0 52.5 29.5t18.5 82.5t-18 81t-51 28h-58v-221z" />
    <glyph glyph-name="macron" unicode="&#xaf;" horiz-adv-x="770" 
d="M172 1604v180h426v-180h-426z" />
    <glyph glyph-name="degree" unicode="&#xb0;" horiz-adv-x="700" 
d="M74 1157q0 136 76.5 230t199.5 94q122 0 198.5 -94t76.5 -230q0 -138 -76.5 -230.5t-198.5 -92.5q-124 0 -200 92.5t-76 230.5zM256 1157q0 -64 23.5 -102.5t70.5 -38.5q45 0 68.5 39t23.5 102q0 62 -23.5 102.5t-68.5 40.5q-47 0 -70.5 -40t-23.5 -103z" />
    <glyph glyph-name="plusminus" unicode="&#xb1;" 
d="M72 487v197h329v487h199v-487h330v-197h-330v-487h-199v487h-329zM90 -180h821v-197h-821v197z" />
    <glyph glyph-name="uni00B2" unicode="&#xb2;" horiz-adv-x="632" 
d="M51 1647q34 61 103 100t149 39q108 0 182 -67t74 -195q0 -58 -17 -109t-44 -88t-60 -69.5t-66 -60t-60 -53t-44.5 -54.5t-17.5 -60h319v-164h-499q-9 44 -9 86q0 68 17.5 125t45.5 96.5t62 73t68 62t62 56.5t45.5 62.5t17.5 73.5q0 53 -27.5 81t-72.5 28q-73 0 -113 -70z
" />
    <glyph glyph-name="uni00B3" unicode="&#xb3;" horiz-adv-x="632" 
d="M51 926l80 141q54 -51 129 -51q56 0 90.5 34t34.5 95q0 127 -164 127h-55l-33 88l137 188l49 54v2q-20 -5 -65 -5h-174v166h459v-118l-191 -250q103 -17 162 -85.5t59 -172.5q0 -123 -78 -208t-215 -85q-133 0 -225 80z" />
    <glyph glyph-name="acute" unicode="&#xb4;" horiz-adv-x="770" 
d="M199 1550l125 281h245l-178 -281h-192z" />
    <glyph glyph-name="paragraph" unicode="&#xb6;" horiz-adv-x="1044" 
d="M59 975q0 206 104 342.5t265 136.5h535v-229h-359v-1327h-176v596q-161 0 -265 138t-104 343zM700 -102v1214h174v-1214h-174z" />
    <glyph glyph-name="periodcentered" unicode="&#xb7;" horiz-adv-x="438" 
d="M106 467v262h228v-262h-228z" />
    <glyph glyph-name="cedilla" unicode="&#xb8;" horiz-adv-x="765" 
d="M242 -274q26 -17 69 -17q29 0 48.5 15t19.5 47q0 33 -21.5 48t-54.5 15l-35 -4l51 221l105 -26v-15l-14 -100q51 -8 84.5 -48.5t33.5 -109.5q0 -89 -54 -133.5t-128 -44.5q-46 0 -104 14v138z" />
    <glyph glyph-name="uni00B9" unicode="&#xb9;" horiz-adv-x="632" 
d="M72 1534l196 231h156v-739h147v-160h-475v160h154v449l4 57h-4q-6 -18 -31 -47l-47 -55z" />
    <glyph glyph-name="ordmasculine" unicode="&#xba;" horiz-adv-x="774" 
d="M102 1133q0 149 81 245.5t202 96.5q124 0 204.5 -96t80.5 -246q0 -151 -80.5 -249t-202.5 -98t-203.5 98t-81.5 249zM125 545v141h524v-141h-524zM276 1133q0 -82 30.5 -132.5t80.5 -50.5q48 0 78.5 51t30.5 132q0 79 -31 129.5t-78 50.5q-49 0 -80 -50t-31 -130z" />
    <glyph glyph-name="guillemotright" unicode="&#xbb;" horiz-adv-x="1015" 
d="M76 158l258 420l-258 421h227l258 -421l-258 -420h-227zM465 158l258 420l-258 421h227l258 -421l-258 -420h-227z" />
    <glyph glyph-name="onequarter" unicode="&#xbc;" horiz-adv-x="1634" 
d="M72 1225l196 231h156v-739h147v-160h-475v160h154v448l4 58h-4q-6 -18 -31 -47l-47 -56zM465 0l530 1454h172l-528 -1454h-174zM985 213v139l272 547h222v-539h92v-147h-92v-213h-166v213h-328zM1145 360h168v252l4 105h-4q-17 -49 -37 -92l-131 -263v-2z" />
    <glyph glyph-name="onehalf" unicode="&#xbd;" horiz-adv-x="1619" 
d="M72 1225l196 231h156v-739h147v-160h-475v160h154v448l4 58h-4q-6 -18 -31 -47l-47 -56zM469 0l530 1454h172l-528 -1454h-174zM1026 780q35 61 103.5 100.5t148.5 39.5q108 0 182 -67.5t74 -195.5q0 -67 -23 -125.5t-57 -96.5t-74 -75t-74 -64.5t-57.5 -62t-23.5 -69.5
h319v-164h-500q-8 39 -8 86q0 68 17.5 125t45.5 96.5t62 73t68 62t62 56.5t45.5 62.5t17.5 73.5q0 53 -28 80.5t-73 27.5q-73 0 -112 -69z" />
    <glyph glyph-name="threequarters" unicode="&#xbe;" horiz-adv-x="1630" 
d="M68 616l79 142q54 -51 129 -51q56 0 90.5 34.5t34.5 94.5q0 127 -163 127h-56l-32 88l137 188q10 13 22.5 26t19.5 20l7 7v2q-21 -4 -66 -4h-174v166h459v-119l-190 -250q103 -17 162 -85.5t59 -172.5q0 -123 -78 -207.5t-215 -84.5q-134 0 -225 79zM461 0l530 1454h172
l-528 -1454h-174zM981 213v139l272 547h222v-539h92v-147h-92v-213h-166v213h-328zM1141 360h168v252l4 105h-4q-17 -49 -37 -92l-131 -263v-2z" />
    <glyph glyph-name="questiondown" unicode="&#xbf;" horiz-adv-x="798" 
d="M61 -37q0 66 15.5 122.5t39.5 97t53.5 76.5t59.5 69t54 66t39.5 76t15.5 91v62h235v-78q0 -73 -19 -134.5t-47 -101t-61 -79.5t-61 -72t-47 -77.5t-19 -96.5q0 -89 46.5 -140t119.5 -51q94 0 150 53l113 -186q-53 -43 -136 -71.5t-168 -28.5q-167 0 -275 108.5
t-108 294.5zM342 801v241h227v-241h-227z" />
    <glyph glyph-name="Agrave" unicode="&#xc0;" horiz-adv-x="1054" 
d="M10 0l381 1454h271l382 -1454h-249l-90 375h-357l-88 -375h-250zM246 1831h246l126 -281h-194zM389 584h277l-93 391q-9 37 -19.5 93.5t-17.5 93.5l-6 38h-6q-23 -141 -41 -225z" />
    <glyph glyph-name="Aacute" unicode="&#xc1;" horiz-adv-x="1054" 
d="M10 0l381 1454h271l382 -1454h-249l-90 375h-357l-88 -375h-250zM389 584h277l-93 391q-9 37 -19.5 93.5t-17.5 93.5l-6 38h-6q-23 -141 -41 -225zM418 1550l125 281h245l-178 -281h-192z" />
    <glyph glyph-name="Acircumflex" unicode="&#xc2;" horiz-adv-x="1054" 
d="M10 0l381 1454h271l382 -1454h-249l-90 375h-357l-88 -375h-250zM254 1550l152 281h241l152 -281h-195l-76 168h-4l-75 -168h-195zM389 584h277l-93 391q-9 37 -19.5 93.5t-17.5 93.5l-6 38h-6q-23 -141 -41 -225z" />
    <glyph glyph-name="Atilde" unicode="&#xc3;" horiz-adv-x="1054" 
d="M10 0l381 1454h271l382 -1454h-249l-90 375h-357l-88 -375h-250zM217 1552q0 139 47 211t137 72q44 0 78.5 -21t52.5 -45.5t39 -45.5t41 -21q56 0 56 127h161q0 -138 -47 -210.5t-135 -72.5q-36 0 -65 13.5t-48 33t-34.5 39.5t-32 33.5t-33.5 13.5q-28 0 -41.5 -35.5
t-13.5 -91.5h-162zM389 584h277l-93 391q-9 37 -19.5 93.5t-17.5 93.5l-6 38h-6q-23 -141 -41 -225z" />
    <glyph glyph-name="Adieresis" unicode="&#xc4;" horiz-adv-x="1054" 
d="M10 0l381 1454h271l382 -1454h-249l-90 375h-357l-88 -375h-250zM276 1591v240h183v-240h-183zM389 584h277l-93 391q-9 37 -19.5 93.5t-17.5 93.5l-6 38h-6q-23 -141 -41 -225zM592 1591v240h182v-240h-182z" />
    <glyph glyph-name="Aring" unicode="&#xc5;" horiz-adv-x="1054" 
d="M10 0l381 1454h271l382 -1454h-249l-90 375h-357l-88 -375h-250zM360 1686q0 75 50 119t116 44q67 0 116.5 -43.5t49.5 -119.5q0 -74 -49.5 -117t-116.5 -43q-66 0 -116 43t-50 117zM389 584h277l-93 391q-9 37 -19.5 93.5t-17.5 93.5l-6 38h-6q-23 -141 -41 -225z
M473 1686q0 -32 13.5 -51t39.5 -19t40 19t14 51q0 34 -14 53.5t-40 19.5q-25 0 -39 -19.5t-14 -53.5z" />
    <glyph glyph-name="AE" unicode="&#xc6;" horiz-adv-x="1480" 
d="M0 0l469 1454h930v-221h-445v-389h357v-221h-357v-402h467v-221h-714v537h-287l-166 -537h-254zM485 752h222v473h-74z" />
    <glyph glyph-name="Ccedilla" unicode="&#xc7;" horiz-adv-x="1116" 
d="M70 729q0 218 74.5 386.5t220.5 266t342 97.5q99 0 192.5 -30.5t161.5 -90.5l-105 -215q-37 42 -106 71t-135 29q-122 0 -211.5 -68.5t-133.5 -181t-44 -254.5q0 -144 45.5 -263t134.5 -192t205 -73q137 0 270 106l102 -211q-146 -119 -350 -129l-8 -67q51 -8 85 -48.5
t34 -109.5q0 -89 -54 -133.5t-128 -44.5q-47 0 -105 14v138q25 -17 70 -17q29 0 48 15t19 47q0 33 -21.5 48t-54.5 15l-34 -4l34 150q-170 18 -295.5 120.5t-189 264.5t-63.5 364z" />
    <glyph glyph-name="Egrave" unicode="&#xc8;" horiz-adv-x="905" 
d="M131 0v1454h692v-221h-442v-389h356v-221h-356v-402h467v-221h-717zM215 1831h246l127 -281h-195z" />
    <glyph glyph-name="Eacute" unicode="&#xc9;" horiz-adv-x="905" 
d="M131 0v1454h692v-221h-442v-389h356v-221h-356v-402h467v-221h-717zM385 1550l125 281h246l-178 -281h-193z" />
    <glyph glyph-name="Ecircumflex" unicode="&#xca;" horiz-adv-x="905" 
d="M131 0v1454h692v-221h-442v-389h356v-221h-356v-402h467v-221h-717zM223 1550l152 281h241l152 -281h-195l-75 168h-4l-76 -168h-195z" />
    <glyph glyph-name="Edieresis" unicode="&#xcb;" horiz-adv-x="905" 
d="M131 0v1454h692v-221h-442v-389h356v-221h-356v-402h467v-221h-717zM246 1591v240h182v-240h-182zM561 1591v240h182v-240h-182z" />
    <glyph glyph-name="Igrave" unicode="&#xcc;" horiz-adv-x="512" 
d="M-18 1831h245l127 -281h-194zM131 0v1454h250v-1454h-250z" />
    <glyph glyph-name="Iacute" unicode="&#xcd;" horiz-adv-x="512" 
d="M131 0v1454h250v-1454h-250zM154 1550l125 281h245l-178 -281h-192z" />
    <glyph glyph-name="Icircumflex" unicode="&#xce;" horiz-adv-x="512" 
d="M-10 1550l151 281h242l152 -281h-195l-76 168h-4l-76 -168h-194zM131 0v1454h250v-1454h-250z" />
    <glyph glyph-name="Idieresis" unicode="&#xcf;" horiz-adv-x="512" 
d="M12 1591v240h183v-240h-183zM131 0v1454h250v-1454h-250zM328 1591v240h182v-240h-182z" />
    <glyph glyph-name="Eth" unicode="&#xd0;" horiz-adv-x="1200" 
d="M41 618v209h98v627h404q271 0 427 -191.5t156 -533.5t-156.5 -535.5t-426.5 -193.5h-404v618h-98zM389 223h143q161 0 249.5 130.5t88.5 375.5q0 243 -89.5 372.5t-248.5 129.5h-143v-404h203v-209h-203v-395z" />
    <glyph glyph-name="Ntilde" unicode="&#xd1;" horiz-adv-x="1200" 
d="M131 0v1454h262l375 -823q17 -39 35.5 -94.5t28.5 -90.5l10 -36h8q-14 137 -14 223v821h233v-1454h-260l-375 825q-17 40 -35.5 95.5t-28.5 91.5l-10 35h-8q15 -138 15 -224v-823h-236zM293 1552q0 139 47 211t137 72q44 0 78.5 -21t52.5 -45.5t39 -45.5t41 -21
q55 0 55 127h162q0 -138 -47 -210.5t-135 -72.5q-36 0 -65 13.5t-48 33t-34.5 39.5t-32 33.5t-33.5 13.5q-28 0 -41.5 -35.5t-13.5 -91.5h-162z" />
    <glyph glyph-name="Ograve" unicode="&#xd2;" horiz-adv-x="1310" 
d="M70 737q0 216 70.5 384t204 263t310.5 95q176 0 310 -94.5t205 -263t71 -386.5q0 -220 -71 -392.5t-205 -270t-310 -97.5q-177 0 -310.5 97.5t-204 270t-70.5 394.5zM326 737q0 -240 87.5 -381t241.5 -141q152 0 240 141.5t88 378.5q0 233 -87.5 368.5t-240.5 135.5
q-154 0 -241.5 -135.5t-87.5 -366.5zM373 1831h245l127 -281h-194z" />
    <glyph glyph-name="Oacute" unicode="&#xd3;" horiz-adv-x="1310" 
d="M70 737q0 216 70.5 384t204 263t310.5 95q176 0 310 -94.5t205 -263t71 -386.5q0 -220 -71 -392.5t-205 -270t-310 -97.5q-177 0 -310.5 97.5t-204 270t-70.5 394.5zM326 737q0 -240 87.5 -381t241.5 -141q152 0 240 141.5t88 378.5q0 233 -87.5 368.5t-240.5 135.5
q-154 0 -241.5 -135.5t-87.5 -366.5zM543 1550l125 281h245l-178 -281h-192z" />
    <glyph glyph-name="Ocircumflex" unicode="&#xd4;" horiz-adv-x="1310" 
d="M70 737q0 216 70.5 384t204 263t310.5 95q176 0 310 -94.5t205 -263t71 -386.5q0 -220 -71 -392.5t-205 -270t-310 -97.5q-177 0 -310.5 97.5t-204 270t-70.5 394.5zM326 737q0 -240 87.5 -381t241.5 -141q152 0 240 141.5t88 378.5q0 233 -87.5 368.5t-240.5 135.5
q-154 0 -241.5 -135.5t-87.5 -366.5zM381 1550l151 281h242l152 -281h-195l-76 168h-4l-76 -168h-194z" />
    <glyph glyph-name="Otilde" unicode="&#xd5;" horiz-adv-x="1310" 
d="M70 737q0 216 70.5 384t204 263t310.5 95q176 0 310 -94.5t205 -263t71 -386.5q0 -220 -71 -392.5t-205 -270t-310 -97.5q-177 0 -310.5 97.5t-204 270t-70.5 394.5zM326 737q0 -240 87.5 -381t241.5 -141q152 0 240 141.5t88 378.5q0 233 -87.5 368.5t-240.5 135.5
q-154 0 -241.5 -135.5t-87.5 -366.5zM344 1552q0 139 47 211t137 72q44 0 78.5 -21t52.5 -45.5t39 -45.5t41 -21q56 0 56 127h161q0 -138 -47 -210.5t-135 -72.5q-36 0 -65 13.5t-48 33t-34.5 39.5t-32 33.5t-33.5 13.5q-28 0 -41.5 -35.5t-13.5 -91.5h-162z" />
    <glyph glyph-name="Odieresis" unicode="&#xd6;" horiz-adv-x="1310" 
d="M70 737q0 216 70.5 384t204 263t310.5 95q176 0 310 -94.5t205 -263t71 -386.5q0 -220 -71 -392.5t-205 -270t-310 -97.5q-177 0 -310.5 97.5t-204 270t-70.5 394.5zM326 737q0 -240 87.5 -381t241.5 -141q152 0 240 141.5t88 378.5q0 233 -87.5 368.5t-240.5 135.5
q-154 0 -241.5 -135.5t-87.5 -366.5zM403 1591v240h183v-240h-183zM719 1591v240h182v-240h-182z" />
    <glyph glyph-name="multiply" unicode="&#xd7;" 
d="M55 1032l156 131l289 -415l288 415l158 -131l-321 -459l317 -454l-156 -131l-286 409l-285 -409l-158 131l316 454z" />
    <glyph glyph-name="Oslash" unicode="&#xd8;" horiz-adv-x="1310" 
d="M70 737q0 217 70 384.5t203.5 262.5t311.5 95q161 0 285 -80l59 110l113 -59l-70 -131q97 -98 148 -248t51 -336q0 -221 -70.5 -393t-204.5 -269.5t-311 -97.5q-172 0 -303 93l-65 -121l-113 59l78 148q-182 203 -182 583zM326 737q0 -208 65 -338l430 789
q-68 51 -166 51q-155 0 -242 -135t-87 -367zM471 283q76 -70 184 -70q155 0 241.5 141.5t86.5 380.5q0 218 -74 348z" />
    <glyph glyph-name="Ugrave" unicode="&#xd9;" horiz-adv-x="1171" 
d="M123 469v985h248v-983q0 -133 56.5 -198.5t158.5 -65.5t158.5 65.5t56.5 198.5v983h250v-985q0 -229 -126 -361.5t-337 -132.5q-213 0 -339 132.5t-126 361.5zM303 1831h246l127 -281h-195z" />
    <glyph glyph-name="Uacute" unicode="&#xda;" horiz-adv-x="1171" 
d="M123 469v985h248v-983q0 -133 56.5 -198.5t158.5 -65.5t158.5 65.5t56.5 198.5v983h250v-985q0 -229 -126 -361.5t-337 -132.5q-213 0 -339 132.5t-126 361.5zM475 1550l125 281h246l-178 -281h-193z" />
    <glyph glyph-name="Ucircumflex" unicode="&#xdb;" horiz-adv-x="1171" 
d="M123 469v985h248v-983q0 -133 56.5 -198.5t158.5 -65.5t158.5 65.5t56.5 198.5v983h250v-985q0 -229 -126 -361.5t-337 -132.5q-213 0 -339 132.5t-126 361.5zM313 1550l152 281h242l151 -281h-194l-76 168h-4l-76 -168h-195z" />
    <glyph glyph-name="Udieresis" unicode="&#xdc;" horiz-adv-x="1171" 
d="M123 469v985h248v-983q0 -133 56.5 -198.5t158.5 -65.5t158.5 65.5t56.5 198.5v983h250v-985q0 -229 -126 -361.5t-337 -132.5q-213 0 -339 132.5t-126 361.5zM336 1591v240h182v-240h-182zM651 1591v240h183v-240h-183z" />
    <glyph glyph-name="Yacute" unicode="&#xdd;" horiz-adv-x="989" 
d="M-2 1454h274l162 -426q15 -40 29.5 -88t21.5 -76l7 -28h6q26 102 59 192l160 426h274l-373 -846v-608h-247v608zM385 1550l125 281h246l-178 -281h-193z" />
    <glyph glyph-name="Thorn" unicode="&#xde;" horiz-adv-x="1009" 
d="M131 0v1454h250v-235h164q191 0 310.5 -131t119.5 -343q0 -213 -119.5 -346t-310.5 -133h-164v-266h-250zM381 487h121q101 0 160 70t59 188q0 114 -60 183t-155 69h-125v-510z" />
    <glyph glyph-name="germandbls" unicode="&#xdf;" 
d="M111 0v1083q0 97 33.5 174.5t88.5 124.5t122 72t139 25q152 0 256 -99.5t104 -257.5q0 -62 -19 -118t-42.5 -90t-42.5 -73t-19 -71q0 -38 23.5 -74t56.5 -70t66.5 -74t57 -102.5t23.5 -138.5q0 -151 -84.5 -238t-228.5 -87q-110 0 -186 53v213q28 -22 70 -37.5t77 -15.5
q53 0 83 29.5t30 84.5q0 48 -23.5 90.5t-57.5 76.5t-68 70t-57.5 88t-23.5 114q0 47 13.5 89t33 73.5t39 62t33 67.5t13.5 76q0 64 -30 105t-95 41q-63 0 -102.5 -47.5t-39.5 -153.5v-1065h-243z" />
    <glyph glyph-name="agrave" unicode="&#xe0;" horiz-adv-x="882" 
d="M47 299q0 84 28.5 148.5t73 102t106.5 61.5t120.5 32t124.5 8h37v23q0 102 -38 145t-108 43q-52 0 -112.5 -20t-108.5 -51l-66 186q52 38 141 65t177 27q175 0 267.5 -107.5t92.5 -308.5v-653h-217v68l4 77h-4q-39 -69 -104 -115t-146 -46q-115 0 -191.5 84t-76.5 231z
M156 1456h245l127 -280h-194zM272 317q0 -60 28 -98.5t79 -38.5q75 0 116.5 72t41.5 160v77h-37q-228 0 -228 -172z" />
    <glyph glyph-name="aacute" unicode="&#xe1;" horiz-adv-x="882" 
d="M47 299q0 84 28.5 148.5t73 102t106.5 61.5t120.5 32t124.5 8h37v23q0 102 -38 145t-108 43q-52 0 -112.5 -20t-108.5 -51l-66 186q52 38 141 65t177 27q175 0 267.5 -107.5t92.5 -308.5v-653h-217v68l4 77h-4q-39 -69 -104 -115t-146 -46q-115 0 -191.5 84t-76.5 231z
M272 317q0 -60 28 -98.5t79 -38.5q75 0 116.5 72t41.5 160v77h-37q-228 0 -228 -172zM324 1176l125 280h245l-178 -280h-192z" />
    <glyph glyph-name="acircumflex" unicode="&#xe2;" horiz-adv-x="882" 
d="M47 299q0 84 28.5 148.5t73 102t106.5 61.5t120.5 32t124.5 8h37v23q0 102 -38 145t-108 43q-52 0 -112.5 -20t-108.5 -51l-66 186q52 38 141 65t177 27q175 0 267.5 -107.5t92.5 -308.5v-653h-217v68l4 77h-4q-39 -69 -104 -115t-146 -46q-115 0 -191.5 84t-76.5 231z
M162 1176l151 280h242l152 -280h-195l-76 167h-4l-76 -167h-194zM272 317q0 -60 28 -98.5t79 -38.5q75 0 116.5 72t41.5 160v77h-37q-228 0 -228 -172z" />
    <glyph glyph-name="atilde" unicode="&#xe3;" horiz-adv-x="882" 
d="M47 299q0 84 28.5 148.5t73 102t106.5 61.5t120.5 32t124.5 8h37v23q0 102 -38 145t-108 43q-52 0 -112.5 -20t-108.5 -51l-66 186q52 38 141 65t177 27q175 0 267.5 -107.5t92.5 -308.5v-653h-217v68l4 77h-4q-39 -69 -104 -115t-146 -46q-115 0 -191.5 84t-76.5 231z
M125 1178q0 139 47 210.5t137 71.5q44 0 78.5 -21t52.5 -45.5t39 -45.5t41 -21q55 0 55 127h162q0 -138 -47 -210.5t-135 -72.5q-36 0 -65 14t-48 33.5t-34.5 39t-32 33.5t-33.5 14q-28 0 -41.5 -35.5t-13.5 -91.5h-162zM272 317q0 -60 28 -98.5t79 -38.5q75 0 116.5 72
t41.5 160v77h-37q-228 0 -228 -172z" />
    <glyph glyph-name="adieresis" unicode="&#xe4;" horiz-adv-x="882" 
d="M47 299q0 84 28.5 148.5t73 102t106.5 61.5t120.5 32t124.5 8h37v23q0 102 -38 145t-108 43q-52 0 -112.5 -20t-108.5 -51l-66 186q52 38 141 65t177 27q175 0 267.5 -107.5t92.5 -308.5v-653h-217v68l4 77h-4q-39 -69 -104 -115t-146 -46q-115 0 -191.5 84t-76.5 231z
M184 1217v239h183v-239h-183zM272 317q0 -60 28 -98.5t79 -38.5q75 0 116.5 72t41.5 160v77h-37q-228 0 -228 -172zM500 1217v239h182v-239h-182z" />
    <glyph glyph-name="aring" unicode="&#xe5;" horiz-adv-x="882" 
d="M47 299q0 84 28.5 148.5t73 102t106.5 61.5t120.5 32t124.5 8h37v23q0 102 -38 145t-108 43q-52 0 -112.5 -20t-108.5 -51l-66 186q52 38 141 65t177 27q175 0 267.5 -107.5t92.5 -308.5v-653h-217v68l4 77h-4q-39 -69 -104 -115t-146 -46q-115 0 -191.5 84t-76.5 231z
M268 1311q0 75 50 119.5t116 44.5q67 0 116.5 -44t49.5 -120q0 -74 -49.5 -117t-116.5 -43q-66 0 -116 43t-50 117zM272 317q0 -60 28 -98.5t79 -38.5q75 0 116.5 72t41.5 160v77h-37q-228 0 -228 -172zM381 1311q0 -32 13.5 -51t39.5 -19t39.5 19t13.5 51q0 73 -53 73
q-25 0 -39 -19.5t-14 -53.5z" />
    <glyph glyph-name="ae" unicode="&#xe6;" horiz-adv-x="1378" 
d="M45 297q0 80 29.5 142.5t75.5 100t108.5 61.5t121.5 33t122 9h33v31q0 186 -142 186q-51 0 -114.5 -19.5t-110.5 -47.5l-66 184q58 39 142 65.5t176 26.5q175 0 254 -139h4q100 139 264 139q95 0 168 -38t117 -104.5t66 -150.5t22 -182q0 -54 -6 -115h-533
q10 -150 73 -219.5t159 -69.5q124 0 235 93l62 -187q-56 -57 -143.5 -89t-180.5 -32q-229 0 -338 205h-6q-46 -100 -124 -152.5t-173 -52.5q-130 0 -212.5 87.5t-82.5 234.5zM268 317q0 -63 30 -104t83 -41q54 0 91.5 42.5t52 95.5t14.5 108v61h-31q-240 0 -240 -162z
M774 643h305q-3 231 -141 231q-72 0 -113.5 -62.5t-50.5 -168.5z" />
    <glyph glyph-name="ccedilla" unicode="&#xe7;" horiz-adv-x="880" 
d="M59 520q0 154 54 276.5t165.5 197.5t264.5 75q172 0 280 -100l-86 -187q-74 74 -182 74q-117 0 -182.5 -93.5t-65.5 -238.5q0 -144 65 -240t185 -96q125 0 223 95l66 -191q-48 -48 -123.5 -79.5t-163.5 -35.5l-8 -67q51 -8 85 -48.5t34 -109.5q0 -88 -54.5 -133
t-128.5 -45q-46 0 -104 14v138q25 -17 70 -17q29 0 48 15t19 47q0 33 -21.5 48t-54.5 15l-34 -4l34 152q-181 29 -283 176.5t-102 361.5z" />
    <glyph glyph-name="egrave" unicode="&#xe8;" horiz-adv-x="911" 
d="M61 532q0 154 47 274.5t142 191.5t225 71q95 0 168 -38.5t116.5 -105.5t65 -151.5t21.5 -183.5q0 -31 -4 -113h-533q9 -145 72 -216t156 -71q65 0 127.5 24.5t109.5 68.5l64 -187q-58 -56 -147.5 -88.5t-182.5 -32.5q-111 0 -197.5 43.5t-140 120t-81.5 176.5t-28 217z
M195 1456h245l127 -280h-194zM305 641h305q0 231 -139 231q-142 0 -166 -231z" />
    <glyph glyph-name="eacute" unicode="&#xe9;" horiz-adv-x="911" 
d="M61 532q0 154 47 274.5t142 191.5t225 71q95 0 168 -38.5t116.5 -105.5t65 -151.5t21.5 -183.5q0 -31 -4 -113h-533q9 -145 72 -216t156 -71q65 0 127.5 24.5t109.5 68.5l64 -187q-58 -56 -147.5 -88.5t-182.5 -32.5q-111 0 -197.5 43.5t-140 120t-81.5 176.5t-28 217z
M305 641h305q0 231 -139 231q-142 0 -166 -231zM365 1176l124 280h246l-178 -280h-192z" />
    <glyph glyph-name="ecircumflex" unicode="&#xea;" horiz-adv-x="911" 
d="M61 532q0 154 47 274.5t142 191.5t225 71q95 0 168 -38.5t116.5 -105.5t65 -151.5t21.5 -183.5q0 -31 -4 -113h-533q9 -145 72 -216t156 -71q65 0 127.5 24.5t109.5 68.5l64 -187q-58 -56 -147.5 -88.5t-182.5 -32.5q-111 0 -197.5 43.5t-140 120t-81.5 176.5t-28 217z
M201 1176l151 280h242l151 -280h-194l-76 167h-4l-76 -167h-194zM305 641h305q0 231 -139 231q-142 0 -166 -231z" />
    <glyph glyph-name="edieresis" unicode="&#xeb;" horiz-adv-x="911" 
d="M61 532q0 154 47 274.5t142 191.5t225 71q95 0 168 -38.5t116.5 -105.5t65 -151.5t21.5 -183.5q0 -31 -4 -113h-533q9 -145 72 -216t156 -71q65 0 127.5 24.5t109.5 68.5l64 -187q-58 -56 -147.5 -88.5t-182.5 -32.5q-111 0 -197.5 43.5t-140 120t-81.5 176.5t-28 217z
M223 1217v239h183v-239h-183zM305 641h305q0 231 -139 231q-142 0 -166 -231zM539 1217v239h182v-239h-182z" />
    <glyph glyph-name="igrave" unicode="&#xec;" horiz-adv-x="464" 
d="M-47 1456h246l127 -280h-195zM111 0v1044h243v-1044h-243z" />
    <glyph glyph-name="iacute" unicode="&#xed;" horiz-adv-x="464" 
d="M111 0v1044h243v-1044h-243zM125 1176l125 280h246l-179 -280h-192z" />
    <glyph glyph-name="icircumflex" unicode="&#xee;" horiz-adv-x="464" 
d="M-37 1176l152 280h241l152 -280h-195l-75 167h-5l-75 -167h-195zM111 0v1044h243v-1044h-243z" />
    <glyph glyph-name="idieresis" unicode="&#xef;" horiz-adv-x="464" 
d="M-14 1217v239h182v-239h-182zM111 0v1044h243v-1044h-243zM301 1217v239h182v-239h-182z" />
    <glyph glyph-name="eth" unicode="&#xf0;" horiz-adv-x="940" 
d="M61 477q0 126 44.5 233.5t125 171.5t179.5 64q34 0 64.5 -7.5t49.5 -18t33.5 -21t20.5 -17.5l6 -8l6 5q-37 133 -148 229l-313 -168l4 160l184 96q-89 63 -188 94l66 199q205 -55 356 -174l254 137l-4 -160l-144 -84q102 -111 159.5 -272.5t57.5 -341.5
q0 -121 -23.5 -228.5t-70.5 -197t-127.5 -141.5t-185.5 -52q-97 0 -176.5 43.5t-128.5 115.5t-75 160.5t-26 182.5zM309 469q0 -70 14.5 -131.5t50.5 -105.5t87 -44q44 0 78 30.5t52.5 80t28 103t9.5 106.5q0 117 -40 182.5t-112 65.5q-82 0 -125 -80.5t-43 -206.5z" />
    <glyph glyph-name="ntilde" unicode="&#xf1;" horiz-adv-x="1003" 
d="M111 0v1044h235v-69l-4 -66h4q35 66 102.5 113t174.5 47q130 0 204 -85.5t74 -258.5v-725h-246v682q0 156 -110 156q-61 0 -106 -45t-65 -104.5t-20 -119.5v-569h-243zM213 1178q0 139 47 210.5t137 71.5q44 0 78.5 -21t52.5 -45.5t39 -45.5t41 -21q56 0 56 127h161
q0 -138 -47 -210.5t-135 -72.5q-36 0 -65 14t-48 33.5t-34.5 39t-32 33.5t-33.5 14q-28 0 -41.5 -35.5t-13.5 -91.5h-162z" />
    <glyph glyph-name="ograve" unicode="&#xf2;" horiz-adv-x="1026" 
d="M59 522q0 242 126 394.5t329 152.5t328 -153t125 -394t-125 -394t-328 -153t-329 152.5t-126 394.5zM231 1456h246l127 -280h-194zM307 522q0 -152 54.5 -243t152.5 -91q97 0 151 91t54 243t-54 243t-151 91q-98 0 -152.5 -91t-54.5 -243z" />
    <glyph glyph-name="oacute" unicode="&#xf3;" horiz-adv-x="1026" 
d="M59 522q0 242 126 394.5t329 152.5t328 -153t125 -394t-125 -394t-328 -153t-329 152.5t-126 394.5zM307 522q0 -152 54.5 -243t152.5 -91q97 0 151 91t54 243t-54 243t-151 91q-98 0 -152.5 -91t-54.5 -243zM403 1176l125 280h246l-178 -280h-193z" />
    <glyph glyph-name="ocircumflex" unicode="&#xf4;" horiz-adv-x="1026" 
d="M59 522q0 242 126 394.5t329 152.5t328 -153t125 -394t-125 -394t-328 -153t-329 152.5t-126 394.5zM242 1176l151 280h242l151 -280h-194l-76 167h-4l-76 -167h-194zM307 522q0 -152 54.5 -243t152.5 -91q97 0 151 91t54 243t-54 243t-151 91q-98 0 -152.5 -91
t-54.5 -243z" />
    <glyph glyph-name="otilde" unicode="&#xf5;" horiz-adv-x="1026" 
d="M59 522q0 242 126 394.5t329 152.5t328 -153t125 -394t-125 -394t-328 -153t-329 152.5t-126 394.5zM203 1178q0 139 47 210.5t137 71.5q44 0 78.5 -21t52.5 -45.5t39 -45.5t41 -21q55 0 55 127h162q0 -138 -47 -210.5t-135 -72.5q-36 0 -65 14t-48 33.5t-34.5 39
t-32 33.5t-33.5 14q-28 0 -41.5 -35.5t-13.5 -91.5h-162zM307 522q0 -152 54.5 -243t152.5 -91q97 0 151 91t54 243t-54 243t-151 91q-98 0 -152.5 -91t-54.5 -243z" />
    <glyph glyph-name="odieresis" unicode="&#xf6;" horiz-adv-x="1026" 
d="M59 522q0 242 126 394.5t329 152.5t328 -153t125 -394t-125 -394t-328 -153t-329 152.5t-126 394.5zM264 1217v239h182v-239h-182zM307 522q0 -152 54.5 -243t152.5 -91q97 0 151 91t54 243t-54 243t-151 91q-98 0 -152.5 -91t-54.5 -243zM580 1217v239h182v-239h-182z
" />
    <glyph glyph-name="divide" unicode="&#xf7;" 
d="M76 483v203h848v-203h-848zM393 53v223h211v-223h-211zM393 895v223h211v-223h-211z" />
    <glyph glyph-name="oslash" unicode="&#xf8;" horiz-adv-x="1026" 
d="M59 522q0 242 126 394.5t329 152.5q117 0 203 -51l55 106l98 -59l-61 -115q158 -158 158 -428q0 -241 -125 -394t-328 -153q-120 0 -207 50l-61 -115l-96 59l65 123q-156 153 -156 430zM307 522q0 -125 37 -198l266 501q-39 31 -96 31q-98 0 -152.5 -91t-54.5 -243z
M414 217q45 -29 100 -29q98 0 151.5 90.5t53.5 243.5q0 129 -35 203z" />
    <glyph glyph-name="ugrave" unicode="&#xf9;" horiz-adv-x="997" 
d="M102 319v725h246v-682q0 -155 111 -155q56 0 99.5 43.5t64 103t20.5 119.5v571h244v-1044h-236v70l4 65h-4q-22 -40 -52 -72.5t-87.5 -60t-128.5 -27.5q-132 0 -206.5 86t-74.5 258zM215 1456h246l127 -280h-195z" />
    <glyph glyph-name="uacute" unicode="&#xfa;" horiz-adv-x="997" 
d="M102 319v725h246v-682q0 -155 111 -155q56 0 99.5 43.5t64 103t20.5 119.5v571h244v-1044h-236v70l4 65h-4q-22 -40 -52 -72.5t-87.5 -60t-128.5 -27.5q-132 0 -206.5 86t-74.5 258zM385 1176l125 280h246l-178 -280h-193z" />
    <glyph glyph-name="ucircumflex" unicode="&#xfb;" horiz-adv-x="997" 
d="M102 319v725h246v-682q0 -155 111 -155q56 0 99.5 43.5t64 103t20.5 119.5v571h244v-1044h-236v70l4 65h-4q-22 -40 -52 -72.5t-87.5 -60t-128.5 -27.5q-132 0 -206.5 86t-74.5 258zM223 1176l152 280h241l152 -280h-195l-75 167h-4l-76 -167h-195z" />
    <glyph glyph-name="udieresis" unicode="&#xfc;" horiz-adv-x="997" 
d="M102 319v725h246v-682q0 -155 111 -155q56 0 99.5 43.5t64 103t20.5 119.5v571h244v-1044h-236v70l4 65h-4q-22 -40 -52 -72.5t-87.5 -60t-128.5 -27.5q-132 0 -206.5 86t-74.5 258zM246 1217v239h182v-239h-182zM561 1217v239h182v-239h-182z" />
    <glyph glyph-name="yacute" unicode="&#xfd;" horiz-adv-x="897" 
d="M8 1044h262l158 -600q5 -24 10.5 -59t7.5 -59l3 -23h8q10 84 20 137l137 604h256l-335 -1189q-40 -142 -129.5 -213.5t-194.5 -71.5q-46 0 -90.5 14t-66.5 28l-21 13l67 187q48 -35 97 -35q40 0 76.5 36.5t58.5 108.5l22 84zM342 1176l125 280h246l-178 -280h-193z" />
    <glyph glyph-name="thorn" unicode="&#xfe;" horiz-adv-x="1007" 
d="M111 -410v1864h243v-448l-4 -72h4q28 64 89 99.5t141 35.5q173 0 266.5 -148.5t93.5 -394.5q0 -253 -100.5 -402t-268.5 -149q-72 0 -131 31t-90 90h-4q4 -37 4 -88v-418h-243zM348 522q0 -334 172 -334q86 0 132 85.5t46 244.5q0 157 -43.5 245.5t-130.5 88.5
q-176 0 -176 -330z" />
    <glyph glyph-name="ydieresis" unicode="&#xff;" horiz-adv-x="897" 
d="M8 1044h262l158 -600q5 -24 10.5 -59t7.5 -59l3 -23h8q10 84 20 137l137 604h256l-335 -1189q-40 -142 -129.5 -213.5t-194.5 -71.5q-46 0 -90.5 14t-66.5 28l-21 13l67 187q48 -35 97 -35q40 0 76.5 36.5t58.5 108.5l22 84zM203 1217v239h182v-239h-182zM518 1217v239
h182v-239h-182z" />
    <glyph glyph-name="OE" unicode="&#x152;" horiz-adv-x="1540" 
d="M70 737q0 217 70.5 385t203.5 262.5t309 94.5q89 0 160 -25h645v-221h-444v-389h356v-221h-356v-402h467v-221h-668q-71 -25 -160 -25q-176 0 -309 97.5t-203.5 270t-70.5 394.5zM326 737q0 -246 87.5 -391t239.5 -145q69 0 113 18v1018q-55 16 -113 16
q-152 0 -239.5 -139.5t-87.5 -376.5z" />
    <glyph glyph-name="oe" unicode="&#x153;" horiz-adv-x="1572" 
d="M59 522q0 241 126.5 394t332.5 153q208 0 316 -195h4q46 96 126 145.5t179 49.5q74 0 134.5 -25t102.5 -69t71 -105t42.5 -132t13.5 -150l-4 -111h-532q8 -147 76 -217t167 -70q62 0 120.5 24.5t101.5 68.5l63 -187q-51 -58 -138 -89.5t-179 -31.5q-110 0 -198.5 50
t-139.5 151h-4q-112 -201 -324 -201q-205 0 -331 153t-126 394zM307 524q0 -151 54.5 -243.5t152.5 -92.5q97 0 151 92t54 242q0 151 -53.5 242.5t-151.5 91.5t-152.5 -91t-54.5 -241zM969 641h305q-3 233 -141 233q-73 0 -114 -62.5t-50 -170.5z" />
    <glyph glyph-name="Ydieresis" unicode="&#x178;" horiz-adv-x="989" 
d="M-2 1454h274l162 -426q15 -40 29.5 -88t21.5 -76l7 -28h6q26 102 59 192l160 426h274l-373 -846v-608h-247v608zM246 1591v240h182v-240h-182zM561 1591v240h182v-240h-182z" />
    <glyph glyph-name="circumflex" unicode="&#x2c6;" horiz-adv-x="770" 
d="M113 1550l151 281h242l151 -281h-194l-76 168h-4l-76 -168h-194z" />
    <glyph glyph-name="tilde" unicode="&#x2dc;" horiz-adv-x="770" 
d="M78 1552q0 139 47 211t137 72q44 0 78.5 -21t52.5 -45.5t39 -45.5t41 -21q55 0 55 127h162q0 -138 -47 -210.5t-135 -72.5q-36 0 -65 13.5t-48 33t-34.5 39.5t-32 33.5t-33.5 13.5q-28 0 -41.5 -35.5t-13.5 -91.5h-162z" />
    <glyph glyph-name="uni2000" unicode="&#x2000;" horiz-adv-x="924" 
 />
    <glyph glyph-name="uni2001" unicode="&#x2001;" horiz-adv-x="1849" 
 />
    <glyph glyph-name="uni2002" unicode="&#x2002;" horiz-adv-x="924" 
 />
    <glyph glyph-name="uni2003" unicode="&#x2003;" horiz-adv-x="1849" 
 />
    <glyph glyph-name="uni2004" unicode="&#x2004;" horiz-adv-x="616" 
 />
    <glyph glyph-name="uni2005" unicode="&#x2005;" horiz-adv-x="462" 
 />
    <glyph glyph-name="uni2006" unicode="&#x2006;" horiz-adv-x="308" 
 />
    <glyph glyph-name="uni2007" unicode="&#x2007;" horiz-adv-x="308" 
 />
    <glyph glyph-name="uni2008" unicode="&#x2008;" horiz-adv-x="231" 
 />
    <glyph glyph-name="uni2009" unicode="&#x2009;" horiz-adv-x="369" 
 />
    <glyph glyph-name="uni200A" unicode="&#x200a;" horiz-adv-x="102" 
 />
    <glyph glyph-name="uni2010" unicode="&#x2010;" horiz-adv-x="698" 
d="M106 471v229h486v-229h-486z" />
    <glyph glyph-name="uni2011" unicode="&#x2011;" horiz-adv-x="698" 
d="M106 471v229h486v-229h-486z" />
    <glyph glyph-name="figuredash" unicode="&#x2012;" horiz-adv-x="698" 
d="M106 471v229h486v-229h-486z" />
    <glyph glyph-name="endash" unicode="&#x2013;" horiz-adv-x="1130" 
d="M109 483v203h913v-203h-913z" />
    <glyph glyph-name="emdash" unicode="&#x2014;" horiz-adv-x="1439" 
d="M104 483v203h1231v-203h-1231z" />
    <glyph glyph-name="quoteleft" unicode="&#x2018;" horiz-adv-x="450" 
d="M80 1030l133 449h166l-80 -449h-219z" />
    <glyph glyph-name="quoteright" unicode="&#x2019;" horiz-adv-x="438" 
d="M88 1032l82 449h217l-129 -449h-170z" />
    <glyph glyph-name="quotesinglbase" unicode="&#x201a;" horiz-adv-x="454" 
d="M59 -182l82 448h211l-131 -448h-162z" />
    <glyph glyph-name="quotedblleft" unicode="&#x201c;" horiz-adv-x="743" 
d="M80 1030l133 449h168l-80 -449h-221zM373 1030l131 449h170l-82 -449h-219z" />
    <glyph glyph-name="quotedblright" unicode="&#x201d;" horiz-adv-x="731" 
d="M88 1032l82 449h219l-131 -449h-170zM381 1032l80 449h219l-131 -449h-168z" />
    <glyph glyph-name="quotedblbase" unicode="&#x201e;" horiz-adv-x="737" 
d="M59 -182l82 448h211l-131 -448h-162zM344 -182l80 448h213l-131 -448h-162z" />
    <glyph glyph-name="bullet" unicode="&#x2022;" horiz-adv-x="841" 
d="M139 596q0 145 78.5 243.5t202.5 98.5q125 0 203.5 -98.5t78.5 -243.5t-78.5 -243.5t-203.5 -98.5q-124 0 -202.5 98.5t-78.5 243.5z" />
    <glyph glyph-name="ellipsis" unicode="&#x2026;" horiz-adv-x="1413" 
d="M106 0v260h228v-260h-228zM594 0v260h227v-260h-227zM1081 0v260h228v-260h-228z" />
    <glyph glyph-name="uni202F" unicode="&#x202f;" horiz-adv-x="369" 
 />
    <glyph glyph-name="guilsinglleft" unicode="&#x2039;" horiz-adv-x="626" 
d="M66 578l258 421h227l-258 -421l258 -420h-227z" />
    <glyph glyph-name="guilsinglright" unicode="&#x203a;" horiz-adv-x="626" 
d="M76 158l258 420l-258 421h227l258 -421l-258 -420h-227z" />
    <glyph glyph-name="uni205F" unicode="&#x205f;" horiz-adv-x="462" 
 />
    <glyph glyph-name="Euro" unicode="&#x20ac;" horiz-adv-x="935" 
d="M35 518v135h104q-6 87 2 166h-106v135h123q49 236 194.5 380.5t362.5 144.5q76 0 166 -23l-50 -237q-58 20 -131 20q-100 0 -176.5 -76t-107.5 -209h375l-25 -135h-365q-4 -104 5 -166h331l-22 -135h-281q15 -60 37.5 -109.5t57 -94t86 -70t114.5 -25.5q60 0 123 21
l43 -236q-8 -3 -32 -9t-69.5 -13t-86.5 -7q-211 0 -356.5 149t-192.5 394h-123z" />
    <glyph glyph-name="trademark" unicode="&#x2122;" horiz-adv-x="1632" 
d="M104 1286v168h635v-168h-225v-739h-182v739h-228zM770 547l55 907h191l108 -418l17 -100h8q8 67 16 100l111 418h188l54 -907h-181l-20 465l6 118h-10l-99 -417h-139l-98 417h-10q6 -87 6 -118l-23 -465h-180z" />
    <glyph glyph-name="uniE000" unicode="&#xe000;" horiz-adv-x="1044" 
d="M0 0v1044h1044v-1044h-1044z" />
    </font>
</defs>
</svg>
