<?xml version="1.0" standalone="no"?>
<!DOCTYPE svg PUBLIC "-//W3C//DTD SVG 1.1//EN" "http://www.w3.org/Graphics/SVG/1.1/DTD/svg11.dtd" >
<svg xmlns="http://www.w3.org/2000/svg" xmlns:xlink="http://www.w3.org/1999/xlink" version="1.1">
<metadata>
Created by FontForge 20150824 at Thu Oct  6 22:37:34 2016
 By Everything Fonts
Copyright (c) 2009 by Jos Buivenga. All rights reserved.
</metadata>
<defs>
<font id="museo_slab_500italicwebfont" horiz-adv-x="1255" >
  <font-face 
    font-family="museo_slab_500italicwebfont"
    font-weight="400"
    font-stretch="normal"
    units-per-em="2048"
    panose-1="2 0 0 0 0 0 0 0 0 0"
    ascent="1536"
    descent="-512"
    x-height="1036"
    cap-height="1446"
    bbox="-231 -444 2195 1837"
    underline-thickness="102"
    underline-position="-306"
    unicode-range="U+000D-FB04"
  />
<missing-glyph horiz-adv-x="748" 
d="M68 0v1365h544v-1365h-544zM136 68h408v1229h-408v-1229z" />
    <glyph glyph-name="uniFB01" unicode="fi" horiz-adv-x="1302" 
d="M115 883l30 153h172l11 45q19 97 62 169.5t90.5 111.5t107 62t103 29.5t87.5 6.5q24 0 46.5 -1.5t33.5 -2.5l10 -2l-34 -162q-25 4 -60 4q-204 0 -248 -211l-10 -49h641l-143 -733q-8 -46 -8 -63q0 -51 25 -70.5t69 -19.5l47 4l-29 -154q-47 -4 -82 -4q-36 0 -64 3
t-62 15t-56 32.5t-37.5 58.5t-15.5 90q0 32 10 90l119 598h-443l-172 -883h-198l172 883h-174zM993 1243l41 203h209l-41 -203h-209z" />
    <glyph glyph-name="uniFB02" unicode="fl" horiz-adv-x="1314" 
d="M115 883l28 153h172l9 37q83 406 540 406q95 0 189 -13.5t141 -27.5l47 -13l-215 -1112q-10 -42 -10 -69q0 -52 24.5 -69t69.5 -17l49 4l-33 -164q-40 -4 -79 -4q-236 0 -236 207q0 36 10 94l197 1008q-59 20 -172 20q-46 0 -84.5 -6t-78.5 -22.5t-70 -43.5t-54 -71.5
t-35 -104.5l-8 -39h250l-29 -153h-250l-172 -883h-198l170 883h-172z" />
    <glyph glyph-name="uniFB03" unicode="ffi" horiz-adv-x="1970" 
d="M115 883l30 153h170l11 45q14 70 40.5 128t57.5 96.5t70.5 67.5t76 45t77 26t70.5 13t60 3q24 0 46.5 -1.5t33.5 -2.5l10 -2l-34 -162q-25 4 -60 4q-204 0 -248 -211l-10 -49h469l8 45q14 70 40.5 128t58 96.5t71 67.5t76 45t77.5 26t71.5 13t60.5 3q23 0 45 -1.5
t33 -2.5l10 -2l-35 -162q-24 4 -59 4q-204 0 -248 -211l-10 -49h641l-144 -733q-8 -46 -8 -63q0 -51 25 -70.5t69 -19.5l48 4l-29 -154q-47 -4 -82 -4q-36 0 -63.5 3t-62 15t-57 32.5t-38 58.5t-15.5 90q0 26 11 90l118 598h-442l-172 -883h-199l170 883h-467l-172 -883
h-198l170 883h-172zM1661 1243l41 203h209l-41 -203h-209z" />
    <glyph glyph-name="uniFB04" unicode="ffl" horiz-adv-x="1982" 
d="M115 883l30 153h170l11 45q14 70 40.5 128t57.5 96.5t70.5 67.5t76 45t77 26t70.5 13t60 3q24 0 46.5 -1.5t33.5 -2.5l10 -2l-34 -162q-25 4 -60 4q-204 0 -248 -211l-10 -49h469l6 37q83 406 543 406q94 0 187.5 -13.5t140.5 -27.5l47 -13l-215 -1112q-8 -50 -8 -69
q0 -52 23.5 -69t68.5 -17l49 4l-33 -164q-39 -4 -80 -4q-235 0 -235 207q0 36 10 94l197 1008q-60 20 -173 20q-58 0 -105 -10.5t-92.5 -36t-77.5 -76.5t-46 -125l-8 -39h250l-29 -153h-250l-172 -883h-199l170 883h-467l-172 -883h-198l170 883h-172z" />
    <glyph glyph-name=".notdef" horiz-adv-x="748" 
d="M68 0v1365h544v-1365h-544zM136 68h408v1229h-408v-1229z" />
    <glyph glyph-name="glyph1" horiz-adv-x="2048" 
 />
    <glyph glyph-name="glyph1" horiz-adv-x="2048" 
 />
    <glyph glyph-name="uni000D" unicode="&#xd;" horiz-adv-x="2048" 
 />
    <glyph glyph-name="space" unicode=" " horiz-adv-x="512" 
 />
    <glyph glyph-name="exclam" unicode="!" horiz-adv-x="514" 
d="M35 0l41 201h205l-39 -201h-207zM125 397l190 1049h207l-219 -1049h-178z" />
    <glyph glyph-name="quotedbl" unicode="&#x22;" horiz-adv-x="712" 
d="M215 1036l84 434h156l-84 -434h-156zM502 1036l86 434h155l-84 -434h-157z" />
    <glyph glyph-name="numbersign" unicode="#" horiz-adv-x="1470" 
d="M45 391l53 152h264l130 344h-263l56 149h262l151 410h170l-151 -410h317l152 410h170l-152 -410h262l-53 -149h-264l-129 -344h262l-55 -152h-262l-144 -391h-170l144 391h-318l-143 -391h-170l143 391h-262zM532 543h318l129 344h-317z" />
    <glyph glyph-name="dollar" unicode="$" horiz-adv-x="1112" 
d="M12 197l121 131q5 -6 15 -15.5t42.5 -34t68 -43t91 -34t111.5 -15.5q124 0 221.5 65.5t97.5 166.5q0 54 -32.5 97t-84 74t-114.5 60.5t-125.5 63.5t-114 75t-84 103.5t-32.5 140.5q0 163 130 276t330 128l41 221h146l-41 -223q61 -7 116 -24t90.5 -36.5t62 -37.5
t38.5 -30l12 -12l-108 -145q-5 5 -14 12.5t-39.5 27t-63.5 34.5t-83.5 27t-102.5 12q-130 0 -220 -65t-90 -159q0 -52 32.5 -94.5t84.5 -72.5t114.5 -59t125 -62.5t114.5 -73.5t84.5 -101.5t32.5 -138.5q0 -167 -132.5 -290t-336.5 -138l-39 -217h-145l41 223
q-71 9 -134.5 31t-103 47t-69 49t-42.5 40z" />
    <glyph glyph-name="percent" unicode="%" horiz-adv-x="1564" 
d="M20 0l1366 1446h205l-1368 -1446h-203zM197 1133q0 129 109 233t245 104q124 0 200 -75.5t76 -194.5q0 -131 -109 -233.5t-245 -102.5q-125 0 -200.5 74t-75.5 195zM356 1137q0 -53 36 -87t95 -34q70 0 125.5 54t55.5 126q0 55 -35.5 90t-93.5 35q-70 0 -126.5 -55.5
t-56.5 -128.5zM780 244q0 129 109.5 233.5t247.5 104.5q124 0 200 -76t76 -195q0 -131 -110 -233.5t-246 -102.5q-124 0 -200.5 74.5t-76.5 194.5zM942 248q0 -53 35 -87t94 -34q71 0 125.5 53.5t54.5 126.5q0 55 -35.5 90t-93.5 35q-69 0 -124.5 -56t-55.5 -128z" />
    <glyph glyph-name="ampersand" unicode="&#x26;" horiz-adv-x="1351" 
d="M59 356q0 139 95 260t245 162v4q-6 2 -15.5 7t-34 24.5t-43.5 45t-34.5 71t-15.5 100.5q0 133 71.5 235t184 153.5t244.5 51.5q47 0 95.5 -7t73.5 -14l25 -7l-78 -158q-55 14 -112 14q-120 0 -209.5 -75t-89.5 -199q0 -178 225 -178h268l41 201h199l-39 -201h191
l-33 -168h-193l-37 -197q-50 -255 -196 -380.5t-371 -125.5q-214 0 -335.5 105.5t-121.5 275.5zM270 375q0 -100 67 -159.5t185 -59.5q142 0 237 83t128 250l35 189h-275q-98 0 -181.5 -32.5t-139.5 -103t-56 -167.5z" />
    <glyph glyph-name="quotesingle" unicode="'" horiz-adv-x="425" 
d="M215 1036l84 434h160l-86 -434h-158z" />
    <glyph glyph-name="parenleft" unicode="(" horiz-adv-x="653" 
d="M133 354q0 653 422 1151h182q-428 -530 -428 -1155q0 -277 97 -545h-168q-105 267 -105 549z" />
    <glyph glyph-name="parenright" unicode=")" horiz-adv-x="657" 
d="M-61 -195q426 534 426 1156q0 288 -97 544h168q105 -263 105 -549q0 -651 -422 -1151h-180z" />
    <glyph glyph-name="asterisk" unicode="*" horiz-adv-x="989" 
d="M180 1090l88 167l250 -102l43 291h187l-74 -291l295 102l24 -174l-303 -79v-5l135 -221l-155 -106l-117 243h-4l-205 -241l-133 108l227 230v4z" />
    <glyph glyph-name="plus" unicode="+" 
d="M66 504l28 160h459l98 503h168l-98 -503h457l-31 -160h-457l-98 -504h-168l98 504h-456z" />
    <glyph glyph-name="comma" unicode="," horiz-adv-x="546" 
d="M-117 -254l236 469h209l-281 -469h-164z" />
    <glyph glyph-name="hyphen" unicode="-" horiz-adv-x="976" 
d="M166 496l33 176h598l-33 -176h-598z" />
    <glyph glyph-name="period" unicode="." horiz-adv-x="528" 
d="M43 0l41 215h213l-41 -215h-213z" />
    <glyph glyph-name="slash" unicode="/" horiz-adv-x="882" 
d="M-49 -86l833 1610h189l-834 -1610h-188z" />
    <glyph glyph-name="zero" unicode="0" horiz-adv-x="1284" 
d="M123 453q0 83 10 173.5t33.5 190.5t58.5 192.5t88.5 177t119 147t155 99.5t192.5 37q426 0 426 -477q0 -83 -10 -173.5t-33.5 -190.5t-58.5 -192.5t-88.5 -177.5t-119 -147.5t-155 -99.5t-192.5 -37q-426 0 -426 478zM330 457q0 -299 223 -299q93 0 170.5 58.5t127 148.5
t83.5 203.5t48.5 218.5t14.5 198q0 303 -223 303q-89 0 -165 -56t-126 -144.5t-85.5 -200.5t-51.5 -221t-16 -209z" />
    <glyph glyph-name="one" unicode="1" horiz-adv-x="983" 
d="M-8 0l31 168h319l182 926l23 96h-4q-29 -35 -74 -72l-174 -145l-102 135l415 338h183l-250 -1278h315l-35 -168h-829z" />
    <glyph glyph-name="two" unicode="2" horiz-adv-x="1200" 
d="M6 0q2 101 34 190t84.5 156t120.5 127t142.5 109t149 95t142 92t119.5 93.5t82.5 105.5t30.5 122q0 92 -59 146t-160 54q-55 0 -109.5 -19.5t-94 -47.5t-71 -56t-47.5 -47l-16 -20l-135 108q8 11 22.5 28.5t64 62.5t103 79.5t136 63t166.5 28.5q187 0 301 -98t114 -262
q0 -99 -44.5 -187t-117 -155t-161 -127.5t-179.5 -115.5t-169 -108.5t-134.5 -117.5t-70.5 -131h573l39 192h178l-71 -360h-963z" />
    <glyph glyph-name="three" unicode="3" horiz-adv-x="1171" 
d="M4 168l119 139q5 -6 15 -16t42.5 -36t68 -45.5t90 -35.5t110.5 -16q147 0 254.5 94t107.5 229q0 105 -76 162t-198 57l-91 -4l-26 107l430 428q12 12 27 24.5t25 18.5l9 6v4q-44 -6 -73 -6h-389l-37 -184h-179l70 352h883l-29 -141l-471 -463q45 -6 88 -19t89.5 -40
t81 -63.5t57 -94t22.5 -127.5q0 -101 -43 -195.5t-117.5 -167t-183 -116.5t-231.5 -44q-81 0 -156.5 20t-125.5 48.5t-88.5 56.5t-56.5 48z" />
    <glyph glyph-name="four" unicode="4" horiz-adv-x="1234" 
d="M14 387l25 127l842 932h239l-176 -895h197l-31 -164h-197l-75 -387h-201l76 387h-699zM276 551h469l111 567q4 22 11.5 49.5t13.5 44.5l6 17h-6q-33 -51 -72 -96l-533 -578v-4z" />
    <glyph glyph-name="five" unicode="5" horiz-adv-x="1163" 
d="M12 164l119 133q5 -6 13.5 -15t38.5 -33t63 -42.5t85 -33.5t107 -15q99 0 187.5 45t143 125t54.5 176q0 114 -76 180t-202 66q-65 0 -130.5 -17.5t-98.5 -34.5l-33 -18l-115 45l215 721h745l-69 -352h-178l37 184h-392l-98 -320q-6 -22 -13.5 -42t-11.5 -30l-4 -9h4
q82 41 199 41q190 0 311 -113t121 -297q0 -144 -82.5 -267.5t-221 -194.5t-298.5 -71q-59 0 -114 10.5t-96 27t-76.5 36.5t-59.5 40.5t-41 37t-25 27.5z" />
    <glyph glyph-name="six" unicode="6" horiz-adv-x="1234" 
d="M111 502q0 80 17 170t52.5 184t84.5 183t118 167t149.5 137t181.5 93t210 34q79 0 150.5 -15t103.5 -31l32 -15l-86 -166q-9 5 -26.5 13t-70.5 21t-107 13q-98 0 -187 -42t-156 -113t-116.5 -156t-79.5 -180h4q57 62 148 99.5t184 37.5q184 0 290.5 -109t106.5 -282
q0 -84 -24 -166.5t-71.5 -155t-112 -128t-151.5 -88t-184 -32.5q-208 0 -334 142.5t-126 384.5zM317 479q0 -127 73 -224t192 -97q138 0 231.5 110t93.5 264q0 106 -64.5 170t-185.5 64q-81 0 -158.5 -35.5t-129.5 -103t-52 -148.5z" />
    <glyph glyph-name="seven" unicode="7" horiz-adv-x="1124" 
d="M84 0l836 1214q14 19 27.5 35.5t20.5 23.5l7 7v4q-37 -6 -84 -6h-498l-37 -184h-178l70 352h991l-27 -139l-907 -1307h-221z" />
    <glyph glyph-name="eight" unicode="8" horiz-adv-x="1241" 
d="M70 356q0 252 323 451q-133 98 -133 244q0 78 35 152.5t98 134t160.5 96t212.5 36.5q193 0 304.5 -89t111.5 -240q0 -215 -258 -439q159 -105 159 -266q0 -188 -162.5 -324.5t-398.5 -136.5q-202 0 -327 105t-125 276zM281 379q0 -104 71.5 -164.5t182.5 -60.5
q83 0 159 32t127 97t51 147q0 37 -16 69t-39 54.5t-61.5 47t-71 40t-81.5 39t-79 39.5q-243 -155 -243 -340zM463 1053q0 -29 9 -55t28.5 -48t39 -39.5t54 -36.5t58 -31.5t65.5 -32.5t65 -32q15 13 33.5 30t49.5 52.5t54.5 72.5t41.5 86.5t18 96.5q0 83 -58.5 130.5
t-160.5 47.5q-128 0 -212.5 -70t-84.5 -171z" />
    <glyph glyph-name="nine" unicode="9" horiz-adv-x="1236" 
d="M74 39l84 164q9 -5 26 -12.5t69.5 -20t104.5 -12.5q98 0 187.5 42t156.5 112.5t117 156t80 180.5h-4q-58 -62 -148.5 -98.5t-185.5 -36.5q-184 0 -290.5 109t-106.5 280q0 104 38.5 205t107 182t172.5 130.5t225 49.5q211 0 336.5 -141.5t125.5 -384.5q0 -94 -24.5 -200
t-69.5 -215t-116.5 -208t-159 -176.5t-203 -123.5t-242.5 -46q-77 0 -147 16t-101 32zM371 913q0 -104 63.5 -166.5t183.5 -62.5q80 0 159 35t132.5 102t53.5 146q0 128 -73 225.5t-190 97.5q-139 0 -234 -110.5t-95 -266.5z" />
    <glyph glyph-name="colon" unicode=":" horiz-adv-x="616" 
d="M84 0l41 215h213l-41 -215h-213zM244 821l41 215h213l-41 -215h-213z" />
    <glyph glyph-name="semicolon" unicode=";" horiz-adv-x="628" 
d="M-86 -254l227 469h217l-280 -469h-164zM260 821l41 215h209l-43 -215h-207z" />
    <glyph glyph-name="less" unicode="&#x3c;" 
d="M100 516v135l955 426v-182l-731 -309v-4l731 -310v-182z" />
    <glyph glyph-name="equal" unicode="=" 
d="M131 309v160h977v-160h-977zM131 696v160h977v-160h-977z" />
    <glyph glyph-name="greater" unicode="&#x3e;" 
d="M199 90v182l731 310v4l-731 309v182l954 -426v-135z" />
    <glyph glyph-name="question" unicode="?" horiz-adv-x="968" 
d="M184 0l39 201h207l-41 -201h-205zM213 1356q7 5 19 13t51 28.5t79.5 36t99.5 28.5t116 13q167 0 273.5 -89t106.5 -239q0 -74 -24 -138.5t-63.5 -111.5t-87 -88.5t-98 -79t-93.5 -74t-75 -81t-42 -93.5l-16 -84h-195l19 97q13 66 46 124t75 100t89.5 81t92.5 74t81.5 71
t58.5 81.5t22 96.5q0 73 -53.5 119.5t-143.5 46.5q-59 0 -121.5 -21.5t-95.5 -42.5l-33 -22z" />
    <glyph glyph-name="at" unicode="@" horiz-adv-x="1624" 
d="M59 373q0 173 74 334.5t197.5 280.5t293.5 191t353 72q223 0 335.5 -97.5t112.5 -252.5q0 -42 -10 -94l-106 -551h147l-31 -150h-534q-174 0 -276.5 95t-102.5 237q0 84 37 163.5t102.5 140.5t163.5 98t211 37h213q2 20 2 36q0 73 -77 123.5t-208 50.5q-138 0 -268 -61
t-223 -160t-149 -229t-56 -264q0 -208 129 -339.5t350 -131.5l-30 -158q-188 0 -336 78.5t-231 222t-83 328.5zM715 449q0 -86 52.5 -139.5t143.5 -53.5h207l94 483h-202q-119 0 -207 -88t-88 -202z" />
    <glyph glyph-name="A" unicode="A" horiz-adv-x="1480" 
d="M-94 0l31 160h139l712 1286h230l209 -1286h141l-33 -160h-493l30 160h154l-49 321h-512l-176 -321h155l-32 -160h-506zM549 645h407l-77 502l-5 110h-6q-14 -51 -45 -110z" />
    <glyph glyph-name="B" unicode="B" horiz-adv-x="1402" 
d="M-6 0l31 160h180l219 1128h-182l32 158h625q149 0 242 -41q82 -34 128 -108.5t46 -172.5q0 -121 -67 -216t-177 -144v-4q85 -32 130.5 -107t45.5 -182q0 -143 -75.5 -254.5t-198.5 -167.5q-106 -49 -266 -49h-713zM410 168h303q114 0 190 49q61 40 99 108.5t38 147.5
q0 93 -54.5 145t-151.5 52h-326zM541 838h303q110 0 186 74.5t76 189.5q0 99 -66 143q-47 33 -137 33h-276z" />
    <glyph glyph-name="C" unicode="C" horiz-adv-x="1517" 
d="M117 606q0 175 71.5 335.5t190 276t278.5 184t332 68.5q59 0 125 -7t143 -27t134 -50t90 -82q24 -37 24 -82q0 -18 -4 -36l-37 -178h-186l20 116q3 12 3 23q0 33 -22 59q-29 35 -81.5 53t-105.5 26.5t-105 8.5q-136 0 -259 -56.5t-210 -150t-138.5 -216.5t-51.5 -253
q0 -206 118.5 -335t323.5 -129q58 0 119 10t119 29.5t99 54t50 78.5l23 110h188l-33 -168q-12 -63 -56 -114.5t-104 -84t-134 -54.5t-143.5 -31t-135.5 -9q-291 0 -468 175.5t-177 455.5z" />
    <glyph glyph-name="D" unicode="D" horiz-adv-x="1599" 
d="M-8 0l31 160h180l219 1128h-180l30 158h598q189 0 326 -47q162 -62 247 -195t85 -332q0 -256 -135 -477.5t-357 -320.5q-163 -74 -381 -74h-663zM408 168h235q182 0 318 65q162 83 260 253.5t98 369.5q0 288 -215 381q-93 41 -246 41h-233z" />
    <glyph glyph-name="E" unicode="E" horiz-adv-x="1300" 
d="M-6 0l31 160h180l219 1128h-182l32 158h1047l-66 -336h-178l33 168h-483l-90 -465h512l-35 -168h-510l-94 -477h518l33 174h180l-68 -342h-1079z" />
    <glyph glyph-name="F" unicode="F" horiz-adv-x="1191" 
d="M-6 0l31 160h180l219 1128h-182l32 158h1002l-68 -342h-178l33 166h-438l-93 -479h500l-35 -168h-499l-88 -463h194l-31 -160h-579z" />
    <glyph glyph-name="G" unicode="G" horiz-adv-x="1576" 
d="M115 604q0 174 69.5 333.5t187.5 276.5t282.5 186.5t346.5 69.5q70 0 144.5 -10t149 -32.5t130.5 -54.5t86 -81q22 -35 22 -76q0 -14 -3 -30l-35 -178h-188l20 106q3 12 3 23q0 33 -22 61q-29 36 -82.5 56t-111.5 30t-115 10q-142 0 -268.5 -57.5t-213.5 -152.5
t-138 -218t-51 -252q0 -206 123 -333t346 -127q57 0 120 9.5t126.5 29t109 56.5t55.5 85l39 190h-284l32 160h471l-80 -405q-16 -81 -80 -142.5t-155 -95t-185 -50t-186 -16.5q-304 0 -484.5 173.5t-180.5 455.5z" />
    <glyph glyph-name="H" unicode="H" horiz-adv-x="1740" 
d="M-8 0l31 160h180l219 1128h-180l30 158h568l-31 -158h-180l-94 -481h747l94 481h-182l31 158h569l-31 -158h-182l-221 -1128h182l-31 -160h-569l31 160h182l94 479h-747l-94 -479h182l-31 -160h-567z" />
    <glyph glyph-name="I" unicode="I" horiz-adv-x="786" 
d="M-8 0l31 160h180l219 1128h-180l30 158h568l-31 -158h-182l-219 -1128h182l-31 -160h-567z" />
    <glyph glyph-name="J" unicode="J" horiz-adv-x="1132" 
d="M0 317q0 37 7 79.5t13 66.5l7 24h196q-22 -82 -22 -145q0 -184 178 -184q44 0 84.5 14t78.5 42.5t66 80t41 119.5l170 874h-213l31 158h577l-30 -158h-160l-172 -889q-21 -110 -70 -194t-115 -133t-139.5 -73t-152.5 -24q-75 0 -141 20.5t-119 61t-84 107.5t-31 153z" />
    <glyph glyph-name="K" unicode="K" horiz-adv-x="1419" 
d="M-8 0l31 160h180l219 1128h-180l30 158h545l-31 -158h-159l-88 -454h176l403 454h-123l31 158h487l-30 -158h-140l-477 -530v-4q33 -20 58 -88l161 -416q17 -50 40 -72t77 -22l62 4l-31 -160q-32 -4 -98 -4q-60 0 -103 14t-71.5 44t-44.5 59t-33 75l-152 410
q-12 36 -35.5 52t-68.5 16h-121l-98 -506h178l-33 -160h-561z" />
    <glyph glyph-name="L" unicode="L" horiz-adv-x="1234" 
d="M-4 0l31 160h178l219 1118h-182l32 168h570l-33 -168h-182l-217 -1110h503l48 233h178l-80 -401h-1065z" />
    <glyph glyph-name="M" unicode="M" horiz-adv-x="1961" 
d="M-37 0l31 160h178l307 1128h-182l31 158h403l199 -881q5 -26 8 -52t4 -39v-13h4q20 45 53 104l543 881h416l-33 -158h-180l-133 -1128h180l-33 -160h-551l31 160h174l103 864q3 20 10 49.5t12 49.5l6 20h-6q-28 -70 -55 -111l-477 -760h-183l-184 760q-4 18 -6.5 46
t-2.5 46l-1 19h-4q-9 -74 -19 -119l-235 -864h174l-31 -160h-551z" />
    <glyph glyph-name="N" unicode="N" horiz-adv-x="1720" 
d="M-6 0l31 160h180l219 1128h-182l32 158h377l510 -1047q8 -17 15.5 -42t10.5 -41l3 -17h6q4 68 14 113l172 876h-184l31 158h571l-31 -158h-182l-252 -1288h-196l-512 1047q-8 18 -15.5 43t-10.5 41l-3 16h-6q-4 -68 -14 -113l-168 -874h184l-31 -160h-569z" />
    <glyph glyph-name="O" unicode="O" horiz-adv-x="1687" 
d="M115 606q0 115 33.5 226.5t92.5 206t141.5 175t179 137t207 88t222.5 31.5q185 0 328.5 -78.5t222 -218t78.5 -317.5q0 -174 -74 -338t-195 -282t-281.5 -189.5t-326.5 -71.5q-185 0 -328.5 81t-221.5 224.5t-78 325.5zM322 614q0 -201 121.5 -328.5t314.5 -127.5
q120 0 238.5 54.5t210 146t148 220t56.5 267.5q0 195 -121.5 319.5t-314.5 124.5q-122 0 -241 -54t-209.5 -143.5t-146.5 -216t-56 -262.5z" />
    <glyph glyph-name="P" unicode="P" horiz-adv-x="1347" 
d="M-8 0l31 160h182l219 1128h-182l32 158h658q137 0 215 -31q97 -37 156 -127t59 -219q0 -158 -86 -291.5t-227 -193.5q-98 -41 -242 -41h-324l-73 -383h182l-31 -160h-569zM516 711h285q98 0 166 32q84 39 135 124t51 190q0 142 -96 192q-60 29 -152 29h-278z" />
    <glyph glyph-name="Q" unicode="Q" horiz-adv-x="1685" 
d="M115 606q0 228 123.5 429t323 318t417.5 117q287 0 465 -172t178 -442q0 -177 -71.5 -333t-196.5 -281l133 -160l-131 -119l-133 170q-210 -158 -465 -158q-190 0 -337 81t-226.5 224.5t-79.5 325.5zM324 614q0 -201 121.5 -328.5t314.5 -127.5q182 0 344 114l-176 217
l129 117l172 -215q86 92 135 210t49 245q0 195 -121.5 319.5t-314.5 124.5q-123 0 -242 -54t-209.5 -143.5t-146 -216t-55.5 -262.5z" />
    <glyph glyph-name="R" unicode="R" horiz-adv-x="1441" 
d="M-8 0l31 160h182l219 1128h-182l32 158h637q170 0 258 -45q78 -41 124 -118t46 -187q0 -166 -103 -300t-275 -171v-7q33 -38 49 -77l112 -291q20 -51 42.5 -72.5t74.5 -21.5l59 4l-30 -160q-32 -4 -97 -4q-59 0 -101.5 14.5t-70.5 44.5t-44 58.5t-33 74.5l-117 314
q-18 49 -46 65.5t-83 16.5h-182l-84 -424h176l-31 -160h-563zM524 752h285q131 0 226 89t95 228q0 121 -77 170q-58 39 -185 39h-241z" />
    <glyph glyph-name="S" unicode="S" horiz-adv-x="1204" 
d="M59 297l29 143h188l-22 -112q-3 -14 -3 -26q1 -30 15 -54q20 -34 62 -53t91.5 -28t104.5 -9q143 0 234.5 73.5t91.5 190.5q0 54 -27 96t-71.5 68t-101.5 51.5t-116.5 46t-116.5 52.5t-101.5 69.5t-71.5 98.5t-27 138q0 82 29.5 152t81 120t121.5 85.5t151 53t168 17.5
q54 0 110.5 -8t113.5 -27.5t99 -47.5q41 -29 63 -73q14 -29 15 -62q0 -17 -4 -35l-32 -156h-189l19 100q2 10 2 19q1 24 -13 42q-18 26 -54 40.5t-75.5 21t-81.5 6.5q-134 0 -223.5 -64.5t-89.5 -170.5q0 -46 21.5 -82.5t58.5 -61t84.5 -46t100 -41t104.5 -41.5t99.5 -53
t84.5 -69.5t58.5 -96.5t21.5 -130q0 -139 -78 -245t-205 -160t-280 -54q-60 0 -122 9.5t-125.5 33.5t-110 59.5t-70.5 92.5q-16 37 -16 79q0 23 5 48z" />
    <glyph glyph-name="T" unicode="T" horiz-adv-x="1363" 
d="M143 1053l78 393h1241l-78 -393h-178l43 225h-338l-219 -1118h182l-30 -160h-568l31 160h180l220 1118h-340l-43 -225h-181z" />
    <glyph glyph-name="U" unicode="U" horiz-adv-x="1640" 
d="M197 1288l30 158h568l-31 -158h-182l-140 -719q-18 -106 -18 -147q0 -124 81 -194t226 -70q170 0 285 92q117 97 147 268l152 770h-182l30 158h570l-31 -158h-182l-154 -786q-28 -137 -94 -245t-164 -175q-159 -107 -383 -107q-225 0 -366.5 113.5t-141.5 310.5
q0 43 21 172l139 717h-180z" />
    <glyph glyph-name="V" unicode="V" horiz-adv-x="1458" 
d="M156 1288l30 158h508l-30 -158h-160l139 -952q3 -23 3.5 -51t-0.5 -45l-1 -17h6q20 62 45 113l510 952h-159l32 158h520l-30 -158h-142l-708 -1288h-217l-207 1288h-139z" />
    <glyph glyph-name="W" unicode="W" horiz-adv-x="2064" 
d="M164 1288l31 158h507l-30 -158h-172l41 -948l-6 -109h8q16 58 41 109l518 1106h174l86 -1106v-109h6q17 58 37 109l410 948h-173l31 158h522l-30 -158h-140l-575 -1288h-233l-82 1026q-2 27 -1 52.5t3 43.5l2 19h-9q-15 -64 -40 -115l-482 -1026h-233l-72 1288h-139z" />
    <glyph glyph-name="X" unicode="X" horiz-adv-x="1372" 
d="M-57 0l30 160h136l487 581l-252 547h-139l31 158h493l-31 -158h-153l168 -383l24 -57h4q16 24 45 57l306 383h-146l33 158h494l-31 -158h-135l-490 -586l254 -542h141l-32 -160h-492l31 160h151l-168 377l-26 61h-4q-20 -30 -47 -61l-301 -377h147l-33 -160h-495z" />
    <glyph glyph-name="Y" unicode="Y" horiz-adv-x="1335" 
d="M154 1288l30 158h490l-31 -158h-151l178 -454l18 -62h4q18 31 41 62l359 454h-150l31 158h502l-31 -158h-137l-537 -676l-88 -452h180l-31 -160h-567l31 160h182l88 452l-274 676h-137z" />
    <glyph glyph-name="Z" unicode="Z" horiz-adv-x="1300" 
d="M-2 0l27 135l940 1075q16 18 34.5 35.5t28.5 26.5l10 8v4q-41 -6 -82 -6h-524l-43 -225h-180l78 393h1042l-26 -133l-945 -1077q-16 -18 -34.5 -35.5t-28.5 -26.5l-10 -8v-4q41 6 82 6h555l47 233h178l-80 -401h-1069z" />
    <glyph glyph-name="bracketleft" unicode="[" horiz-adv-x="647" 
d="M45 -195l332 1700h338l-29 -149h-166l-270 -1399h166l-31 -152h-340z" />
    <glyph glyph-name="backslash" unicode="\" horiz-adv-x="864" 
d="M266 1524h168l207 -1610h-168z" />
    <glyph glyph-name="bracketright" unicode="]" horiz-adv-x="647" 
d="M-51 -195l28 152h164l271 1399h-164l31 149h339l-331 -1700h-338z" />
    <glyph glyph-name="asciicircum" unicode="^" 
d="M20 506l410 940h129l410 -940h-181l-294 721l-293 -721h-181z" />
    <glyph glyph-name="underscore" unicode="_" horiz-adv-x="1142" 
d="M-129 -160l31 160h1099l-28 -160h-1102z" />
    <glyph glyph-name="grave" unicode="`" horiz-adv-x="1021" 
d="M211 1806h221l160 -260h-178z" />
    <glyph glyph-name="a" unicode="a" horiz-adv-x="1140" 
d="M0 238q0 79 31.5 142.5t87 106t123.5 73t149.5 47t155 23.5t149.5 7h52q14 69 14 102q0 158 -189 158q-72 0 -149.5 -24.5t-118.5 -48.5l-41 -25l-51 153q7 4 20.5 11.5t55.5 26.5t85.5 33t108 26t125.5 12q75 0 137 -16.5t111.5 -51t77 -93t27.5 -136.5
q0 -64 -47.5 -273.5t-47.5 -250.5q0 -90 95 -90l47 4l-29 -154q-37 -4 -94 -4q-210 0 -213 188h-4q2 0 -14 -21.5t-48 -52.5t-74 -61.5t-104 -52t-127 -21.5q-129 0 -215 69.5t-86 193.5zM199 270q0 -64 40 -102.5t121 -38.5q60 0 120 31.5t105.5 81t79 108.5t48.5 117
l10 41h-53q-54 0 -105.5 -3.5t-122 -18t-121 -38.5t-86.5 -70t-36 -108z" />
    <glyph glyph-name="b" unicode="b" horiz-adv-x="1253" 
d="M59 0l250 1292h-174l31 154h371l-91 -469q-4 -22 -10.5 -45.5t-11.5 -35.5l-4 -13h4q56 79 150.5 128.5t195.5 49.5q183 0 285 -114.5t102 -311.5q0 -142 -48 -267t-127 -210t-181 -134t-209 -49q-109 0 -194 49t-122 140h-4q-2 -39 -10 -84l-16 -80h-187zM340 410
q0 -115 58 -189t175 -74q67 0 134 33t122.5 92t90 150.5t34.5 198.5q0 124 -62 195t-171 71q-105 0 -193.5 -67.5t-138 -177t-49.5 -232.5z" />
    <glyph glyph-name="c" unicode="c" horiz-adv-x="1140" 
d="M57 430q0 166 87.5 311t240.5 232.5t332 87.5q62 0 125.5 -13t124 -39.5t93.5 -76.5q24 -37 24 -81q0 -16 -3 -34l-24 -119h-176l14 70q1 7 1 15q0 31 -24 53q-30 28 -77 40.5t-99 12.5q-83 0 -163 -36t-140 -96t-96.5 -142.5t-36.5 -170.5q0 -136 82.5 -216.5
t226.5 -80.5q58 0 116 14t99 34t74 40t50 34l16 14l57 -154q-6 -6 -18.5 -16.5t-54.5 -37t-88.5 -47t-119.5 -37t-149 -16.5q-225 0 -359.5 125.5t-134.5 329.5z" />
    <glyph glyph-name="d" unicode="d" horiz-adv-x="1310" 
d="M61 399q0 143 47.5 268.5t126.5 210.5t182.5 134t215.5 49q104 0 185.5 -44.5t115.5 -133.5h4q2 38 10 75l64 334h-172l30 154h371l-221 -1143q-8 -46 -8 -63q0 -51 25 -70.5t69 -19.5l47 4l-29 -154q-45 -4 -86 -4q-106 0 -164 44q-55 41 -55 132v10h-4
q-56 -88 -154 -147.5t-210 -59.5q-185 0 -287.5 114t-102.5 310zM264 414q0 -124 62.5 -195.5t171.5 -71.5q105 0 193.5 70t137 179.5t48.5 228.5q0 115 -58.5 188.5t-173.5 73.5q-68 0 -135 -33t-122 -91.5t-89.5 -150t-34.5 -198.5z" />
    <glyph glyph-name="e" unicode="e" horiz-adv-x="1138" 
d="M61 418q0 171 77.5 318t217.5 236t310 89q193 0 293 -104.5t100 -278.5q0 -37 -8.5 -81.5t-16.5 -70.5l-8 -26h-754q-8 -35 -8 -74q0 -124 78 -201.5t217 -77.5q50 0 102.5 12.5t92 29.5t71.5 34.5t49 30.5l17 12l55 -155q-7 -6 -20 -15t-55 -32.5t-86 -41.5t-109 -32.5
t-127 -14.5q-224 0 -356 123t-132 320zM301 627h553q6 34 6 67q0 102 -54.5 155.5t-146.5 53.5q-116 0 -214 -73.5t-144 -202.5z" />
    <glyph glyph-name="f" unicode="f" horiz-adv-x="718" 
d="M115 883l30 153h170l11 45q14 70 40.5 128t57.5 96.5t70.5 67.5t76 45t77 26t70.5 13t60 3q24 0 46.5 -1.5t33.5 -2.5l10 -2l-34 -162q-25 4 -60 4q-204 0 -248 -211l-10 -49h250l-29 -153h-250l-172 -883h-198l170 883h-172z" />
    <glyph glyph-name="g" unicode="g" horiz-adv-x="1284" 
d="M4 -338l84 143q13 -8 36 -19t95.5 -29.5t145.5 -18.5q331 0 391 328q7 35 14.5 64t11.5 40l4 12h-4q-122 -170 -319 -170q-186 0 -290.5 115.5t-104.5 304.5q0 88 22.5 176.5t69 170t110 144.5t153 100.5t191.5 37.5q132 0 216.5 -51t103.5 -123h4q-2 14 4 43
q19 106 137 106h224l-29 -153h-115q-44 0 -53 -41l-156 -809q-25 -123 -83 -215.5t-137.5 -145t-167.5 -77.5t-185 -25q-210 0 -373 92zM270 446q0 -122 62.5 -192t177.5 -70q87 0 157.5 45.5t113 117.5t65 155t22.5 164q0 223 -237 223q-111 0 -195 -66t-125 -165.5
t-41 -211.5z" />
    <glyph glyph-name="h" unicode="h" horiz-adv-x="1316" 
d="M59 0l250 1292h-166l29 154h367l-103 -535q-4 -22 -10.5 -45t-11.5 -35l-4 -12h4q11 21 33 49t61.5 62.5t86.5 63t112 48t133 19.5q137 0 213.5 -70.5t76.5 -202.5q0 -69 -45 -291t-45 -257q0 -54 24 -72t69 -18l49 4l-31 -154q-39 -4 -88 -4q-33 0 -59.5 3t-59.5 15
t-55 31.5t-37.5 57t-15.5 87.5q0 48 44 267.5t44 271.5q0 73 -40 111.5t-114 38.5q-152 0 -270.5 -121t-151.5 -293l-92 -465h-197z" />
    <glyph glyph-name="i" unicode="i" horiz-adv-x="653" 
d="M104 883l31 153h371l-144 -733q-8 -46 -8 -63q0 -90 95 -90l47 4l-29 -154q-47 -4 -82 -4q-36 0 -64 3t-62 15t-56 32.5t-37.5 58.5t-15.5 90q0 32 10 90l119 598h-175zM342 1243l41 203h209l-41 -203h-209z" />
    <glyph glyph-name="j" unicode="j" horiz-adv-x="610" 
d="M-231 -418l32 160q16 -2 45 -2q27 0 53 4t61.5 18t63 37t52 66.5t35.5 101.5l176 916h-174l30 153h373l-207 -1061q-16 -83 -47 -149.5t-71 -108.5t-82.5 -71t-89.5 -43t-83.5 -19.5t-72.5 -5.5zM352 1243l39 203h209l-39 -203h-209z" />
    <glyph glyph-name="k" unicode="k" horiz-adv-x="1144" 
d="M57 0l252 1292h-172l29 154h373l-158 -809h131l264 246h-129l29 153h463l-31 -153h-121l-334 -312v-4q29 -23 56 -82l112 -247q18 -43 42 -64.5t73 -21.5l57 2l-28 -154q-28 -4 -91 -4q-58 0 -97.5 11.5t-66 41t-39 51t-33.5 69.5q-3 7 -5 11l-115 256q-12 28 -30.5 38.5
t-53.5 10.5h-82l-98 -485h-197z" />
    <glyph glyph-name="l" unicode="l" horiz-adv-x="604" 
d="M100 201q0 30 11 94l194 997h-174l31 154h370l-217 -1133q-10 -42 -10 -69q0 -52 24 -69t70 -17l50 4l-33 -164q-41 -4 -82 -4q-234 0 -234 207z" />
    <glyph glyph-name="m" unicode="m" horiz-adv-x="2019" 
d="M115 883l30 153h234q113 0 113 -86q0 -19 -10.5 -66.5t-20.5 -74.5h4q20 37 58.5 78.5t91.5 81.5t123 66t139 26q245 0 260 -252h4q62 110 172 181t235 71q133 0 209 -72t76 -203q0 -67 -45 -288.5t-45 -257.5q0 -54 23.5 -72t68.5 -18l49 4l-31 -154q-39 -4 -88 -4
q-33 0 -59.5 3t-59.5 15t-55 31.5t-37.5 57t-15.5 87.5q0 48 44 270t44 271q0 73 -33.5 111.5t-117.5 38.5q-92 0 -174 -61.5t-133 -153t-70 -193.5l-92 -473h-199l121 621q14 96 14 116q0 69 -33 106.5t-114 37.5q-72 0 -138.5 -36.5t-115.5 -96t-84 -133.5t-51 -152
l-91 -463h-198l164 840q1 5 1 10q0 33 -38 33h-129z" />
    <glyph glyph-name="n" unicode="n" horiz-adv-x="1376" 
d="M115 883l30 153h236q111 0 111 -88q0 -19 -10 -65.5t-21 -73.5h4q11 22 33 50.5t62 65t87.5 66t115.5 50t140 20.5q134 0 210.5 -70.5t76.5 -202.5q0 -69 -45 -291t-45 -257q0 -54 23.5 -72t68.5 -18l49 4l-31 -154q-41 -4 -88 -4q-33 0 -59.5 3t-59.5 15t-55 31.5
t-37.5 57t-15.5 87.5q0 48 44 267.5t44 271.5q0 74 -40 112t-116 38q-149 0 -268.5 -122t-152.5 -292l-91 -465h-198l164 838q1 6 1 12q0 33 -38 33h-129z" />
    <glyph glyph-name="o" unicode="o" horiz-adv-x="1284" 
d="M59 432q0 173 93 319t243 228t318 82q211 0 344 -126t133 -327q0 -131 -55 -250t-145.5 -202t-209 -132t-243.5 -49q-211 0 -344.5 127.5t-133.5 329.5zM262 440q0 -130 81 -211.5t210 -81.5q107 0 207 58.5t163.5 163.5t63.5 229q0 129 -81 210t-210 81
q-108 0 -208 -58.5t-163 -163t-63 -227.5z" />
    <glyph glyph-name="p" unicode="p" horiz-adv-x="1314" 
d="M37 -410l242 1248q1 6 1 12q0 33 -36 33h-129l30 153h232q59 0 82.5 -20.5t23.5 -59.5q0 -22 -20 -94h4q57 89 151 144t211 55q183 0 285.5 -114.5t102.5 -311.5q0 -142 -48 -267t-126.5 -210t-180.5 -134t-209 -49q-106 0 -188 46.5t-121 134.5h-4q-2 -44 -12 -97
l-92 -469h-199zM401 414q0 -116 59 -191.5t173 -75.5q68 0 135 33t122 92t89.5 150.5t34.5 198.5q0 125 -62 195.5t-172 70.5q-103 0 -191 -67.5t-138 -176.5t-50 -229z" />
    <glyph glyph-name="q" unicode="q" 
d="M61 397q0 144 47.5 269.5t127 211t183 134.5t214.5 49q112 0 193.5 -46.5t117.5 -137.5h4q0 28 8 71l17 88h188l-252 -1296h174l-30 -150h-373l94 473q4 24 11 48t11 37l5 12h-4q-52 -77 -140.5 -131t-205.5 -54q-184 0 -287 114t-103 308zM264 414q0 -124 62.5 -195.5
t171.5 -71.5q105 0 194 70t138 179.5t49 228.5q0 114 -59 188t-173 74q-68 0 -135.5 -33t-123 -91.5t-90 -150t-34.5 -198.5z" />
    <glyph glyph-name="r" unicode="r" horiz-adv-x="837" 
d="M113 883l32 153h234q59 0 84.5 -21.5t25.5 -66.5q0 -21 -12 -80.5t-24 -95.5h4q56 118 155.5 197.5t216.5 79.5q32 0 62 -5l-39 -196q-30 6 -55 6q-92 0 -179 -68t-146.5 -174.5t-82.5 -226.5l-74 -385h-198l162 838q1 6 1 12q0 33 -38 33h-129z" />
    <glyph glyph-name="s" unicode="s" horiz-adv-x="995" 
d="M10 231l19 103h174l-13 -68q-7 -32 7 -56.5t38 -38t58.5 -21.5t63 -10.5t57.5 -2.5q101 0 168 41.5t67 110.5q0 40 -27.5 70.5t-71 51t-96.5 40t-106.5 44t-97 55t-71 80t-27.5 113.5q0 101 65 175t163 108.5t212 34.5q91 0 167 -23q77 -22 123 -74q35 -39 35 -90
q0 -16 -4 -34l-22 -113h-174l14 74q6 29 -8.5 50t-43 31t-57 14.5t-59.5 4.5q-89 0 -152 -38t-63 -105q0 -40 27.5 -70.5t71.5 -50.5t97 -39t106 -42t97 -52.5t71.5 -77.5t27.5 -111q0 -151 -127.5 -245.5t-333.5 -94.5q-55 0 -110 8.5t-108.5 28.5t-91.5 48.5t-57 72.5
q-12 28 -12 60q0 18 4 38z" />
    <glyph glyph-name="t" unicode="t" horiz-adv-x="731" 
d="M86 883l31 153h178l55 285h193l-56 -285h250l-30 -153h-250l-92 -484q-9 -43 -9 -80q0 -163 172 -163l58 4l-33 -164q-33 -4 -66 -4q-52 0 -96.5 7.5t-89.5 28.5t-76.5 54t-51 87.5t-19.5 125.5q0 45 12 104l94 484h-174z" />
    <glyph glyph-name="u" unicode="u" horiz-adv-x="1363" 
d="M90 883l31 153h371l-119 -616q-17 -73 -17 -119q0 -71 36 -108t120 -37q99 0 189 61.5t147 154t76 193.5l61 318h-172l31 153h370l-143 -733q-6 -35 -6 -63q0 -51 24.5 -70.5t67.5 -19.5l49 4l-30 -154q-46 -4 -95 -4q-109 0 -163 56q-46 48 -46 137q0 16 2 34h-4
q-28 -44 -66 -84t-91 -79t-123.5 -62t-147.5 -23q-128 0 -209 67.5t-81 205.5q0 65 14 131l96 504h-172z" />
    <glyph glyph-name="v" unicode="v" horiz-adv-x="1193" 
d="M74 883l28 153h459l-31 -153h-133l103 -604q4 -20 5 -44.5t0 -38.5l-1 -14h6q16 52 41 97l338 604h-133l30 153h469l-28 -153h-131l-506 -883h-223l-162 883h-131z" />
    <glyph glyph-name="w" unicode="w" horiz-adv-x="1761" 
d="M76 883l30 153h457l-28 -153h-142l60 -602q2 -23 1.5 -44.5t-2.5 -36.5l-1 -16h6q14 54 32 97l377 753h183l77 -753q2 -23 1.5 -44.5t-1.5 -36.5l-2 -16h6q15 54 35 97l295 602h-139l29 153h471l-31 -153h-129l-438 -883h-224l-81 692q-2 21 -2 45.5t1 38.5l1 15h-7
q-14 -52 -37 -99l-352 -692h-221l-96 883h-129z" />
    <glyph glyph-name="x" unicode="x" horiz-adv-x="1153" 
d="M-41 0l29 154h143l326 385l-138 307q-11 22 -22.5 29.5t-36.5 7.5h-123l31 153h192q45 0 66.5 -15t40.5 -58l96 -232l23 -63h4q18 32 47 65l244 303h274l-29 -153h-147l-309 -361l131 -284q22 -45 46.5 -65.5t76.5 -20.5l69 2l-30 -154q-28 -4 -89 -4q-25 0 -46.5 2
t-40 8t-33 10.5t-28 16t-22 17.5t-19.5 22.5t-16 23t-14.5 27.5t-12.5 27t-13 30l-62 154l-24 63h-4q-18 -30 -45 -65l-265 -332h-270z" />
    <glyph glyph-name="y" unicode="y" horiz-adv-x="1212" 
d="M-123 -362l92 143q6 -5 16.5 -12.5t46 -20t74.5 -12.5q64 0 122 39.5t98 103.5l61 103l-186 901h-131l30 153h465l-28 -153h-138l111 -617q4 -20 4.5 -42.5t-0.5 -35.5l-2 -12h6q16 45 43 90l348 617h-133l31 153h465l-31 -153h-127l-616 -1047q-156 -266 -396 -266
q-65 0 -121.5 17t-80.5 34z" />
    <glyph glyph-name="z" unicode="z" horiz-adv-x="1085" 
d="M-23 0l25 131l678 672q18 19 39.5 39t34.5 30l12 11v4q-41 -4 -98 -4h-324l-31 -166h-174l64 319h846l-27 -131l-676 -672q-20 -20 -41.5 -39.5t-34 -30t-12.5 -9.5v-4q43 4 100 4h367l33 165h172l-62 -319h-891z" />
    <glyph glyph-name="braceleft" unicode="{" horiz-adv-x="698" 
d="M66 578l34 176q7 1 19 3t44.5 16t60 36t55 67t38.5 105l37 184q71 367 445 342l-29 -151q-22 2 -46 -0.5t-56.5 -14.5t-59.5 -34.5t-51 -65t-35 -100.5l-43 -226q-11 -57 -38 -104t-56.5 -72t-57.5 -42.5t-47 -22.5l-18 -6v-4q5 -2 13 -6.5t29 -22t37 -39t29 -60
t13 -83.5q0 -25 -6 -60l-43 -219q-8 -54 -8 -76q0 -40 12.5 -69t32 -42.5t43 -22.5t45.5 -9h39l-29 -152q-20 -4 -49 -4q-26 0 -55.5 4.5t-69.5 21.5t-70.5 44.5t-52.5 78.5t-22 118q0 39 10 104l35 184q6 34 6 60q0 43 -14 75.5t-33.5 48.5t-39.5 26t-34 12z" />
    <glyph glyph-name="bar" unicode="|" horiz-adv-x="679" 
d="M258 -326v1948h176v-1948h-176z" />
    <glyph glyph-name="braceright" unicode="}" horiz-adv-x="698" 
d="M-84 -199l29 154h47.5t57 14t58 35.5t51 64.5t34.5 101l47 244q11 59 38 107t56.5 74t57.5 44t46 23l19 6v4q-5 2 -13 6t-29 21t-37 38t-29 58.5t-13 81.5q0 27 6 61l39 203q8 36 8 71q0 40 -13 68.5t-31.5 43.5t-43.5 23t-44.5 9t-39.5 0l31 151q27 6 60.5 2t69 -11
t69.5 -28t60.5 -49t43 -73.5t16.5 -102.5q0 -49 -12 -104l-31 -164q-6 -35 -6 -59q0 -31 7.5 -57t19.5 -42.5t26.5 -29.5t29.5 -19t27 -10t20 -5l7 -1l-34 -176q-7 -1 -19.5 -3t-45 -16t-60 -36t-55.5 -67.5t-40 -105.5l-39 -205q-18 -93 -56.5 -161t-83.5 -104t-102 -56
t-104.5 -23.5t-99.5 0.5z" />
    <glyph glyph-name="asciitilde" unicode="~" horiz-adv-x="1226" 
d="M121 418q0 174 75.5 260t211.5 86q50 0 92.5 -15t70 -37t56 -48.5t51 -48.5t55 -37t68.5 -15q50 0 81.5 31.5t42.5 72.5t11 89h162q0 -175 -74.5 -260.5t-210.5 -85.5q-59 0 -107.5 20.5t-80 49.5t-60.5 58t-65.5 49.5t-79.5 20.5q-38 0 -65.5 -17.5t-42 -46.5t-21 -60.5
t-6.5 -65.5h-164z" />
    <glyph glyph-name="uni00A0" unicode="&#xa0;" horiz-adv-x="544" 
 />
    <glyph glyph-name="exclamdown" unicode="&#xa1;" horiz-adv-x="501" 
d="M-51 -410l219 1049h178l-190 -1049h-207zM188 836l41 200h207l-41 -200h-207z" />
    <glyph glyph-name="cent" unicode="&#xa2;" horiz-adv-x="1157" 
d="M102 602q0 128 43 250t117 217t178.5 157t221.5 72l32 172h146l-35 -180q56 -10 103.5 -32.5t79 -50.5t57 -59.5t39.5 -60.5t23 -53t12 -38l3 -15l-180 -68q-1 4 -2.5 11.5t-8.5 28t-16.5 39.5t-28.5 42.5t-42.5 40t-59.5 28t-79 11.5q-112 0 -204 -69.5t-143 -186
t-51 -252.5q0 -126 62.5 -199t183.5 -73q57 0 111 20.5t89.5 49.5t63 58t40.5 50l13 20l170 -71q-6 -12 -17.5 -32t-53.5 -72t-90.5 -93t-128.5 -78t-168 -43l-33 -170h-146l35 181q-155 31 -245.5 148t-90.5 300z" />
    <glyph glyph-name="sterling" unicode="&#xa3;" horiz-adv-x="1261" 
d="M-23 0l31 164h176l97 489h-144l29 144h139l60 293q31 164 168.5 272t320.5 108q62 0 119.5 -14.5t96 -35t68 -40.5t42.5 -34l14 -15l-131 -125q-3 3 -9.5 8.5t-27.5 20t-44.5 25t-59 19.5t-72.5 9q-111 0 -189 -63t-96 -158l-53 -270h369l-29 -144h-367l-96 -489h518
l47 237h179l-78 -401h-1078z" />
    <glyph glyph-name="yen" unicode="&#xa5;" horiz-adv-x="1298" 
d="M168 408l22 129h334l17 75l-37 99h-279l25 129h211l-219 606h219l155 -451l54 -209h4q62 111 125 207l327 453h242l-457 -606h209l-24 -129h-279l-72 -99l-16 -75h332l-25 -129h-329l-82 -408h-205l82 408h-334z" />
    <glyph glyph-name="section" unicode="&#xa7;" horiz-adv-x="886" 
d="M-27 -16l111 120q8 -7 22 -17.5t62 -28t100 -17.5q126 0 196 80t68 207l15 788h158l-13 -788q2 -125 -46.5 -227t-147.5 -165t-232 -63q-52 0 -101.5 11.5t-82.5 27.5t-59 32.5t-38 27.5zM207 227l12 789q-3 125 45 227.5t147 164.5t232 62q53 0 102.5 -11.5t83 -27.5
t59.5 -32t38 -27l12 -12l-111 -119q-8 7 -22 17.5t-62 28.5t-100 18q-125 0 -195.5 -81t-68.5 -208l-14 -789h-158z" />
    <glyph glyph-name="dieresis" unicode="&#xa8;" horiz-adv-x="1021" 
d="M88 1599l41 207h178l-43 -207h-176zM498 1599l43 207h176l-43 -207h-176z" />
    <glyph glyph-name="copyright" unicode="&#xa9;" horiz-adv-x="1669" 
d="M125 723q0 153 57.5 291.5t155 238.5t232 158.5t282.5 58.5q202 0 371 -99.5t266.5 -271t97.5 -376.5q0 -153 -57.5 -291.5t-155.5 -238.5t-234.5 -159t-287.5 -59q-197 0 -364.5 99.5t-265 272t-97.5 376.5zM276 723q0 -169 75.5 -308.5t208 -219.5t292.5 -80
q122 0 231 47t187 128t123 194t45 239t-45 239t-123 194t-187 128t-231 47q-160 0 -292.5 -80t-208 -219.5t-75.5 -308.5zM465 721q0 81 28.5 155t79.5 130.5t128 90t167 33.5q66 0 125 -21t95.5 -50.5t63.5 -59t38 -50.5l12 -21l-125 -68q-3 5 -8.5 14t-25 31t-41 39
t-57 31t-73.5 14q-116 0 -185 -78.5t-69 -189.5q0 -114 68 -191t186 -77q38 0 73.5 13.5t58.5 32.5t40 37.5t25 31.5l8 14l125 -68q-4 -8 -12.5 -22t-38.5 -49t-65 -61.5t-94 -48.5t-124 -22q-91 0 -168 33.5t-128 90t-79 130.5t-28 156z" />
    <glyph glyph-name="ordfeminine" unicode="&#xaa;" horiz-adv-x="874" 
d="M139 543l23 116h563l-23 -116h-563zM221 956q0 246 422 246h33q4 21 4 25q9 59 -18.5 90t-88.5 31q-40 0 -85.5 -14t-71.5 -28l-25 -14l-43 105q4 3 12 7.5t34.5 16.5t55 21t71 16.5t85.5 7.5q111 0 168 -50t57 -148q0 -31 -10 -76l-78 -395h-139l21 98h-4
q-3 -5 -9 -12.5t-26 -27t-42.5 -34.5t-57.5 -27t-72 -12q-76 0 -134.5 46t-58.5 128zM373 973q0 -34 23 -54t67 -20q67 0 123 65t69 142h-22q-40 0 -77 -4.5t-82.5 -16.5t-73 -41t-27.5 -71z" />
    <glyph glyph-name="guillemotleft" unicode="&#xab;" horiz-adv-x="1153" 
d="M82 582l391 417h209l-410 -430l260 -411h-188zM489 582l424 417h211l-444 -430l260 -411h-188z" />
    <glyph glyph-name="logicalnot" unicode="&#xac;" horiz-adv-x="1294" 
d="M145 696v160h977v-547h-166v387h-811z" />
    <glyph glyph-name="uni00AD" unicode="&#xad;" horiz-adv-x="976" 
d="M166 496l33 176h598l-33 -176h-598z" />
    <glyph glyph-name="registered" unicode="&#xae;" horiz-adv-x="1669" 
d="M125 723q0 153 57.5 291.5t155 238.5t232 158.5t282.5 58.5q202 0 371 -99.5t266.5 -271t97.5 -376.5q0 -153 -57.5 -291.5t-155.5 -238.5t-234.5 -159t-287.5 -59q-197 0 -364.5 99.5t-265 272t-97.5 376.5zM276 723q0 -169 75.5 -308.5t208 -219.5t292.5 -80
q122 0 231 47t187 128t123 194t45 239t-45 239t-123 194t-187 128t-231 47q-160 0 -292.5 -80t-208 -219.5t-75.5 -308.5zM602 340v772h299q109 0 175.5 -64t66.5 -171q0 -82 -44 -136.5t-98 -68.5v-4q9 -8 27 -43l150 -285h-160l-144 299h-126v-299h-146zM748 745h122
q58 0 91.5 35t33.5 97q0 59 -32.5 91.5t-90.5 32.5h-124v-256z" />
    <glyph glyph-name="macron" unicode="&#xaf;" horiz-adv-x="1021" 
d="M129 1606l27 145h520l-27 -145h-520z" />
    <glyph glyph-name="degree" unicode="&#xb0;" horiz-adv-x="806" 
d="M193 1130q0 132 108.5 236t241.5 104q122 0 201 -75.5t79 -190.5q0 -88 -51.5 -167.5t-132.5 -126t-166 -46.5q-124 0 -202 75t-78 191zM352 1139q0 -55 36 -89t95 -34q70 0 125.5 53.5t55.5 124.5q0 56 -36 91.5t-93 35.5q-71 0 -127 -55t-56 -127z" />
    <glyph glyph-name="plusminus" unicode="&#xb1;" 
d="M82 504v160h459v503h168v-503h456v-160h-456v-504h-168v504h-459zM115 -195h1018v-159h-1018v159z" />
    <glyph glyph-name="uni00B2" unicode="&#xb2;" horiz-adv-x="776" 
d="M131 866q2 87 33.5 158.5t80.5 119.5t108 88.5t117.5 73t107 65t78.5 73.5t30 88t-33.5 77.5t-87.5 30.5q-46 0 -94.5 -24.5t-74.5 -49.5l-25 -24l-90 100q5 6 14 15.5t39.5 33.5t63 42.5t81 33.5t96.5 15q119 0 195 -64.5t76 -171.5q0 -65 -26.5 -119.5t-69.5 -93.5
t-95.5 -73t-107.5 -64t-102.5 -59t-83.5 -66t-48 -78h326l20 105h129l-45 -232h-612z" />
    <glyph glyph-name="uni00B3" unicode="&#xb3;" horiz-adv-x="770" 
d="M135 981l101 100q3 -4 8.5 -10t24.5 -22.5t41 -29t57 -22.5t73 -10q77 0 136 53.5t59 128.5q0 56 -46 87.5t-110 31.5h-63l-21 74l240 235q11 11 24.5 21.5t20.5 15.5l8 4v7q-28 -7 -61 -7h-201l-20 -108h-130l46 231h569l-19 -98l-276 -266q34 -7 65.5 -23t62 -42.5
t49 -68t18.5 -92.5q0 -127 -102 -226t-249 -99q-58 0 -110.5 14t-86.5 34t-59.5 39.5t-37.5 33.5z" />
    <glyph glyph-name="acute" unicode="&#xb4;" horiz-adv-x="1021" 
d="M152 1546l262 260h237l-303 -260h-196z" />
    <glyph glyph-name="paragraph" unicode="&#xb6;" horiz-adv-x="1230" 
d="M139 909q0 142 81.5 267.5t210.5 197.5t267 72h582l-33 -176h-403l-266 -1372h-154l117 596q-161 0 -281.5 119t-120.5 296zM705 -102l243 1255h152l-242 -1255h-153z" />
    <glyph glyph-name="periodcentered" unicode="&#xb7;" horiz-adv-x="573" 
d="M158 485l41 215h207l-41 -215h-207z" />
    <glyph glyph-name="cedilla" unicode="&#xb8;" horiz-adv-x="1021" 
d="M170 -430l23 108q35 -12 86 -12q28 0 53 5.5t46 24t21 46.5t-29.5 43.5t-78.5 15.5h-35l113 246l96 -20l-2 -17l-55 -125q60 -6 98.5 -43t38.5 -96q0 -49 -24 -87t-63 -59.5t-83 -32.5t-90 -11q-29 0 -58 3.5t-43 6.5z" />
    <glyph glyph-name="uni00B9" unicode="&#xb9;" horiz-adv-x="688" 
d="M129 866l25 127h211l96 496q3 18 7.5 36.5t7.5 28.5l3 9h-4q-20 -29 -51 -52l-100 -81l-76 102l282 229h138l-150 -768h209l-25 -127h-573z" />
    <glyph glyph-name="ordmasculine" unicode="&#xba;" horiz-adv-x="968" 
d="M152 543l22 116h639l-22 -116h-639zM227 1071q0 108 58.5 200.5t152 144.5t197.5 52q135 0 219 -80t84 -206q0 -109 -60 -201.5t-154 -143.5t-196 -51q-135 0 -218 79.5t-83 205.5zM377 1083q0 -74 45.5 -118.5t118.5 -44.5q95 0 171 73.5t76 180.5q0 72 -46.5 117.5
t-118.5 45.5q-95 0 -170.5 -74.5t-75.5 -179.5z" />
    <glyph glyph-name="guillemotright" unicode="&#xbb;" horiz-adv-x="1155" 
d="M16 158l447 430l-262 411h188l264 -424l-426 -417h-211zM459 158l411 430l-262 411h189l264 -424l-393 -417h-209z" />
    <glyph glyph-name="onequarter" unicode="&#xbc;" horiz-adv-x="1970" 
d="M102 551l25 127h211l96 496q3 18 7.5 36.5t8.5 27.5l3 9h-4q-21 -28 -52 -51l-100 -82l-76 103l283 229h137l-149 -768h208l-24 -127h-574zM430 0l969 1446h162l-967 -1446h-164zM1118 223l19 99l520 573h168l-107 -551h125l-22 -121h-127l-43 -223h-152l43 223h-424z
M1300 344h267l57 299q4 18 10.5 41t11.5 37l5 14h-6q-27 -45 -60 -80l-285 -307v-4z" />
    <glyph glyph-name="onehalf" unicode="&#xbd;" horiz-adv-x="1937" 
d="M90 551l25 127h211l96 496q3 18 7.5 36.5t7.5 27.5l3 9h-4q-20 -28 -51 -51l-100 -82l-76 103l283 229h137l-150 -768h209l-24 -127h-574zM420 0l969 1446h161l-966 -1446h-164zM1120 0q2 87 33.5 158.5t80.5 119.5t108 88.5t117.5 73t107 65t78.5 73.5t30 88t-33.5 77.5
t-87.5 30.5q-46 0 -94.5 -24.5t-73.5 -49.5l-26 -24l-90 100q5 6 14.5 15t40 33t62.5 42.5t81 33.5t97 15q119 0 194.5 -64t75.5 -171q0 -65 -26 -119.5t-69 -93.5t-95.5 -73t-107.5 -64t-102.5 -59t-83.5 -66t-48 -78h325l21 104h129l-45 -231h-613z" />
    <glyph glyph-name="threequarters" unicode="&#xbe;" horiz-adv-x="1996" 
d="M104 666l101 100q3 -4 8.5 -10t25 -22.5t41 -29t57 -22.5t73.5 -10q77 0 135.5 53.5t58.5 128.5q0 56 -45.5 87.5t-109.5 31.5h-64l-20 74l239 235q11 11 24.5 21.5t21.5 14.5l7 5v6q-28 -6 -61 -6h-201l-20 -109h-129l45 232h569l-18 -98l-277 -267q34 -7 65.5 -23
t62 -42t49 -67.5t18.5 -92.5q0 -127 -101.5 -226.5t-248.5 -99.5q-58 0 -111 14t-87 34t-59.5 40t-36.5 34zM451 0l968 1446h162l-967 -1446h-163zM1139 223l18 99l520 573h168l-106 -551h125l-23 -121h-127l-43 -223h-151l43 223h-424zM1321 344h266l58 299q4 18 10.5 41
t10.5 37l5 14h-6q-26 -45 -59 -80l-285 -307v-4z" />
    <glyph glyph-name="questiondown" unicode="&#xbf;" horiz-adv-x="972" 
d="M-25 -102q0 74 24 137.5t63 110.5t87 88.5t98 79t93.5 74t76 81.5t42.5 94l16 76h193l-17 -88q-14 -67 -47 -125.5t-75 -100.5t-89.5 -81t-92 -74t-81 -71t-58.5 -81t-22 -96q0 -73 54 -120.5t143 -47.5q60 0 122.5 22t94.5 44l33 22l88 -153q-7 -5 -19 -13t-51 -28.5
t-79.5 -36t-99.5 -28.5t-116 -13q-167 0 -274 89t-107 239zM504 836l41 200h205l-39 -200h-207z" />
    <glyph glyph-name="Agrave" unicode="&#xc0;" horiz-adv-x="1480" 
d="M-94 0l31 160h139l712 1286h230l209 -1286h141l-33 -160h-493l30 160h154l-49 321h-512l-176 -321h155l-32 -160h-506zM549 645h407l-77 502l-5 110h-6q-14 -51 -45 -110zM655 1806h222l159 -260h-178z" />
    <glyph glyph-name="Aacute" unicode="&#xc1;" horiz-adv-x="1480" 
d="M-94 0l31 160h139l712 1286h230l209 -1286h141l-33 -160h-493l30 160h154l-49 321h-512l-176 -321h155l-32 -160h-506zM549 645h407l-77 502l-5 110h-6q-14 -51 -45 -110zM793 1546l262 260h237l-303 -260h-196z" />
    <glyph glyph-name="Acircumflex" unicode="&#xc2;" horiz-adv-x="1480" 
d="M-94 0l31 160h139l712 1286h230l209 -1286h141l-33 -160h-493l30 160h154l-49 321h-512l-176 -321h155l-32 -160h-506zM549 645h407l-77 502l-5 110h-6q-14 -51 -45 -110zM625 1546l231 260h215l129 -260h-172l-74 164h-4l-139 -164h-186z" />
    <glyph glyph-name="Atilde" unicode="&#xc3;" horiz-adv-x="1480" 
d="M-94 0l31 160h139l712 1286h230l209 -1286h141l-33 -160h-493l30 160h154l-49 321h-512l-176 -321h155l-32 -160h-506zM549 645h407l-77 502l-5 110h-6q-14 -51 -45 -110zM588 1548q25 125 87 192.5t152 67.5q39 0 69.5 -14t49 -34t34 -40.5t34.5 -34.5t41 -14
q69 0 98 131h150q-22 -124 -85 -192t-153 -68q-39 0 -69 14t-48.5 34t-34.5 40.5t-34.5 34.5t-40.5 14q-40 0 -65 -38.5t-36 -92.5h-149z" />
    <glyph glyph-name="Adieresis" unicode="&#xc4;" horiz-adv-x="1480" 
d="M-94 0l31 160h139l712 1286h230l209 -1286h141l-33 -160h-493l30 160h154l-49 321h-512l-176 -321h155l-32 -160h-506zM549 645h407l-77 502l-5 110h-6q-14 -51 -45 -110zM637 1599l41 207h178l-43 -207h-176zM1047 1599l43 207h176l-43 -207h-176z" />
    <glyph glyph-name="Aring" unicode="&#xc5;" horiz-adv-x="1480" 
d="M-94 0l31 160h139l712 1286h230l209 -1286h141l-33 -160h-493l30 160h154l-49 321h-512l-176 -321h155l-32 -160h-506zM549 645h407l-77 502l-5 110h-6q-14 -51 -45 -110zM758 1653q0 80 64.5 132t142.5 52q72 0 120 -39t48 -104q0 -78 -64.5 -129.5t-144.5 -51.5
q-70 0 -118 38t-48 102zM870 1655q0 -25 16.5 -40.5t43.5 -15.5q38 0 64 27t26 68q0 26 -15.5 41.5t-43.5 15.5q-35 0 -63 -27.5t-28 -68.5z" />
    <glyph glyph-name="AE" unicode="&#xc6;" horiz-adv-x="1941" 
d="M-88 0l31 160h127l682 1128h-156l33 158h1333l-66 -336h-170l33 168h-485l-92 -465h508l-33 -168h-508l-92 -477h520l33 170h170l-66 -338h-1071l31 160h176l96 487h-371l-292 -487h153l-30 -160h-494zM670 807h307l92 471h-117z" />
    <glyph glyph-name="Ccedilla" unicode="&#xc7;" horiz-adv-x="1517" 
d="M117 606q0 175 71.5 335.5t190 276t278.5 184t332 68.5q59 0 125 -7t143 -27t134 -50t90 -82t20 -118l-37 -178h-186l20 116q10 47 -19 82t-81.5 53t-105.5 26.5t-105 8.5q-136 0 -259 -56.5t-210 -150t-138.5 -216.5t-51.5 -253q0 -206 118.5 -335t323.5 -129
q58 0 119 10t119 29.5t99 54t50 78.5l23 110h188l-33 -168q-12 -63 -56 -114.5t-104 -84t-134 -54.5t-143.5 -31t-135.5 -9h-12l-39 -90q60 -6 98.5 -43t38.5 -96q0 -49 -24 -87t-63 -59.5t-83 -32.5t-90 -11q-29 0 -58 3.5t-43 6.5l-14 4l23 108q37 -12 88 -12
q44 0 81 17.5t37 58.5q0 28 -29.5 43.5t-78.5 15.5h-35l84 185q-242 34 -384 202t-142 418z" />
    <glyph glyph-name="Egrave" unicode="&#xc8;" horiz-adv-x="1300" 
d="M-6 0l31 160h180l219 1128h-182l32 158h1047l-66 -336h-178l33 168h-483l-90 -465h512l-35 -168h-510l-94 -477h518l33 174h180l-68 -342h-1079zM588 1806h221l160 -260h-178z" />
    <glyph glyph-name="Eacute" unicode="&#xc9;" horiz-adv-x="1300" 
d="M-6 0l31 160h180l219 1128h-182l32 158h1047l-66 -336h-178l33 168h-483l-90 -465h512l-35 -168h-510l-94 -477h518l33 174h180l-68 -342h-1079zM725 1546l262 260h238l-303 -260h-197z" />
    <glyph glyph-name="Ecircumflex" unicode="&#xca;" horiz-adv-x="1300" 
d="M-6 0l31 160h180l219 1128h-182l32 158h1047l-66 -336h-178l33 168h-483l-90 -465h512l-35 -168h-510l-94 -477h518l33 174h180l-68 -342h-1079zM557 1546l231 260h216l129 -260h-172l-74 164h-4l-140 -164h-186z" />
    <glyph glyph-name="Edieresis" unicode="&#xcb;" horiz-adv-x="1300" 
d="M-6 0l31 160h180l219 1128h-182l32 158h1047l-66 -336h-178l33 168h-483l-90 -465h512l-35 -168h-510l-94 -477h518l33 174h180l-68 -342h-1079zM569 1599l41 207h178l-43 -207h-176zM979 1599l43 207h176l-43 -207h-176z" />
    <glyph glyph-name="Igrave" unicode="&#xcc;" horiz-adv-x="786" 
d="M-8 0l31 160h180l219 1128h-180l30 158h568l-31 -158h-182l-219 -1128h182l-31 -160h-567zM307 1806h221l160 -260h-178z" />
    <glyph glyph-name="Iacute" unicode="&#xcd;" horiz-adv-x="786" 
d="M-8 0l31 160h180l219 1128h-180l30 158h568l-31 -158h-182l-219 -1128h182l-31 -160h-567zM444 1546l263 260h237l-303 -260h-197z" />
    <glyph glyph-name="Icircumflex" unicode="&#xce;" horiz-adv-x="786" 
d="M-8 0l31 160h180l219 1128h-180l30 158h568l-31 -158h-182l-219 -1128h182l-31 -160h-567zM276 1546l232 260h215l129 -260h-172l-74 164h-4l-139 -164h-187z" />
    <glyph glyph-name="Idieresis" unicode="&#xcf;" horiz-adv-x="786" 
d="M-8 0l31 160h180l219 1128h-180l30 158h568l-31 -158h-182l-219 -1128h182l-31 -160h-567zM291 1599l41 207h178l-43 -207h-176zM700 1599l43 207h177l-43 -207h-177z" />
    <glyph glyph-name="Eth" unicode="&#xd0;" horiz-adv-x="1609" 
d="M-8 0l31 160h180l94 479h-156l33 168h156l94 481h-182l30 158h625q301 0 471 -148t170 -415q0 -180 -63.5 -342t-174.5 -281.5t-271.5 -189.5t-344.5 -70h-692zM410 168h260q142 0 265 54t209 147.5t135.5 222t49.5 274.5q0 199 -117.5 305.5t-326.5 106.5h-258l-92 -471
h315l-33 -168h-315z" />
    <glyph glyph-name="Ntilde" unicode="&#xd1;" horiz-adv-x="1720" 
d="M-6 0l31 160h180l219 1128h-182l32 158h377l510 -1047q8 -17 15.5 -42t10.5 -41l3 -17h6q4 68 14 113l172 876h-184l31 158h571l-31 -158h-182l-252 -1288h-196l-512 1047q-8 18 -15.5 43t-10.5 41l-3 16h-6q-4 -68 -14 -113l-168 -874h184l-31 -160h-569zM719 1548
q25 125 87 192.5t152 67.5q39 0 69.5 -14t49 -34t34 -40.5t34.5 -34.5t41 -14q69 0 98 131h150q-22 -124 -85 -192t-153 -68q-39 0 -69 14t-48.5 34t-34.5 40.5t-34.5 34.5t-40.5 14q-40 0 -65 -38.5t-36 -92.5h-149z" />
    <glyph glyph-name="Ograve" unicode="&#xd2;" horiz-adv-x="1687" 
d="M115 606q0 115 33.5 226.5t92.5 206t141.5 175t179 137t207 88t222.5 31.5q185 0 328.5 -78.5t222 -218t78.5 -317.5q0 -174 -74 -338t-195 -282t-281.5 -189.5t-326.5 -71.5q-185 0 -328.5 81t-221.5 224.5t-78 325.5zM322 614q0 -201 121.5 -328.5t314.5 -127.5
q120 0 238.5 54.5t210 146t148 220t56.5 267.5q0 195 -121.5 319.5t-314.5 124.5q-122 0 -241 -54t-209.5 -143.5t-146.5 -216t-56 -262.5zM762 1806h221l160 -260h-178z" />
    <glyph glyph-name="Oacute" unicode="&#xd3;" horiz-adv-x="1687" 
d="M115 606q0 115 33.5 226.5t92.5 206t141.5 175t179 137t207 88t222.5 31.5q185 0 328.5 -78.5t222 -218t78.5 -317.5q0 -174 -74 -338t-195 -282t-281.5 -189.5t-326.5 -71.5q-185 0 -328.5 81t-221.5 224.5t-78 325.5zM322 614q0 -201 121.5 -328.5t314.5 -127.5
q120 0 238.5 54.5t210 146t148 220t56.5 267.5q0 195 -121.5 319.5t-314.5 124.5q-122 0 -241 -54t-209.5 -143.5t-146.5 -216t-56 -262.5zM899 1546l262 260h238l-303 -260h-197z" />
    <glyph glyph-name="Ocircumflex" unicode="&#xd4;" horiz-adv-x="1687" 
d="M115 606q0 115 33.5 226.5t92.5 206t141.5 175t179 137t207 88t222.5 31.5q185 0 328.5 -78.5t222 -218t78.5 -317.5q0 -174 -74 -338t-195 -282t-281.5 -189.5t-326.5 -71.5q-185 0 -328.5 81t-221.5 224.5t-78 325.5zM322 614q0 -201 121.5 -328.5t314.5 -127.5
q120 0 238.5 54.5t210 146t148 220t56.5 267.5q0 195 -121.5 319.5t-314.5 124.5q-122 0 -241 -54t-209.5 -143.5t-146.5 -216t-56 -262.5zM731 1546l232 260h215l129 -260h-172l-74 164h-4l-139 -164h-187z" />
    <glyph glyph-name="Otilde" unicode="&#xd5;" horiz-adv-x="1687" 
d="M115 606q0 115 33.5 226.5t92.5 206t141.5 175t179 137t207 88t222.5 31.5q185 0 328.5 -78.5t222 -218t78.5 -317.5q0 -174 -74 -338t-195 -282t-281.5 -189.5t-326.5 -71.5q-185 0 -328.5 81t-221.5 224.5t-78 325.5zM322 614q0 -201 121.5 -328.5t314.5 -127.5
q120 0 238.5 54.5t210 146t148 220t56.5 267.5q0 195 -121.5 319.5t-314.5 124.5q-122 0 -241 -54t-209.5 -143.5t-146.5 -216t-56 -262.5zM692 1548q25 125 87 192.5t153 67.5q39 0 69.5 -14t48.5 -34t33.5 -40.5t34.5 -34.5t41 -14q69 0 98 131h150q-22 -124 -85 -192
t-153 -68q-39 0 -69 14t-48.5 34t-34.5 40.5t-34.5 34.5t-40.5 14q-74 0 -100 -131h-150z" />
    <glyph glyph-name="Odieresis" unicode="&#xd6;" horiz-adv-x="1687" 
d="M115 606q0 115 33.5 226.5t92.5 206t141.5 175t179 137t207 88t222.5 31.5q185 0 328.5 -78.5t222 -218t78.5 -317.5q0 -174 -74 -338t-195 -282t-281.5 -189.5t-326.5 -71.5q-185 0 -328.5 81t-221.5 224.5t-78 325.5zM322 614q0 -201 121.5 -328.5t314.5 -127.5
q120 0 238.5 54.5t210 146t148 220t56.5 267.5q0 195 -121.5 319.5t-314.5 124.5q-122 0 -241 -54t-209.5 -143.5t-146.5 -216t-56 -262.5zM743 1599l41 207h179l-43 -207h-177zM1153 1599l43 207h176l-43 -207h-176z" />
    <glyph glyph-name="multiply" unicode="&#xd7;" 
d="M90 113l422 471l-422 471l113 112l418 -467l419 467l113 -112l-424 -471l424 -471l-113 -113l-419 465l-418 -465z" />
    <glyph glyph-name="Oslash" unicode="&#xd8;" horiz-adv-x="1689" 
d="M115 606q0 228 123.5 429t323 318t417.5 117q226 0 385 -110l127 139l92 -78l-127 -137q166 -174 166 -428q0 -174 -74 -338t-193.5 -282t-277 -189.5t-319.5 -71.5q-232 0 -398 119l-131 -145l-96 76l137 149q-155 176 -155 432zM324 614q0 -169 92 -284l809 882
q-109 72 -248 72q-165 0 -315 -89t-244 -245t-94 -336zM498 242q113 -80 262 -80q120 0 238.5 54.5t210 145.5t148 219t56.5 265q0 165 -98 284z" />
    <glyph glyph-name="Ugrave" unicode="&#xd9;" horiz-adv-x="1640" 
d="M197 1288l30 158h568l-31 -158h-182l-140 -719q-18 -106 -18 -147q0 -124 81 -194t226 -70q170 0 285 92q117 97 147 268l152 770h-182l30 158h570l-31 -158h-182l-154 -786q-28 -137 -94 -245t-164 -175q-159 -107 -383 -107q-225 0 -366.5 113.5t-141.5 310.5
q0 43 21 172l139 717h-180zM733 1806h221l160 -260h-178z" />
    <glyph glyph-name="Uacute" unicode="&#xda;" horiz-adv-x="1640" 
d="M197 1288l30 158h568l-31 -158h-182l-140 -719q-18 -106 -18 -147q0 -124 81 -194t226 -70q170 0 285 92q117 97 147 268l152 770h-182l30 158h570l-31 -158h-182l-154 -786q-28 -137 -94 -245t-164 -175q-159 -107 -383 -107q-225 0 -366.5 113.5t-141.5 310.5
q0 43 21 172l139 717h-180zM870 1546l263 260h237l-303 -260h-197z" />
    <glyph glyph-name="Ucircumflex" unicode="&#xdb;" horiz-adv-x="1640" 
d="M197 1288l30 158h568l-31 -158h-182l-140 -719q-18 -106 -18 -147q0 -124 81 -194t226 -70q170 0 285 92q117 97 147 268l152 770h-182l30 158h570l-31 -158h-182l-154 -786q-28 -137 -94 -245t-164 -175q-159 -107 -383 -107q-225 0 -366.5 113.5t-141.5 310.5
q0 43 21 172l139 717h-180zM702 1546l232 260h215l129 -260h-172l-74 164h-4l-139 -164h-187z" />
    <glyph glyph-name="Udieresis" unicode="&#xdc;" horiz-adv-x="1640" 
d="M197 1288l30 158h568l-31 -158h-182l-140 -719q-18 -106 -18 -147q0 -124 81 -194t226 -70q170 0 285 92q117 97 147 268l152 770h-182l30 158h570l-31 -158h-182l-154 -786q-28 -137 -94 -245t-164 -175q-159 -107 -383 -107q-225 0 -366.5 113.5t-141.5 310.5
q0 43 21 172l139 717h-180zM717 1599l41 207h178l-43 -207h-176zM1126 1599l43 207h177l-43 -207h-177z" />
    <glyph glyph-name="Yacute" unicode="&#xdd;" horiz-adv-x="1335" 
d="M154 1288l30 158h490l-31 -158h-151l178 -454l18 -62h4q18 31 41 62l359 454h-150l31 158h502l-31 -158h-137l-537 -676l-88 -452h180l-31 -160h-567l31 160h182l88 452l-274 676h-137zM723 1546l262 260h238l-303 -260h-197z" />
    <glyph glyph-name="Thorn" unicode="&#xde;" horiz-adv-x="1339" 
d="M-6 0l31 160h180l219 1128h-182l32 158h568l-31 -158h-186l-29 -147h334q177 0 279 -90t102 -244q0 -138 -71 -244.5t-188.5 -162.5t-258.5 -56h-351l-36 -184h184l-31 -160h-565zM473 504h299q144 0 237 80t93 219q0 88 -61 133t-173 45h-303z" />
    <glyph glyph-name="germandbls" unicode="&#xdf;" horiz-adv-x="1224" 
d="M59 0l213 1102q22 116 98.5 201.5t176 126t207.5 40.5q164 0 263 -81t99 -207q0 -50 -15.5 -94t-41 -76t-55.5 -61.5t-60.5 -54t-56 -48t-41 -50t-15.5 -53.5q0 -34 29 -70.5t70 -70.5t82.5 -72t70.5 -91t29 -113q0 -93 -54.5 -172t-144 -124.5t-190.5 -45.5
q-86 0 -161.5 15t-108.5 29l-33 15l35 172q11 -7 32 -16.5t87.5 -26t134.5 -16.5q47 0 91 16.5t77.5 56.5t33.5 97q0 43 -29.5 84t-71.5 75.5t-84 70t-71.5 81t-29.5 94.5q0 42 16 80.5t41.5 68.5t56 58t61 54t56 51.5t41.5 56t16 61.5q0 58 -43 96.5t-125 38.5
q-98 0 -178 -59t-102 -168l-209 -1071h-197z" />
    <glyph glyph-name="agrave" unicode="&#xe0;" horiz-adv-x="1140" 
d="M0 238q0 79 31.5 142.5t87 106t123.5 73t149.5 47t155 23.5t149.5 7h52q14 69 14 102q0 158 -189 158q-72 0 -149.5 -24.5t-118.5 -48.5l-41 -25l-51 153q7 4 20.5 11.5t55.5 26.5t85.5 33t108 26t125.5 12q75 0 137 -16.5t111.5 -51t77 -93t27.5 -136.5
q0 -64 -47.5 -273.5t-47.5 -250.5q0 -90 95 -90l47 4l-29 -154q-37 -4 -94 -4q-210 0 -213 188h-4q2 0 -14 -21.5t-48 -52.5t-74 -61.5t-104 -52t-127 -21.5q-129 0 -215 69.5t-86 193.5zM199 270q0 -64 40 -102.5t121 -38.5q60 0 120 31.5t105.5 81t79 108.5t48.5 117
l10 41h-53q-54 0 -105.5 -3.5t-122 -18t-121 -38.5t-86.5 -70t-36 -108zM387 1446h221l160 -260h-178z" />
    <glyph glyph-name="aacute" unicode="&#xe1;" horiz-adv-x="1140" 
d="M0 238q0 79 31.5 142.5t87 106t123.5 73t149.5 47t155 23.5t149.5 7h52q14 69 14 102q0 158 -189 158q-72 0 -149.5 -24.5t-118.5 -48.5l-41 -25l-51 153q7 4 20.5 11.5t55.5 26.5t85.5 33t108 26t125.5 12q75 0 137 -16.5t111.5 -51t77 -93t27.5 -136.5
q0 -64 -47.5 -273.5t-47.5 -250.5q0 -90 95 -90l47 4l-29 -154q-37 -4 -94 -4q-210 0 -213 188h-4q2 0 -14 -21.5t-48 -52.5t-74 -61.5t-104 -52t-127 -21.5q-129 0 -215 69.5t-86 193.5zM199 270q0 -64 40 -102.5t121 -38.5q60 0 120 31.5t105.5 81t79 108.5t48.5 117
l10 41h-53q-54 0 -105.5 -3.5t-122 -18t-121 -38.5t-86.5 -70t-36 -108zM524 1186l262 260h238l-303 -260h-197z" />
    <glyph glyph-name="acircumflex" unicode="&#xe2;" horiz-adv-x="1140" 
d="M0 238q0 79 31.5 142.5t87 106t123.5 73t149.5 47t155 23.5t149.5 7h52q14 69 14 102q0 158 -189 158q-72 0 -149.5 -24.5t-118.5 -48.5l-41 -25l-51 153q7 4 20.5 11.5t55.5 26.5t85.5 33t108 26t125.5 12q75 0 137 -16.5t111.5 -51t77 -93t27.5 -136.5
q0 -64 -47.5 -273.5t-47.5 -250.5q0 -90 95 -90l47 4l-29 -154q-37 -4 -94 -4q-210 0 -213 188h-4q2 0 -14 -21.5t-48 -52.5t-74 -61.5t-104 -52t-127 -21.5q-129 0 -215 69.5t-86 193.5zM199 270q0 -64 40 -102.5t121 -38.5q60 0 120 31.5t105.5 81t79 108.5t48.5 117
l10 41h-53q-54 0 -105.5 -3.5t-122 -18t-121 -38.5t-86.5 -70t-36 -108zM356 1186l232 260h215l129 -260h-172l-74 164h-4l-139 -164h-187z" />
    <glyph glyph-name="atilde" unicode="&#xe3;" horiz-adv-x="1140" 
d="M0 238q0 79 31.5 142.5t87 106t123.5 73t149.5 47t155 23.5t149.5 7h52q14 69 14 102q0 158 -189 158q-72 0 -149.5 -24.5t-118.5 -48.5l-41 -25l-51 153q7 4 20.5 11.5t55.5 26.5t85.5 33t108 26t125.5 12q75 0 137 -16.5t111.5 -51t77 -93t27.5 -136.5
q0 -64 -47.5 -273.5t-47.5 -250.5q0 -90 95 -90l47 4l-29 -154q-37 -4 -94 -4q-210 0 -213 188h-4q2 0 -14 -21.5t-48 -52.5t-74 -61.5t-104 -52t-127 -21.5q-129 0 -215 69.5t-86 193.5zM199 270q0 -64 40 -102.5t121 -38.5q60 0 120 31.5t105.5 81t79 108.5t48.5 117
l10 41h-53q-54 0 -105.5 -3.5t-122 -18t-121 -38.5t-86.5 -70t-36 -108zM317 1188q25 125 87 192.5t153 67.5q39 0 69.5 -14t48.5 -34t33.5 -40.5t34.5 -34.5t41 -14q70 0 99 131h149q-22 -124 -84.5 -192t-152.5 -68q-39 0 -69 14t-49 34t-35 40.5t-34.5 34.5t-40.5 14
q-74 0 -100 -131h-150z" />
    <glyph glyph-name="adieresis" unicode="&#xe4;" horiz-adv-x="1140" 
d="M0 238q0 79 31.5 142.5t87 106t123.5 73t149.5 47t155 23.5t149.5 7h52q14 69 14 102q0 158 -189 158q-72 0 -149.5 -24.5t-118.5 -48.5l-41 -25l-51 153q7 4 20.5 11.5t55.5 26.5t85.5 33t108 26t125.5 12q75 0 137 -16.5t111.5 -51t77 -93t27.5 -136.5
q0 -64 -47.5 -273.5t-47.5 -250.5q0 -90 95 -90l47 4l-29 -154q-37 -4 -94 -4q-210 0 -213 188h-4q2 0 -14 -21.5t-48 -52.5t-74 -61.5t-104 -52t-127 -21.5q-129 0 -215 69.5t-86 193.5zM199 270q0 -64 40 -102.5t121 -38.5q60 0 120 31.5t105.5 81t79 108.5t48.5 117
l10 41h-53q-54 0 -105.5 -3.5t-122 -18t-121 -38.5t-86.5 -70t-36 -108zM369 1239l41 207h178l-43 -207h-176zM778 1239l43 207h176l-43 -207h-176z" />
    <glyph glyph-name="aring" unicode="&#xe5;" horiz-adv-x="1140" 
d="M0 238q0 79 31.5 142.5t87 106t123.5 73t149.5 47t155 23.5t149.5 7h52q14 69 14 102q0 158 -189 158q-72 0 -149.5 -24.5t-118.5 -48.5l-41 -25l-51 153q7 4 20.5 11.5t55.5 26.5t85.5 33t108 26t125.5 12q75 0 137 -16.5t111.5 -51t77 -93t27.5 -136.5
q0 -64 -47.5 -273.5t-47.5 -250.5q0 -90 95 -90l47 4l-29 -154q-37 -4 -94 -4q-210 0 -213 188h-4q2 0 -14 -21.5t-48 -52.5t-74 -61.5t-104 -52t-127 -21.5q-129 0 -215 69.5t-86 193.5zM199 270q0 -64 40 -102.5t121 -38.5q60 0 120 31.5t105.5 81t79 108.5t48.5 117
l10 41h-53q-54 0 -105.5 -3.5t-122 -18t-121 -38.5t-86.5 -70t-36 -108zM489 1292q0 80 65 132.5t142 52.5q71 0 119.5 -39t48.5 -105q0 -78 -64.5 -129t-144.5 -51q-70 0 -118 37.5t-48 101.5zM602 1294q0 -25 16 -40t44 -15q39 0 64.5 26.5t25.5 67.5q0 26 -16 42t-44 16
q-35 0 -62.5 -28t-27.5 -69z" />
    <glyph glyph-name="ae" unicode="&#xe6;" horiz-adv-x="1767" 
d="M4 248q0 79 30 142t83 103.5t116 69t139.5 42.5t142 20t134.5 6h94q13 89 13 102q0 164 -197 164q-73 0 -148 -24.5t-114 -48.5l-39 -25l-53 153q7 4 20 11.5t54.5 26.5t84 33t105 26t121.5 12q244 0 311 -174h4q152 174 385 174q194 0 296 -104t102 -281q0 -35 -8 -78.5
t-16 -69.5l-7 -26h-746q-8 -35 -8 -74q0 -131 75.5 -208t211.5 -77q50 0 102 12.5t91 29.5t70.5 34.5t48.5 30.5l16 12l57 -151q-7 -6 -20 -15t-55 -32.5t-85.5 -41.5t-108 -32.5t-126.5 -14.5q-160 0 -271 68.5t-155 187.5h-4q-9 -20 -26.5 -46t-55 -65t-83 -69.5
t-114.5 -53t-145 -22.5q-135 0 -228.5 73.5t-93.5 199.5zM207 270q0 -59 42.5 -97t123.5 -38q60 0 118.5 30t101.5 78t74 106t44 116l8 37h-96q-42 0 -81 -3t-89.5 -11t-91.5 -24.5t-77 -41t-56.5 -63.5t-20.5 -89zM944 631h541q4 36 4 65q0 100 -56 153.5t-145 53.5
q-117 0 -208 -70.5t-136 -201.5z" />
    <glyph glyph-name="ccedilla" unicode="&#xe7;" horiz-adv-x="1142" 
d="M57 430q0 124 52.5 240t140.5 202t210.5 137.5t256.5 51.5q49 0 100 -7.5t103.5 -25.5t91.5 -45t59 -70t10 -96l-22 -119h-176l12 70q11 58 -52 89.5t-147 31.5q-83 0 -163 -36t-140 -96t-96.5 -142.5t-36.5 -170.5q0 -136 83 -216.5t228 -80.5q57 0 115 14t99 34
t74.5 40t50.5 34l16 14l57 -154q-6 -6 -18.5 -16.5t-54.5 -37t-88.5 -47t-119.5 -37t-149 -16.5h-16l-37 -90q59 -6 98 -43t39 -96q0 -49 -24 -87t-63 -59.5t-83 -32.5t-90 -11q-29 0 -58 3.5t-43 6.5l-14 4l21 108q37 -12 88 -12q45 0 81.5 17.5t36.5 58.5q0 29 -28.5 44
t-77.5 15h-37l86 187q-174 31 -274.5 148.5t-100.5 293.5z" />
    <glyph glyph-name="egrave" unicode="&#xe8;" horiz-adv-x="1138" 
d="M61 418q0 171 77.5 318t217.5 236t310 89q193 0 293 -104.5t100 -278.5q0 -37 -8.5 -81.5t-16.5 -70.5l-8 -26h-754q-8 -35 -8 -74q0 -124 78 -201.5t217 -77.5q50 0 102.5 12.5t92 29.5t71.5 34.5t49 30.5l17 12l55 -155q-7 -6 -20 -15t-55 -32.5t-86 -41.5t-109 -32.5
t-127 -14.5q-224 0 -356 123t-132 320zM301 627h553q6 34 6 67q0 102 -54.5 155.5t-146.5 53.5q-116 0 -214 -73.5t-144 -202.5zM453 1446h221l160 -260h-179z" />
    <glyph glyph-name="eacute" unicode="&#xe9;" horiz-adv-x="1138" 
d="M61 418q0 171 77.5 318t217.5 236t310 89q193 0 293 -104.5t100 -278.5q0 -37 -8.5 -81.5t-16.5 -70.5l-8 -26h-754q-8 -35 -8 -74q0 -124 78 -201.5t217 -77.5q50 0 102.5 12.5t92 29.5t71.5 34.5t49 30.5l17 12l55 -155q-7 -6 -20 -15t-55 -32.5t-86 -41.5t-109 -32.5
t-127 -14.5q-224 0 -356 123t-132 320zM301 627h553q6 34 6 67q0 102 -54.5 155.5t-146.5 53.5q-116 0 -214 -73.5t-144 -202.5zM590 1186l262 260h238l-304 -260h-196z" />
    <glyph glyph-name="ecircumflex" unicode="&#xea;" horiz-adv-x="1138" 
d="M61 418q0 171 77.5 318t217.5 236t310 89q193 0 293 -104.5t100 -278.5q0 -37 -8.5 -81.5t-16.5 -70.5l-8 -26h-754q-8 -35 -8 -74q0 -124 78 -201.5t217 -77.5q50 0 102.5 12.5t92 29.5t71.5 34.5t49 30.5l17 12l55 -155q-7 -6 -20 -15t-55 -32.5t-86 -41.5t-109 -32.5
t-127 -14.5q-224 0 -356 123t-132 320zM301 627h553q6 34 6 67q0 102 -54.5 155.5t-146.5 53.5q-116 0 -214 -73.5t-144 -202.5zM422 1186l231 260h215l129 -260h-172l-73 164h-4l-140 -164h-186z" />
    <glyph glyph-name="edieresis" unicode="&#xeb;" horiz-adv-x="1138" 
d="M61 418q0 171 77.5 318t217.5 236t310 89q193 0 293 -104.5t100 -278.5q0 -37 -8.5 -81.5t-16.5 -70.5l-8 -26h-754q-8 -35 -8 -74q0 -124 78 -201.5t217 -77.5q50 0 102.5 12.5t92 29.5t71.5 34.5t49 30.5l17 12l55 -155q-7 -6 -20 -15t-55 -32.5t-86 -41.5t-109 -32.5
t-127 -14.5q-224 0 -356 123t-132 320zM301 627h553q6 34 6 67q0 102 -54.5 155.5t-146.5 53.5q-116 0 -214 -73.5t-144 -202.5zM434 1239l41 207h178l-43 -207h-176zM844 1239l43 207h176l-43 -207h-176z" />
    <glyph glyph-name="igrave" unicode="&#xec;" horiz-adv-x="653" 
d="M104 883l31 153h371l-144 -733q-8 -46 -8 -63q0 -90 95 -90l47 4l-29 -154q-47 -4 -82 -4q-36 0 -64 3t-62 15t-56 32.5t-37.5 58.5t-15.5 90q0 32 10 90l119 598h-175zM170 1446h221l160 -260h-178z" />
    <glyph glyph-name="iacute" unicode="&#xed;" horiz-adv-x="653" 
d="M104 883l31 153h371l-144 -733q-8 -46 -8 -63q0 -90 95 -90l47 4l-29 -154q-47 -4 -82 -4q-36 0 -64 3t-62 15t-56 32.5t-37.5 58.5t-15.5 90q0 32 10 90l119 598h-175zM307 1186l262 260h238l-303 -260h-197z" />
    <glyph glyph-name="icircumflex" unicode="&#xee;" horiz-adv-x="653" 
d="M104 883l31 153h371l-144 -733q-8 -46 -8 -63q0 -90 95 -90l47 4l-29 -154q-47 -4 -82 -4q-36 0 -64 3t-62 15t-56 32.5t-37.5 58.5t-15.5 90q0 32 10 90l119 598h-175zM139 1186l232 260h215l129 -260h-172l-74 164h-4l-139 -164h-187z" />
    <glyph glyph-name="idieresis" unicode="&#xef;" horiz-adv-x="653" 
d="M104 883l31 153h371l-144 -733q-8 -46 -8 -63q0 -90 95 -90l47 4l-29 -154q-47 -4 -82 -4q-36 0 -64 3t-62 15t-56 32.5t-37.5 58.5t-15.5 90q0 32 10 90l119 598h-175zM180 1239l43 207h176l-43 -207h-176zM535 1239l43 207h176l-41 -207h-178z" />
    <glyph glyph-name="eth" unicode="&#xf0;" horiz-adv-x="1218" 
d="M55 391q0 102 40.5 202t112.5 180.5t183.5 130.5t241.5 50q48 0 91.5 -9.5t71.5 -23.5t49 -28t31 -23l9 -10h4q-34 174 -180 291l-398 -160l2 111l291 119q-119 67 -256 104l82 148q229 -62 381 -173l317 127v-110l-229 -92q205 -205 205 -506q0 -63 -10.5 -131
t-34.5 -141t-58.5 -140.5t-85 -128t-112 -105.5t-142.5 -71.5t-172 -26.5q-106 0 -190 33.5t-136.5 91t-80 132t-27.5 159.5zM258 395q0 -108 60 -178t174 -70q85 0 160.5 42t124.5 107.5t77.5 141.5t28.5 146q0 95 -65 153t-179 58q-107 0 -195 -55.5t-137 -147t-49 -197.5
z" />
    <glyph glyph-name="ntilde" unicode="&#xf1;" horiz-adv-x="1376" 
d="M115 883l30 153h236q111 0 111 -88q0 -19 -10 -65.5t-21 -73.5h4q11 22 33 50.5t62 65t87.5 66t115.5 50t140 20.5q134 0 210.5 -70.5t76.5 -202.5q0 -69 -45 -291t-45 -257q0 -54 23.5 -72t68.5 -18l49 4l-31 -154q-41 -4 -88 -4q-33 0 -59.5 3t-59.5 15t-55 31.5
t-37.5 57t-15.5 87.5q0 48 44 267.5t44 271.5q0 74 -40 112t-116 38q-149 0 -268.5 -122t-152.5 -292l-91 -465h-198l164 838q7 45 -37 45h-129zM498 1188q25 125 87 192.5t152 67.5q39 0 69.5 -14t49 -34t34 -40.5t34.5 -34.5t41 -14q69 0 98 131h149q-22 -124 -84.5 -192
t-152.5 -68q-39 0 -69 14t-48.5 34t-34.5 40.5t-34.5 34.5t-40.5 14q-40 0 -65 -38.5t-36 -92.5h-149z" />
    <glyph glyph-name="ograve" unicode="&#xf2;" horiz-adv-x="1284" 
d="M59 432q0 173 93 319t243 228t318 82q211 0 344 -126t133 -327q0 -131 -55 -250t-145.5 -202t-209 -132t-243.5 -49q-211 0 -344.5 127.5t-133.5 329.5zM262 440q0 -130 81 -211.5t210 -81.5q107 0 207 58.5t163.5 163.5t63.5 229q0 129 -81 210t-210 81
q-108 0 -208 -58.5t-163 -163t-63 -227.5zM492 1446h221l159 -260h-178z" />
    <glyph glyph-name="oacute" unicode="&#xf3;" horiz-adv-x="1284" 
d="M59 432q0 173 93 319t243 228t318 82q211 0 344 -126t133 -327q0 -131 -55 -250t-145.5 -202t-209 -132t-243.5 -49q-211 0 -344.5 127.5t-133.5 329.5zM262 440q0 -130 81 -211.5t210 -81.5q107 0 207 58.5t163.5 163.5t63.5 229q0 129 -81 210t-210 81
q-108 0 -208 -58.5t-163 -163t-63 -227.5zM629 1186l262 260h237l-303 -260h-196z" />
    <glyph glyph-name="ocircumflex" unicode="&#xf4;" horiz-adv-x="1284" 
d="M59 432q0 173 93 319t243 228t318 82q211 0 344 -126t133 -327q0 -131 -55 -250t-145.5 -202t-209 -132t-243.5 -49q-211 0 -344.5 127.5t-133.5 329.5zM262 440q0 -130 81 -211.5t210 -81.5q107 0 207 58.5t163.5 163.5t63.5 229q0 129 -81 210t-210 81
q-108 0 -208 -58.5t-163 -163t-63 -227.5zM461 1186l231 260h215l129 -260h-172l-73 164h-5l-139 -164h-186z" />
    <glyph glyph-name="otilde" unicode="&#xf5;" horiz-adv-x="1284" 
d="M59 432q0 173 93 319t243 228t318 82q211 0 344 -126t133 -327q0 -131 -55 -250t-145.5 -202t-209 -132t-243.5 -49q-211 0 -344.5 127.5t-133.5 329.5zM262 440q0 -130 81 -211.5t210 -81.5q107 0 207 58.5t163.5 163.5t63.5 229q0 129 -81 210t-210 81
q-108 0 -208 -58.5t-163 -163t-63 -227.5zM422 1188q25 125 87 192.5t153 67.5q39 0 69.5 -14t48.5 -34t33.5 -40.5t34.5 -34.5t41 -14q69 0 98 131h150q-22 -124 -85 -192t-153 -68q-39 0 -69 14t-48.5 34t-34.5 40.5t-34.5 34.5t-40.5 14q-40 0 -65 -38.5t-36 -92.5h-149z
" />
    <glyph glyph-name="odieresis" unicode="&#xf6;" horiz-adv-x="1284" 
d="M59 432q0 173 93 319t243 228t318 82q211 0 344 -126t133 -327q0 -131 -55 -250t-145.5 -202t-209 -132t-243.5 -49q-211 0 -344.5 127.5t-133.5 329.5zM262 440q0 -130 81 -211.5t210 -81.5q107 0 207 58.5t163.5 163.5t63.5 229q0 129 -81 210t-210 81
q-108 0 -208 -58.5t-163 -163t-63 -227.5zM473 1239l41 207h178l-43 -207h-176zM883 1239l43 207h176l-43 -207h-176z" />
    <glyph glyph-name="divide" unicode="&#xf7;" 
d="M102 504v160h1037v-160h-1037zM524 90v186h193v-186h-193zM524 891v186h193v-186h-193z" />
    <glyph glyph-name="oslash" unicode="&#xf8;" horiz-adv-x="1286" 
d="M59 432q0 130 54.5 248t143.5 200.5t205 131.5t236 49q166 0 293 -78l111 119l80 -70l-111 -119q119 -129 119 -305q0 -131 -54.5 -250t-144 -202t-205 -132t-235.5 -49q-155 0 -279 70l-110 -119l-80 70l104 115q-127 134 -127 321zM262 440q0 -103 62 -182l536 584
q-70 47 -164 47q-108 0 -208 -58.5t-163 -163t-63 -227.5zM403 186q70 -39 150 -39q107 0 207 58.5t163.5 163.5t63.5 229q0 88 -55 164z" />
    <glyph glyph-name="ugrave" unicode="&#xf9;" horiz-adv-x="1363" 
d="M90 883l31 153h371l-119 -616q-17 -73 -17 -119q0 -71 36 -108t120 -37q99 0 189 61.5t147 154t76 193.5l61 318h-172l31 153h370l-143 -733q-6 -35 -6 -63q0 -51 24.5 -70.5t67.5 -19.5l49 4l-30 -154q-46 -4 -95 -4q-108 0 -162.5 56.5t-44.5 170.5h-4q-28 -44 -66 -84
t-91 -79t-123.5 -62t-147.5 -23q-128 0 -209 67.5t-81 205.5q0 65 14 131l96 504h-172zM483 1446h222l159 -260h-178z" />
    <glyph glyph-name="uacute" unicode="&#xfa;" horiz-adv-x="1363" 
d="M90 883l31 153h371l-119 -616q-17 -73 -17 -119q0 -71 36 -108t120 -37q99 0 189 61.5t147 154t76 193.5l61 318h-172l31 153h370l-143 -733q-6 -35 -6 -63q0 -51 24.5 -70.5t67.5 -19.5l49 4l-30 -154q-46 -4 -95 -4q-108 0 -162.5 56.5t-44.5 170.5h-4q-28 -44 -66 -84
t-91 -79t-123.5 -62t-147.5 -23q-128 0 -209 67.5t-81 205.5q0 65 14 131l96 504h-172zM621 1186l262 260h237l-303 -260h-196z" />
    <glyph glyph-name="ucircumflex" unicode="&#xfb;" horiz-adv-x="1363" 
d="M90 883l31 153h371l-119 -616q-17 -73 -17 -119q0 -71 36 -108t120 -37q99 0 189 61.5t147 154t76 193.5l61 318h-172l31 153h370l-143 -733q-6 -35 -6 -63q0 -51 24.5 -70.5t67.5 -19.5l49 4l-30 -154q-46 -4 -95 -4q-108 0 -162.5 56.5t-44.5 170.5h-4q-28 -44 -66 -84
t-91 -79t-123.5 -62t-147.5 -23q-128 0 -209 67.5t-81 205.5q0 65 14 131l96 504h-172zM453 1186l231 260h215l129 -260h-172l-74 164h-4l-139 -164h-186z" />
    <glyph glyph-name="udieresis" unicode="&#xfc;" horiz-adv-x="1363" 
d="M90 883l31 153h371l-119 -616q-17 -73 -17 -119q0 -71 36 -108t120 -37q99 0 189 61.5t147 154t76 193.5l61 318h-172l31 153h370l-143 -733q-6 -35 -6 -63q0 -51 24.5 -70.5t67.5 -19.5l49 4l-30 -154q-46 -4 -95 -4q-108 0 -162.5 56.5t-44.5 170.5h-4q-28 -44 -66 -84
t-91 -79t-123.5 -62t-147.5 -23q-128 0 -209 67.5t-81 205.5q0 65 14 131l96 504h-172zM467 1239l41 207h178l-43 -207h-176zM877 1239l43 207h176l-43 -207h-176z" />
    <glyph glyph-name="yacute" unicode="&#xfd;" horiz-adv-x="1212" 
d="M-123 -362l92 143q6 -5 16.5 -12.5t46 -20t74.5 -12.5q64 0 122 39.5t98 103.5l61 103l-186 901h-131l30 153h465l-28 -153h-138l111 -617q4 -20 4.5 -42.5t-0.5 -35.5l-2 -12h6q16 45 43 90l348 617h-133l31 153h465l-31 -153h-127l-616 -1047q-156 -266 -396 -266
q-65 0 -121.5 17t-80.5 34zM592 1186l262 260h238l-304 -260h-196z" />
    <glyph glyph-name="thorn" unicode="&#xfe;" horiz-adv-x="1257" 
d="M-20 -410l329 1702h-168l29 154h367l-95 -481q-3 -18 -8 -38.5t-8 -32.5l-4 -11h4q55 78 145 128t199 50q184 0 286.5 -114.5t102.5 -311.5q0 -142 -48 -267t-126.5 -210t-180 -134t-208.5 -49q-103 0 -187.5 47t-121.5 134h-4q-5 -44 -15 -97l-92 -469h-196zM344 414
q0 -116 58.5 -191.5t172.5 -75.5q68 0 135 33t122 92t89.5 150.5t34.5 198.5q0 124 -62 195t-171 71q-103 0 -191.5 -67.5t-138 -176.5t-49.5 -229z" />
    <glyph glyph-name="ydieresis" unicode="&#xff;" horiz-adv-x="1212" 
d="M-123 -362l92 143q6 -5 16.5 -12.5t46 -20t74.5 -12.5q64 0 122 39.5t98 103.5l61 103l-186 901h-131l30 153h465l-28 -153h-138l111 -617q4 -20 4.5 -42.5t-0.5 -35.5l-2 -12h6q16 45 43 90l348 617h-133l31 153h465l-31 -153h-127l-616 -1047q-156 -266 -396 -266
q-65 0 -121.5 17t-80.5 34zM436 1239l41 207h178l-43 -207h-176zM846 1239l43 207h176l-43 -207h-176z" />
    <glyph glyph-name="OE" unicode="&#x152;" horiz-adv-x="2002" 
d="M115 598q0 173 72 333.5t190 276.5t276.5 186t325.5 70q64 0 157 -9t132 -9h755l-65 -336h-170l33 168h-486l-92 -467h508l-33 -166h-508l-92 -477h520l33 170h170l-65 -338h-764q-32 0 -117 -9t-137 -9q-289 0 -466 172.5t-177 443.5zM324 598q0 -198 119.5 -321
t322.5 -123q36 0 73.5 4t56.5 8l19 4l213 1108q-59 14 -141 14q-131 0 -253.5 -55.5t-212 -148.5t-143.5 -221.5t-54 -268.5z" />
    <glyph glyph-name="oe" unicode="&#x153;" horiz-adv-x="2052" 
d="M59 432q0 173 91.5 319t239 228t312.5 82q145 0 252 -65.5t162 -180.5h4q79 114 197.5 180t257.5 66q194 0 294.5 -104.5t100.5 -278.5q0 -37 -8 -82t-16 -72l-7 -26h-755q-8 -33 -8 -74q0 -121 78.5 -199t218.5 -78q78 0 160.5 30.5t125.5 60.5l43 30l58 -157
q-7 -6 -20 -15t-55 -32.5t-86 -41.5t-109 -32.5t-128 -14.5q-154 0 -264 66t-162 186h-4q-86 -117 -216.5 -184.5t-268.5 -67.5q-217 0 -352.5 127t-135.5 330zM262 440q0 -130 81 -211.5t210 -81.5q107 0 207 58.5t163.5 163.5t63.5 229q0 129 -81 210t-210 81
q-112 0 -211.5 -58.5t-161 -163t-61.5 -227.5zM1214 629h553q7 32 7 65q0 101 -55 155t-146 54q-118 0 -215 -73t-144 -201z" />
    <glyph glyph-name="Ydieresis" unicode="&#x178;" horiz-adv-x="1335" 
d="M154 1288l30 158h490l-31 -158h-151l178 -454l18 -62h4q18 31 41 62l359 454h-150l31 158h502l-31 -158h-137l-537 -676l-88 -452h180l-31 -160h-567l31 160h182l88 452l-274 676h-137zM567 1599l41 207h178l-43 -207h-176zM977 1599l43 207h176l-43 -207h-176z" />
    <glyph glyph-name="circumflex" unicode="&#x2c6;" horiz-adv-x="1021" 
d="M76 1546l231 260h215l129 -260h-172l-73 164h-5l-139 -164h-186z" />
    <glyph glyph-name="tilde" unicode="&#x2dc;" horiz-adv-x="1021" 
d="M35 1548q25 125 87 192.5t152 67.5q39 0 69.5 -14t49 -34t34 -40.5t34.5 -34.5t41 -14q69 0 98 131h150q-22 -124 -85 -192t-153 -68q-39 0 -69 14t-48.5 34t-34.5 40.5t-34.5 34.5t-40.5 14q-40 0 -65 -38.5t-36 -92.5h-149z" />
    <glyph glyph-name="uni2000" unicode="&#x2000;" horiz-adv-x="918" 
 />
    <glyph glyph-name="uni2001" unicode="&#x2001;" horiz-adv-x="1837" 
 />
    <glyph glyph-name="uni2002" unicode="&#x2002;" horiz-adv-x="918" 
 />
    <glyph glyph-name="uni2003" unicode="&#x2003;" horiz-adv-x="1837" 
 />
    <glyph glyph-name="uni2004" unicode="&#x2004;" horiz-adv-x="612" 
 />
    <glyph glyph-name="uni2005" unicode="&#x2005;" horiz-adv-x="459" 
 />
    <glyph glyph-name="uni2006" unicode="&#x2006;" horiz-adv-x="306" 
 />
    <glyph glyph-name="uni2007" unicode="&#x2007;" horiz-adv-x="306" 
 />
    <glyph glyph-name="uni2008" unicode="&#x2008;" horiz-adv-x="229" 
 />
    <glyph glyph-name="uni2009" unicode="&#x2009;" horiz-adv-x="367" 
 />
    <glyph glyph-name="uni200A" unicode="&#x200a;" horiz-adv-x="102" 
 />
    <glyph glyph-name="uni2010" unicode="&#x2010;" horiz-adv-x="976" 
d="M166 496l33 176h598l-33 -176h-598z" />
    <glyph glyph-name="uni2011" unicode="&#x2011;" horiz-adv-x="976" 
d="M166 496l33 176h598l-33 -176h-598z" />
    <glyph glyph-name="figuredash" unicode="&#x2012;" horiz-adv-x="976" 
d="M166 496l33 176h598l-33 -176h-598z" />
    <glyph glyph-name="endash" unicode="&#x2013;" horiz-adv-x="1464" 
d="M172 504l29 160h1079l-31 -160h-1077z" />
    <glyph glyph-name="emdash" unicode="&#x2014;" horiz-adv-x="1873" 
d="M172 504l29 160h1489l-31 -160h-1487z" />
    <glyph glyph-name="quoteleft" unicode="&#x2018;" horiz-adv-x="485" 
d="M178 1022l232 446h153l-182 -446h-203z" />
    <glyph glyph-name="quoteright" unicode="&#x2019;" horiz-adv-x="475" 
d="M186 1022l183 446h200l-229 -446h-154z" />
    <glyph glyph-name="quotesinglbase" unicode="&#x201a;" horiz-adv-x="528" 
d="M-76 -231l182 446h203l-231 -446h-154z" />
    <glyph glyph-name="quotedblleft" unicode="&#x201c;" horiz-adv-x="786" 
d="M178 1022l232 446h153l-182 -446h-203zM479 1022l232 446h153l-182 -446h-203z" />
    <glyph glyph-name="quotedblright" unicode="&#x201d;" horiz-adv-x="776" 
d="M186 1022l183 446h200l-229 -446h-154zM487 1022l183 446h200l-229 -446h-154z" />
    <glyph glyph-name="quotedblbase" unicode="&#x201e;" horiz-adv-x="829" 
d="M-76 -231l182 446h203l-231 -446h-154zM225 -231l183 446h202l-231 -446h-154z" />
    <glyph glyph-name="bullet" unicode="&#x2022;" horiz-adv-x="858" 
d="M106 596q0 132 93 224.5t225 92.5t224.5 -92.5t92.5 -224.5t-92.5 -224.5t-224.5 -92.5t-225 92.5t-93 224.5z" />
    <glyph glyph-name="ellipsis" unicode="&#x2026;" horiz-adv-x="1585" 
d="M43 0l41 215h209l-43 -215h-207zM573 0l43 215h207l-41 -215h-209zM1106 0l41 215h209l-43 -215h-207z" />
    <glyph glyph-name="uni202F" unicode="&#x202f;" horiz-adv-x="367" 
 />
    <glyph glyph-name="guilsinglleft" unicode="&#x2039;" horiz-adv-x="724" 
d="M82 582l391 417h209l-410 -430l260 -411h-188z" />
    <glyph glyph-name="guilsinglright" unicode="&#x203a;" horiz-adv-x="731" 
d="M35 158l409 430l-260 411h189l262 -424l-391 -417h-209z" />
    <glyph glyph-name="uni205F" unicode="&#x205f;" horiz-adv-x="459" 
 />
    <glyph glyph-name="Euro" unicode="&#x20ac;" horiz-adv-x="1236" 
d="M76 512l24 125h113q5 74 29 188h-109l25 127h127q104 231 312.5 374.5t455.5 143.5q59 0 117.5 -8t87.5 -16l28 -8l-80 -168q-75 20 -157 20q-169 0 -313.5 -91.5t-227.5 -246.5h577l-51 -127h-581q-25 -104 -31 -188h543l-52 -125h-479q16 -158 120 -256t284 -98
q45 0 92.5 7t72.5 14l25 7l6 -180q-90 -31 -213 -31q-253 0 -419 147.5t-185 389.5h-141z" />
    <glyph glyph-name="trademark" unicode="&#x2122;" horiz-adv-x="2119" 
d="M211 1309v137h780v-137h-313v-764h-154v764h-313zM1055 545l71 901h144l213 -471q7 -16 13.5 -37.5t9.5 -35.5l3 -13h4q13 49 29 86l213 471h143l70 -901h-156l-40 538l2 62h-5l-194 -434h-125l-195 434h-4l2 -62l-43 -538h-155z" />
    <glyph glyph-name="uniE000" unicode="&#xe000;" horiz-adv-x="1034" 
d="M0 0v1034h1034v-1034h-1034z" />
    </font>
</defs>
</svg>
