<?xml version="1.0" standalone="no"?>
<!DOCTYPE svg PUBLIC "-//W3C//DTD SVG 1.1//EN" "http://www.w3.org/Graphics/SVG/1.1/DTD/svg11.dtd" >
<svg xmlns="http://www.w3.org/2000/svg" xmlns:xlink="http://www.w3.org/1999/xlink" version="1.1">
<metadata></metadata>
<defs>
<font id="barlowextrabold" horiz-adv-x="542" >
<font-face units-per-em="2048" ascent="1638" descent="-410" />
<missing-glyph horiz-adv-x="409" />
<glyph horiz-adv-x="0" />
<glyph unicode="&#xd;" horiz-adv-x="409" />
<glyph unicode=" "  horiz-adv-x="409" />
<glyph unicode="&#x09;" horiz-adv-x="409" />
<glyph unicode="&#xa0;" horiz-adv-x="409" />
<glyph unicode="!" horiz-adv-x="727" d="M150 199q0 80 64.5 138t143.5 58q82 0 146.5 -58t64.5 -138q0 -82 -60 -139.5t-151 -57.5q-90 0 -149 57.5t-59 139.5zM195 1397q0 37 34 37h267q35 0 34 -37l-30 -860q0 -16 -11.5 -26.5t-27.5 -10.5h-197q-16 0 -27.5 10t-11.5 27z" />
<glyph unicode="&#x22;" horiz-adv-x="804" d="M20 1393v4q0 35 37 35h246q18 0 28.5 -10.5t8.5 -28.5l-31 -406q-2 -35 -37 -35h-182q-35 0 -37 35zM471 1393v4q0 35 37 35h248q18 0 28.5 -10.5t8.5 -28.5l-33 -406q-2 -35 -37 -35h-182q-35 0 -37 35z" />
<glyph unicode="#" horiz-adv-x="1425" d="M78 377v215q0 16 10 26.5t27 10.5h139q14 0 16 12l23 154v2q0 12 -14 12h-89q-16 0 -26 10t-10 27v217q0 16 10 26.5t26 10.5h136q14 0 16 12l35 231q6 35 41 35l266 -2q39 0 33 -39l-35 -221v-2q0 -14 14 -14h152q14 0 16 12l35 231q6 35 41 35l266 -2q39 0 33 -39 l-35 -221v-2q0 -14 15 -14h92q16 0 26.5 -10.5t10.5 -26.5v-217q0 -17 -10.5 -27t-26.5 -10h-140q-14 0 -16 -12l-22 -154v-2q0 -12 14 -12h90q16 0 26.5 -10.5t10.5 -26.5l-2 -215q0 -16 -10.5 -26.5t-26.5 -10.5h-135q-14 0 -17 -12l-34 -230q-6 -35 -41 -35h-265 q-41 0 -34 39l34 222v2q0 14 -14 14h-151q-14 0 -17 -12l-35 -230q-6 -35 -41 -35h-264q-41 0 -35 39l35 222v2q0 14 -14 14h-92q-16 0 -26.5 10t-10.5 27zM610 641q0 -12 15 -12h151q15 0 17 12l22 154v2q0 12 -14 12h-152q-14 0 -16 -12l-23 -154v-2z" />
<glyph unicode="$" horiz-adv-x="1134" d="M68 1024q0 166 99 276.5t277 139.5q14 2 15 16l-4 105q0 16 10 26t27 10h141q16 0 26.5 -10t10.5 -26l-2 -103q0 -14 14 -16q180 -25 279.5 -129.5t99.5 -263.5v-74q0 -16 -10.5 -26.5t-26.5 -10.5h-260q-16 0 -26.5 5t-10.5 15v19q0 76 -42 129t-128 53 q-70 0 -112 -34.5t-42 -90.5q0 -41 29 -67.5t71 -44t126 -45.5q80 -23 157 -56q145 -66 214 -165t69 -234q0 -172 -101.5 -285.5t-283.5 -142.5q-14 -2 -14 -17l2 -86q0 -37 -35 -36h-145q-35 0 -35 36l2 84q0 14 -15 17q-174 27 -271 125t-97 248v90q0 16 10 26.5t27 10.5 h260q16 0 26.5 -7.5t10.5 -17.5v-25q0 -70 44 -119t126 -49q74 0 111.5 40t37.5 92q0 57 -55.5 89.5t-175.5 73.5q-82 29 -141.5 53.5t-106.5 57.5q-84 55 -133 141t-49 203z" />
<glyph unicode="%" horiz-adv-x="1671" d="M100 1116q0 92 45 168t123 121t170 45t170 -45t123 -122t45 -167q0 -92 -45 -169t-123 -122t-170 -45t-170 45t-123 122t-45 169zM279 1116q0 -68 47 -116t112 -48q68 0 114 48.5t46 115.5q0 68 -47 115t-113 47t-112.5 -47t-46.5 -115zM332 23q0 8 6 20l760 1364 q16 27 43 27h159q33 0 33 -23q0 -8 -6 -20l-758 -1364q-16 -27 -43 -27h-161q-33 0 -33 23zM913 319q0 90 45.5 167t123 122t169.5 45q90 0 168 -45t123 -121.5t45 -167.5q0 -92 -45 -168.5t-122 -121.5t-169 -45t-169.5 45t-123 121.5t-45.5 168.5zM1090 319 q0 -70 47 -116.5t114 -46.5q66 0 113 47t47 116q0 66 -47 114t-113 48q-68 0 -114.5 -48t-46.5 -114z" />
<glyph unicode="&#x26;" horiz-adv-x="1474" d="M66 354q0 133 66.5 225.5t182.5 163.5q14 8 4 21q-94 111 -123.5 169t-29.5 120q0 119 54 209t154.5 139t233.5 49t238.5 -50t165 -139.5t59.5 -205.5q0 -129 -69.5 -215t-190.5 -156q-12 -10 -4 -20l33 -37l112 -121q10 -10 21 0q78 80 121 151q12 18 28 19q10 0 23 -6 l192 -111q20 -12 21 -31q0 -8 -6 -20q-82 -129 -176 -227q-8 -8 0 -21l190 -215q12 -13 12 -25q0 -20 -32 -20h-295q-27 0 -45 20l-62 64q-10 10 -18 4q-195 -104 -404 -104q-195 0 -325.5 92t-130.5 278zM406 369q0 -47 34.5 -75t94.5 -28q31 0 49 4q66 14 127 43 q12 10 2 21l-86 92l-92 96q-10 10 -19 4q-111 -74 -110 -157zM506 1053q0 -20 17.5 -50t72.5 -98q10 -10 20 -4q115 68 115 146q0 45 -31.5 70.5t-83.5 25.5q-51 0 -80.5 -25.5t-29.5 -64.5z" />
<glyph unicode="'" horiz-adv-x="370" d="M20 1395v4q0 35 37 35h265q18 0 28 -10.5t8 -28.5l-32 -406q-2 -35 -37 -35h-199q-35 0 -37 35z" />
<glyph unicode="(" horiz-adv-x="774" d="M0 686q0 504 276 844q14 20 43 20h259q31 0 30 -22q0 -8 -6 -21q-221 -379 -221 -821q0 -252 61.5 -450.5t159.5 -370.5q6 -12 6 -21q0 -23 -30 -22h-259q-29 0 -43 20q-276 342 -276 844z" />
<glyph unicode=")" horiz-adv-x="774" d="M166 -156q0 8 6 21q98 172 159.5 370.5t61.5 450.5q0 442 -221 821q-6 12 -6 21q0 23 31 22h258q29 0 43 -20q276 -340 276 -844q0 -502 -276 -844q-14 -20 -43 -20h-258q-31 0 -31 22z" />
<glyph unicode="*" horiz-adv-x="817" d="M43 1059q0 16 20 28l142 72q8 4 7 10.5t-9 10.5l-137 67q-23 10 -23 29q0 8 6 20l60 111q8 20 30 20q12 0 21 -6l139 -80q8 -4 12 -1t4 12l-2 141q0 16 10.5 26.5t26.5 10.5h117q16 0 26.5 -10.5t10.5 -26.5l-2 -141q0 -8 4 -11.5t12 0.5l141 80q8 6 21 6q23 0 31 -20 l57 -111q6 -8 6 -20q0 -20 -20 -29l-142 -67q-8 -4 -8 -10.5t8 -10.5l142 -72q20 -8 20 -28q0 -10 -6 -21l-57 -110q-8 -20 -31 -21q-12 0 -21 6l-141 82q-8 4 -12 1t-4 -11l2 -143q0 -16 -10.5 -26.5t-26.5 -10.5h-117q-16 0 -26.5 10t-10.5 27l2 143q0 8 -4 11t-12 -1 l-139 -82q-8 -6 -21 -6q-23 0 -30 21l-60 110q-6 12 -6 21z" />
<glyph unicode="+" horiz-adv-x="985" d="M51 498v217q0 16 10.5 26.5t26.5 10.5h246q14 0 14 14v246q0 16 10.5 26.5t26.5 10.5h215q16 0 26.5 -10.5t10.5 -26.5v-246q0 -14 14 -14h244q16 0 26.5 -10.5t10.5 -26.5v-217q0 -16 -10.5 -26.5t-26.5 -10.5h-244q-14 0 -14 -15v-241q0 -16 -10.5 -26.5t-26.5 -10.5 h-215q-16 0 -26.5 10t-10.5 27v241q0 14 -14 15h-246q-16 0 -26.5 10t-10.5 27z" />
<glyph unicode="," d="M66 -176l59 467q2 35 39 35h225q18 0 27.5 -10.5t5.5 -30.5l-125 -469q-8 -31 -41 -31h-156q-38 0 -34 39z" />
<glyph unicode="-" horiz-adv-x="847" d="M51 485v217q0 16 10.5 26.5t26.5 10.5h672q16 0 26.5 -10t10.5 -27v-217q0 -16 -10.5 -26t-26.5 -10h-672q-16 0 -26.5 10t-10.5 26z" />
<glyph unicode="." d="M61 186q0 80 63.5 137.5t145.5 57.5t145.5 -57.5t63.5 -137.5q0 -84 -59.5 -141t-149.5 -57t-149.5 57t-59.5 141z" />
<glyph unicode="/" horiz-adv-x="974" d="M43 27l4 16l545 1362q12 29 43 29h262q33 0 33 -27l-4 -16l-543 -1362q-12 -29 -43 -29h-264q-33 0 -33 27z" />
<glyph unicode="0" horiz-adv-x="1169" d="M78 467v500q0 225 135 354t371 129t373 -130t137 -353v-500q0 -227 -137.5 -359.5t-372.5 -132.5q-236 0 -371 132.5t-135 359.5zM418 449q0 -84 44 -132.5t122 -48.5t124 48.5t46 132.5v530q0 84 -46 132t-124 48q-76 0 -121 -48t-45 -132v-530z" />
<glyph unicode="1" horiz-adv-x="692" d="M41 1135v190q0 29 31 41l172 59q18 9 45 9h280q16 0 26.5 -10.5t10.5 -26.5v-1360q0 -16 -10 -26.5t-27 -10.5h-266q-16 0 -26.5 10t-10.5 27v1071q0 6 -4 10t-10 2l-172 -20h-6q-33 0 -33 35z" />
<glyph unicode="2" horiz-adv-x="1163" d="M72 981v90q8 115 75.5 201t178 132t245.5 46q152 0 265.5 -56.5t174 -152.5t60.5 -213q0 -84 -41 -170t-123 -182q-88 -106 -301 -311l-57 -56q-8 -8 -6 -13t12 -5h500q16 0 26.5 -10.5t10.5 -26.5v-217q0 -16 -10.5 -26.5t-26.5 -10.5h-936q-17 0 -27 10t-10 27v207 q0 27 20 45q76 70 158 155.5t156 163.5q135 141 127 133q186 193 186 281q0 59 -44 98t-114 39t-112.5 -39t-42.5 -102v-37q0 -16 -10.5 -26.5t-26.5 -10.5h-270q-16 0 -26.5 10.5t-10.5 26.5z" />
<glyph unicode="3" horiz-adv-x="1124" d="M57 444v5q0 33 35 32h270q33 0 37 -35q8 -57 25 -88q35 -82 129 -82q90 0 127 76q31 55 31 135q0 78 -31 144q-43 78 -129 78q-23 0 -47.5 -13.5t-63.5 -40.5q-10 -8 -24 -8q-16 0 -29 17l-131 184q-8 16 -8 22q0 16 16 29l299 225q8 6 6 12.5t-12 6.5h-430 q-16 0 -26.5 10t-10.5 27v217q0 16 10.5 26.5t26.5 10.5h868q16 0 26.5 -10.5t10.5 -26.5v-246q0 -27 -22 -45l-238 -191q-4 -2 -4 -8q0 -8 12 -12q158 -43 232 -207q41 -94 41 -211q0 -109 -41 -207q-53 -133 -174 -209.5t-285 -76.5q-160 0 -283 78.5t-178 213.5 q-31 74 -35 168z" />
<glyph unicode="4" horiz-adv-x="1280" d="M55 395v178q0 20 11 48l346 784q12 29 43 29h284q33 0 33 -27l-4 -16l-313 -715q-6 -16 10 -17h250q14 0 14 15v213q0 16 10.5 26.5t26.5 10.5h266q16 0 26.5 -10.5t10.5 -26.5v-213q0 -14 14 -15h74q17 0 27 -10t10 -26v-228q0 -16 -10 -26.5t-27 -10.5h-74 q-14 0 -14 -14v-307q0 -16 -10 -26.5t-27 -10.5h-266q-16 0 -26.5 10t-10.5 27v307q0 14 -14 14h-623q-16 0 -26.5 10.5t-10.5 26.5z" />
<glyph unicode="5" horiz-adv-x="1120" d="M74 377v8q0 31 35 31h276q29 0 41 -27q2 -10 12 -27q16 -41 50 -62t79 -21q43 0 77 22.5t50 58.5q25 43 25 99q4 53 -21 104q-14 37 -48 58.5t-83 21.5q-84 0 -127 -57q-10 -12 -19 -18.5t-24 -6.5h-286q-16 0 -26.5 10.5t-10.5 26.5v799q0 16 10 26.5t27 10.5h872 q16 0 26.5 -10.5t10.5 -26.5v-217q0 -16 -10.5 -26.5t-26.5 -10.5h-555q-14 0 -14 -15v-229q0 -8 4 -11t12 1q86 47 186 47q145 0 256 -74t160 -200q35 -99 35 -197q0 -102 -37 -197q-53 -127 -177 -203.5t-286 -76.5t-284.5 74.5t-178.5 203.5q-23 55 -30 111z" />
<glyph unicode="6" horiz-adv-x="1116" d="M70 467v608q0 111 60 196t170 132t253 47q139 0 246.5 -46t167 -131t59.5 -194v-57q0 -16 -10 -26.5t-27 -10.5h-266q-37 0 -37 23v22q0 55 -38 92t-97 37q-61 0 -101 -38t-40 -95v-154q0 -8 5 -11t11 3q78 57 203 58q125 0 228.5 -61.5t160.5 -176.5q45 -92 45 -219 q0 -119 -41 -207q-53 -125 -174 -197.5t-283 -72.5q-160 0 -280.5 73.5t-175.5 202.5q-39 90 -39 203zM412 459q0 -63 26 -111q39 -70 127 -69q84 0 127 69q31 48 31 111q0 66 -33 116q-43 61 -123 62q-88 0 -127 -64q-29 -45 -28 -114z" />
<glyph unicode="7" horiz-adv-x="1032" d="M29 1049l2 348q0 16 10 26.5t27 10.5h903q16 0 26.5 -10.5t10.5 -26.5v-232q0 -27 -9 -45l-426 -1091q-12 -29 -43 -29h-284q-33 0 -33 27l4 16l428 1083l2 7q0 10 -14 10h-314q-14 0 -14 -15v-79q0 -16 -10 -26.5t-27 -10.5h-202q-16 0 -26.5 10t-10.5 27z" />
<glyph unicode="8" horiz-adv-x="1124" d="M61 426q0 123 50 215q37 70 92 107q14 10 0 20q-51 41 -84 96q-47 78 -47 185q0 133 69 231q63 88 173 135t249 47q158 0 272.5 -56t172.5 -171q47 -90 47 -188q0 -100 -51 -181q-39 -55 -86 -94q-12 -10 -3 -18q61 -45 99 -113q47 -88 47 -217q0 -113 -43 -199 q-57 -111 -177 -176t-282 -65q-154 0 -272.5 62.5t-177.5 180.5q-47 88 -48 199zM410 455q0 -74 28 -119q41 -63 125 -64q82 0 123 58q33 45 33 129q0 59 -19 96q-39 84 -137 84q-94 0 -133 -82q-20 -41 -20 -102zM410 1006q0 -57 22 -97q41 -68 131 -67q45 0 80 17.5 t53 49.5q25 41 25 99q0 47 -19 84q-39 80 -139 79q-98 0 -137 -77q-16 -33 -16 -88z" />
<glyph unicode="9" horiz-adv-x="1093" d="M31 969q0 119 41 207q53 125 174 197.5t282 72.5q160 0 281 -74t176 -203q39 -89 39 -202v-609q0 -111 -60.5 -195.5t-170 -131.5t-252.5 -47q-139 0 -247 46t-167 131t-59 193v58q0 16 10 26.5t26 10.5h267q37 0 37 -23v-23q0 -55 37.5 -92t97.5 -37q61 0 101 38t40 96 v153q0 10 -5 12t-11 -4q-78 -57 -203 -57t-228.5 61.5t-160.5 176.5q-45 92 -45 219zM371 975q0 -66 32 -117q43 -61 123 -61q88 0 127 63q29 45 29 115q0 63 -27 110q-39 70 -127 70q-84 0 -127 -70q-31 -47 -30 -110z" />
<glyph unicode=":" horiz-adv-x="763" d="M176 203q0 80 63.5 138t145.5 58t145.5 -58t63.5 -138q0 -82 -59.5 -139.5t-149.5 -57.5t-149.5 57.5t-59.5 139.5zM176 866q0 80 63.5 138.5t145.5 58.5t145.5 -58.5t63.5 -138.5q0 -82 -59.5 -139t-149.5 -57t-149.5 57t-59.5 139z" />
<glyph unicode=";" horiz-adv-x="649" d="M119 815q0 80 63.5 138.5t145.5 58.5t145.5 -58.5t63.5 -138.5q0 -82 -59.5 -140.5t-149.5 -58.5t-149.5 58.5t-59.5 140.5zM137 -174l43 463q2 35 39 35h227q18 0 27.5 -10.5t5.5 -30.5l-114 -463q-8 -33 -41 -33h-152q-39 0 -35 39z" />
<glyph unicode="&#x3c;" horiz-adv-x="985" d="M53 451v229q0 31 29 43l809 352q12 4 18 4q10 0 17.5 -9t7.5 -23v-246q0 -29 -29 -41l-479 -185q-8 -2 -8 -9t8 -11l479 -184q29 -12 29 -43v-244q0 -14 -7 -23.5t-18 -9.5q-6 0 -18 4l-809 353q-29 12 -29 43z" />
<glyph unicode="=" horiz-adv-x="985" d="M51 295v217q0 16 10.5 26.5t26.5 10.5h807q16 0 26.5 -10.5t10.5 -26.5v-217q0 -16 -10.5 -26.5t-26.5 -10.5h-807q-16 0 -26.5 10t-10.5 27zM51 678v217q0 16 10.5 26.5t26.5 10.5h807q16 0 26.5 -10.5t10.5 -26.5v-217q0 -16 -10.5 -26.5t-26.5 -10.5h-807 q-16 0 -26.5 10t-10.5 27z" />
<glyph unicode="&#x3e;" horiz-adv-x="985" d="M51 84v244q0 31 29 43l479 184q10 4 10 11t-10 9l-479 185q-29 12 -29 41v246q0 14 7.5 23t17.5 9q6 0 18 -4l809 -352q29 -12 29 -43v-229q0 -31 -29 -43l-809 -353q-12 -4 -18 -4q-10 0 -17.5 9.5t-7.5 23.5z" />
<glyph unicode="?" horiz-adv-x="1112" d="M49 1001v15q0 129 65.5 228t183.5 154.5t269 55.5q150 0 261.5 -51t172 -144.5t60.5 -216.5q0 -92 -33 -156.5t-79 -105.5t-118 -88t-106.5 -83t-34.5 -87v-16q0 -16 -10 -26.5t-27 -10.5h-266q-16 0 -26.5 10t-10.5 27v37q0 78 31 134t74 92t112 83q78 49 114 86t36 88 q0 55 -43 87t-115 32q-78 0 -124 -36t-46 -93v-10q0 -16 -10 -26.5t-27 -8.5l-266 12q-37 4 -37 18zM342 172q0 76 57.5 130t137.5 54q76 0 134 -54t58 -128q0 -76 -58.5 -129t-135.5 -53q-80 0 -136.5 53t-56.5 127z" />
<glyph unicode="@" horiz-adv-x="1673" d="M61 479q0 35 9 117q29 229 151.5 407.5t311 277.5t411.5 99q201 0 352.5 -78.5t233.5 -223t82 -335.5q0 -53 -6 -108q-25 -205 -125.5 -319.5t-274.5 -114.5q-145 0 -223 78q-10 10 -20 0q-41 -39 -101.5 -58.5t-126.5 -19.5q-106 0 -173.5 57t-86.5 148q-8 33 -8 77 q0 35 8 97q12 92 41 168q39 104 118 158.5t171 54.5q96 0 145 -56q6 -8 11.5 -7t7.5 7l2 19q6 35 39 34h151q39 0 33 -38l-49 -355q-2 -12 -2 -39q0 -53 21.5 -85.5t64.5 -32.5q111 0 139 213q8 55 8 114q0 213 -120.5 326t-323.5 113q-166 0 -301 -74t-222 -208t-110 -308 q-6 -51 -6 -103q0 -213 124 -331.5t335 -118.5q90 0 171 21.5t132 51.5q12 6 24 7q14 0 27 -15l78 -92q10 -14 10 -24q0 -14 -14 -27q-84 -61 -207 -98t-254 -37q-178 0 -328.5 79.5t-240 230.5t-89.5 351zM688 508q0 -29 6 -47q8 -33 32 -51.5t58 -18.5q62 0 101 70 q27 47 33 121q4 53 4 63q0 31 -7 55q-4 31 -27.5 49.5t-56.5 18.5t-60.5 -19.5t-43.5 -50.5q-20 -41 -33 -127q-6 -33 -6 -63z" />
<glyph unicode="A" horiz-adv-x="1421" d="M55 41l430 1362q10 31 43 31h363q35 0 43 -31l432 -1362q2 -4 2 -14q0 -27 -33 -27h-288q-33 0 -41 31l-48 168q-2 12 -16 12h-463q-12 0 -16 -12l-47 -168q-8 -31 -41 -31h-289q-20 0 -28.5 11.5t-2.5 29.5zM547 485q0 -12 12 -12h303q8 0 11.5 5t0.5 11l-155 545 q-2 10 -7 10t-10 -10l-155 -545v-4z" />
<glyph unicode="B" horiz-adv-x="1263" d="M100 37v1360q0 16 10.5 26.5t26.5 10.5h516q250 0 378 -94.5t128 -305.5q0 -201 -160 -284q-8 -5 -8 -11t8 -10q182 -96 183 -323q0 -205 -141.5 -305.5t-370.5 -100.5h-533q-16 0 -26.5 10t-10.5 27zM440 307q0 -14 15 -14h215q82 0 127 38t45 109q0 70 -44 108t-128 38 h-215q-14 0 -15 -15v-264zM440 879q0 -14 15 -15h198q84 0 129 36t45 101q0 68 -45 105t-129 37h-198q-15 -1 -15 -15v-249z" />
<glyph unicode="C" horiz-adv-x="1247" d="M78 498v442q0 152 68.5 267.5t192.5 179t288 63.5t287.5 -60.5t192.5 -170t69 -252.5q0 -18 -35 -23l-267 -18h-10q-29 0 -28 10v12q0 96 -57.5 153.5t-151.5 57.5t-151.5 -58.5t-57.5 -152.5v-465q0 -94 57 -151.5t152 -57.5q94 0 151.5 57.5t57.5 151.5q0 12 9 18.5 t27 4.5l269 -14q35 -4 35 -11v-10q0 -145 -69 -256t-192.5 -171t-287.5 -60t-288 63.5t-192.5 180t-68.5 270.5z" />
<glyph unicode="D" horiz-adv-x="1265" d="M100 37v1360q0 16 10.5 26.5t26.5 10.5h510q160 0 283 -55.5t190.5 -158t67.5 -235.5v-536q0 -133 -67.5 -235.5t-190.5 -158t-283 -55.5h-510q-16 0 -26.5 10t-10.5 27zM440 305q1 -14 15 -14h207q82 0 133 58.5t53 156.5v422q0 98 -52.5 156.5t-136.5 58.5h-204 q-14 0 -15 -15v-823z" />
<glyph unicode="E" horiz-adv-x="1181" d="M100 37v1360q0 16 10.5 26.5t26.5 10.5h944q16 0 26.5 -10.5t10.5 -26.5v-217q0 -17 -10 -27t-27 -10h-626q-14 0 -15 -15v-243q0 -14 15 -15h395q16 0 26.5 -10t10.5 -26v-216q0 -16 -10.5 -26t-26.5 -10h-395q-14 0 -15 -15v-262q0 -14 15 -14h626q16 0 26.5 -10.5 t10.5 -26.5v-217q0 -16 -10 -26.5t-27 -10.5h-944q-16 0 -26.5 10t-10.5 27z" />
<glyph unicode="F" horiz-adv-x="1140" d="M100 37v1360q0 16 10.5 26.5t26.5 10.5h942q16 0 26.5 -10.5t10.5 -26.5v-217q0 -17 -10 -27t-27 -10h-624q-14 0 -15 -15v-243q0 -14 15 -15h395q16 0 26.5 -10t10.5 -26v-216q0 -16 -10.5 -26t-26.5 -10h-395q-14 0 -15 -15v-530q0 -16 -10 -26.5t-27 -10.5h-266 q-16 0 -26.5 10t-10.5 27z" />
<glyph unicode="G" horiz-adv-x="1245" d="M78 508v420q0 156 68.5 273.5t192.5 183t288 65.5q162 0 286.5 -62.5t193.5 -171t69 -239.5q0 -35 -37 -35h-267q-37 0 -36 12v13q0 80 -56.5 136t-152.5 56q-94 0 -151.5 -61.5t-57.5 -159.5v-440q0 -98 63.5 -160t159.5 -62q90 0 145.5 48.5t55.5 134.5v53q0 14 -15 14 h-188q-16 0 -26.5 10.5t-10.5 26.5v201q0 16 10.5 26.5t26.5 10.5h500q16 0 26.5 -10.5t10.5 -26.5v-266q0 -154 -69 -270.5t-192.5 -180t-287.5 -63.5t-288 65.5t-192.5 184t-68.5 274.5z" />
<glyph unicode="H" horiz-adv-x="1267" d="M100 37v1360q0 16 10.5 26.5t26.5 10.5h266q16 0 26.5 -10.5t10.5 -26.5v-512q0 -14 15 -15h374q14 0 15 15v512q0 16 10 26.5t27 10.5h266q16 0 26.5 -10.5t10.5 -26.5v-1360q0 -16 -10.5 -26.5t-26.5 -10.5h-266q-16 0 -26.5 10t-10.5 27v528q0 14 -15 15h-374 q-14 0 -15 -15v-528q0 -16 -10 -26.5t-27 -10.5h-266q-16 0 -26.5 10t-10.5 27z" />
<glyph unicode="I" d="M100 37v1360q0 16 10.5 26.5t26.5 10.5h266q16 0 26.5 -10.5t10.5 -26.5v-1360q0 -16 -10 -26.5t-27 -10.5h-266q-16 0 -26.5 10t-10.5 27z" />
<glyph unicode="J" horiz-adv-x="1216" d="M31 463v65q0 16 10 26.5t27 10.5h266q16 0 26.5 -10t10.5 -27v-63q0 -86 55 -138.5t145 -52.5q92 0 148.5 52.5t56.5 138.5v932q0 16 10.5 26.5t26.5 10.5h264q16 0 26.5 -10.5t10.5 -26.5v-934q0 -141 -67.5 -250t-190.5 -169t-285 -60q-159 0 -282 60t-190.5 169 t-67.5 250z" />
<glyph unicode="K" horiz-adv-x="1292" d="M100 37v1360q0 16 10.5 26.5t26.5 10.5h266q16 0 26.5 -10.5t10.5 -26.5v-512q0 -10 6.5 -12.5t12.5 6.5l401 532q18 23 45 23h303q31 0 31 -23q0 -12 -8 -22l-430 -574q-6 -10 -2 -20l452 -750q6 -12 6 -20q0 -25 -30 -25h-301q-27 0 -43 25l-314 532q-4 6 -10 8t-10 -6 l-103 -139q-6 -6 -6 -19v-364q0 -16 -10 -26.5t-27 -10.5h-266q-16 0 -26.5 10t-10.5 27z" />
<glyph unicode="L" horiz-adv-x="1173" d="M100 37v1360q0 16 10.5 26.5t26.5 10.5h266q16 0 26.5 -10.5t10.5 -26.5v-1092q0 -14 15 -14h637q16 0 26 -10.5t10 -26.5v-217q0 -16 -10 -26.5t-26 -10.5h-955q-16 0 -26.5 10t-10.5 27z" />
<glyph unicode="M" horiz-adv-x="1460" d="M102 37v1360q0 16 10.5 26.5t26.5 10.5h264q29 0 43 -25l273 -440q10 -14 20 0l275 440q14 25 43 25h264q16 0 26.5 -10.5t10.5 -26.5v-1360q0 -16 -10.5 -26.5t-26.5 -10.5h-266q-16 0 -26.5 10t-10.5 27v801q0 10 -6 12t-11 -8l-165 -271q-14 -25 -43 -24h-125 q-29 0 -43 24l-166 271q-4 10 -10.5 8t-6.5 -12v-801q0 -16 -10 -26.5t-26 -10.5h-267q-16 0 -26.5 10t-10.5 27z" />
<glyph unicode="N" horiz-adv-x="1337" d="M102 37v1360q0 16 10.5 26.5t26.5 10.5h252q29 0 43 -25l451 -762q4 -8 10 -6t6 12l-2 744q0 16 10.5 26.5t26.5 10.5h262q16 0 26.5 -10.5t10.5 -26.5v-1360q0 -16 -10.5 -26.5t-26.5 -10.5h-252q-27 0 -43 25l-450 772q-4 10 -11.5 8t-7.5 -12l4 -756q0 -16 -10 -26.5 t-27 -10.5h-262q-16 0 -26.5 10t-10.5 27z" />
<glyph unicode="O" horiz-adv-x="1271" d="M78 512v410q0 156 69.5 275.5t195.5 186t292 66.5t293 -66.5t196.5 -186.5t69.5 -275v-410q0 -160 -69.5 -280.5t-196.5 -187.5t-293 -67t-292 67t-195.5 187.5t-69.5 280.5zM418 502q0 -106 60.5 -170t156.5 -64q98 0 158.5 63.5t60.5 170.5v424q0 104 -60.5 168.5 t-158.5 64.5q-96 0 -156.5 -64.5t-60.5 -168.5v-424z" />
<glyph unicode="P" horiz-adv-x="1224" d="M94 37v1360q0 16 10.5 26.5t26.5 10.5h580q139 0 246.5 -57.5t166 -161t58.5 -238.5q0 -133 -60.5 -235.5t-171 -158t-256.5 -55.5h-245q-14 0 -15 -14v-477q0 -16 -10 -26.5t-27 -10.5h-266q-16 0 -26.5 10t-10.5 27zM434 813q0 -14 15 -14h206q84 0 136.5 47t52.5 123 q0 78 -52.5 126t-136.5 48h-206q-14 0 -15 -15v-315z" />
<glyph unicode="Q" horiz-adv-x="1228" d="M72 489v429q0 158 67.5 278.5t190.5 187t282 66.5q162 0 285 -66.5t190.5 -187.5t67.5 -278v-429q0 -180 -95 -307t-263 -174q-12 -6 -13 -16v-144q0 -16 -10 -26t-26 -10h-267q-16 0 -26.5 10t-10.5 26v144q0 10 -12 16q-168 45 -264 172t-96 309zM412 498 q0 -100 55 -162t145 -62q92 0 147.5 61.5t55.5 162.5v438q0 100 -55 161.5t-148 61.5q-90 0 -145 -61.5t-55 -161.5v-438z" />
<glyph unicode="R" horiz-adv-x="1257" d="M100 37v1360q0 16 10.5 26.5t26.5 10.5h596q135 0 237.5 -55.5t159 -157t56.5 -232.5q0 -135 -66.5 -235.5t-185.5 -145.5q-14 -6 -8 -20l262 -545l4 -16q0 -27 -33 -27h-280q-31 0 -43 29l-238 532q-4 10 -16 10h-127q-14 0 -15 -14v-520q0 -16 -10 -26.5t-27 -10.5 h-266q-16 0 -26.5 10t-10.5 27zM440 846q0 -14 15 -15h223q76 0 123 42t47 112q0 72 -47 115t-123 43h-223q-15 -1 -15 -15v-282z" />
<glyph unicode="S" horiz-adv-x="1218" d="M66 428v27q0 16 10 26.5t26 10.5h260q16 0 26.5 -7.5t10.5 -17.5v-25q0 -66 66.5 -117t171.5 -51q90 0 133 39t43 90q0 57 -50 88t-179 72l-45 15q-131 43 -229.5 93t-168 139t-69.5 220q0 127 66.5 222.5t184 146.5t267.5 51q158 0 283.5 -57.5t197.5 -162t72 -239.5 v-16q0 -16 -10.5 -26.5t-26.5 -10.5h-260q-16 0 -26.5 5t-10.5 15v19q0 72 -63.5 127t-170.5 55q-80 0 -124.5 -32.5t-44.5 -92.5q0 -45 28.5 -74.5t89 -55t185.5 -66.5q143 -49 223 -86t150.5 -120t70.5 -218q0 -129 -67.5 -226.5t-190.5 -150.5t-283 -53q-163 0 -287 54 t-191.5 155.5t-67.5 234.5z" />
<glyph unicode="T" horiz-adv-x="1208" d="M47 1178v219q0 16 10.5 26.5t26.5 10.5h1040q17 0 27 -10.5t10 -26.5v-219q0 -16 -10 -26.5t-27 -10.5h-342q-14 0 -14 -15v-1089q0 -16 -10 -26.5t-27 -10.5h-266q-16 0 -26.5 10t-10.5 27v1089q0 14 -14 15h-330q-16 0 -26.5 10t-10.5 27z" />
<glyph unicode="U" horiz-adv-x="1275" d="M92 487v910q0 16 10.5 26.5t26.5 10.5h266q16 0 26.5 -10.5t10.5 -26.5v-910q0 -96 56.5 -154.5t150.5 -58.5q92 0 148.5 58.5t56.5 154.5v910q0 16 10 26.5t27 10.5h266q16 0 26.5 -10.5t10.5 -26.5v-910q0 -150 -67.5 -264t-191.5 -176.5t-286 -62.5t-286 62.5 t-192.5 177t-68.5 263.5z" />
<glyph unicode="V" horiz-adv-x="1298" d="M53 1407q0 27 33 27h289q33 0 41 -33l231 -909q4 -8 9.5 -8.5t7.5 8.5l227 909q8 33 41 33h282q20 0 28.5 -10.5t2.5 -30.5l-411 -1362q-8 -31 -43 -31h-287q-33 0 -41 31l-408 1362q-2 6 -2 14z" />
<glyph unicode="W" horiz-adv-x="1761" d="M6 1405q0 29 33 29h287q16 0 27.5 -9.5t13.5 -23.5l172 -723q4 -8 9 -8t7 8l166 723q6 33 41 33h244q33 0 41 -33l180 -723q4 -8 9 -8t7 8l160 723q2 14 13 23.5t28 9.5h278q18 0 27.5 -10.5t5.5 -30.5l-340 -1360q-8 -33 -41 -33h-272q-16 0 -27.5 9t-13.5 24l-172 768 q-2 10 -8.5 10t-8.5 -10l-155 -768q-6 -33 -39 -33h-254q-33 0 -41 31l-375 1362q-2 4 -2 12z" />
<glyph unicode="X" horiz-adv-x="1323" d="M61 25q0 8 7 20l376 662q6 10 0 20l-376 662q-6 12 -7 20q0 10 9.5 17.5t23.5 7.5h291q27 0 43 -27l223 -414q4 -8 10.5 -8t10.5 8l225 414q16 27 43 27h289q14 0 23.5 -7.5t9.5 -17.5q0 -8 -7 -20l-374 -662q-4 -10 0 -20l374 -662q6 -12 7 -20q0 -10 -9.5 -17.5 t-23.5 -7.5h-287q-27 0 -43 27l-227 411q-4 8 -10.5 8t-10.5 -8l-225 -411q-16 -27 -43 -27h-289q-14 0 -23.5 7t-9.5 18z" />
<glyph unicode="Y" horiz-adv-x="1300" d="M59 1407q0 27 33 27h289q31 0 43 -29l215 -502q4 -8 11 -8t9 8l218 502q12 29 43 29h290q14 0 23.5 -7.5t9.5 -17.5q0 -12 -4 -18l-418 -863q-4 -12 -4 -18v-469q0 -16 -10 -26.5t-27 -10.5h-264q-16 0 -26.5 10.5t-10.5 26.5v469q0 6 -4 18l-412 863z" />
<glyph unicode="Z" horiz-adv-x="1144" d="M57 37v246q0 23 17 45l616 796q4 6 2 12.5t-10 6.5h-588q-16 0 -26.5 10t-10.5 27v217q0 16 10.5 26.5t26.5 10.5h950q16 0 26.5 -10.5t10.5 -26.5v-246q0 -23 -16 -45l-621 -797q-4 -6 -2 -12t11 -6h591q16 0 26.5 -10.5t10.5 -26.5v-217q0 -16 -10 -26.5t-27 -10.5 h-950q-16 0 -26.5 10t-10.5 27z" />
<glyph unicode="[" horiz-adv-x="878" d="M72 -283v1905q0 16 10 26.5t27 10.5h499q16 0 26.5 -10.5t10.5 -26.5v-219q0 -16 -10 -26.5t-27 -10.5h-182q-14 0 -14 -14v-1364q0 -14 14 -15h182q16 0 26.5 -10t10.5 -26v-220q0 -16 -10 -26t-27 -10h-499q-17 0 -27 10t-10 26z" />
<glyph unicode="\" horiz-adv-x="974" d="M45 1407q0 27 33 27h262q31 0 43 -29l545 -1362l4 -16q0 -27 -33 -27h-264q-31 0 -43 29l-543 1362z" />
<glyph unicode="]" horiz-adv-x="878" d="M233 -63q0 16 10.5 26t26.5 10h183q14 0 14 15v1364q0 14 -14 14h-183q-16 0 -26.5 10t-10.5 27v219q0 16 10.5 26.5t26.5 10.5h500q16 0 26.5 -10.5t10.5 -26.5v-1905q0 -16 -10.5 -26t-26.5 -10h-500q-16 0 -26.5 10t-10.5 26v220z" />
<glyph unicode="^" horiz-adv-x="985" d="M66 645l272 760q10 29 41 29h221q31 0 41 -29l277 -760q2 -6 2 -16q0 -27 -31 -27h-211q-35 0 -43 31l-135 434q-2 10 -7.5 10t-9.5 -10l-133 -434q-8 -31 -43 -31h-211q-20 0 -28.5 11.5t-1.5 31.5z" />
<glyph unicode="_" horiz-adv-x="1099" d="M31 37v180q0 16 10 26.5t27 10.5h964q16 0 26.5 -10.5t10.5 -26.5v-180q0 -16 -10 -26.5t-27 -10.5h-964q-17 0 -27 10t-10 27z" />
<glyph unicode="`" horiz-adv-x="532" d="M56 1401q0 23 30 22h252q27 0 43 -26l98 -183q7 -12 7 -20q0 -23 -33 -23h-211q-29 0 -45 23l-133 184q-8 10 -8 23z" />
<glyph unicode="a" horiz-adv-x="1095" d="M39 287q0 158 109.5 243.5t316.5 85.5h194q14 0 15 15v35q0 55 -36 86.5t-101 31.5q-47 0 -81 -15t-48 -42q-10 -14 -19.5 -21.5t-23.5 -5.5l-275 35q-37 4 -33 29q10 88 74 158.5t167 111.5t232 41q136 0 246.5 -46t174 -127t63.5 -179v-686q0 -16 -10.5 -26.5 t-26.5 -10.5h-266q-16 0 -26.5 10t-10.5 27v41q0 10 -5 12t-12 -6q-82 -100 -264 -100q-162 0 -258 76.5t-96 226.5zM379 326q0 -45 30.5 -72t86.5 -27q77 0 127.5 40t50.5 106v45q0 14 -15 14h-118q-78 0 -120 -26.5t-42 -79.5z" />
<glyph unicode="b" horiz-adv-x="1150" d="M90 37v1360q0 16 10.5 26.5t26.5 10.5h266q16 0 26.5 -10.5t10.5 -26.5v-408q0 -10 5 -12t11 6q78 94 234 94q131 0 236.5 -78.5t152.5 -205.5q43 -113 43 -258q0 -135 -33 -236q-41 -139 -153.5 -227t-245.5 -88q-156 0 -234 108q-6 8 -11 6t-5 -12v-49q0 -16 -10 -26.5 t-27 -10.5h-266q-16 0 -26.5 10t-10.5 27zM432 528q0 -102 35 -168q42 -77 119 -77h2q82 0 125 75q35 66 35 170q0 111 -37 179q-42 71 -121 71h-2q-76 0 -119 -69q-37 -68 -37 -181z" />
<glyph unicode="c" horiz-adv-x="1114" d="M61 535q0 137 39 235q51 143 178.5 224t294.5 81q170 0 299 -84t175 -213q12 -33 16 -67v-9q0 -27 -33 -32l-260 -39l-10 -2q-27 0 -31 24l-8 29q-12 45 -53 73.5t-97 28.5q-109 0 -143 -96q-22 -55 -22 -148v-8q0 -88 20 -153q39 -104 145 -105q53 0 91 27t57 78l2 10 q2 10 15.5 21.5t27.5 9.5l262 -41q37 -6 31 -41q-4 -33 -10 -51q-49 -143 -177.5 -223t-296.5 -80q-167 0 -293 84t-180 231q-39 98 -39 236z" />
<glyph unicode="d" horiz-adv-x="1150" d="M39 535q0 145 43 258q47 127 152.5 205.5t236.5 78.5q156 0 234 -94q6 -8 11 -6t5 12v408q0 16 10 26.5t27 10.5h266q16 0 26.5 -10.5t10.5 -26.5v-1360q0 -16 -10.5 -26.5t-26.5 -10.5h-266q-16 0 -26.5 10t-10.5 27v49q0 10 -5 12t-11 -6q-77 -108 -231 -108h-3 q-133 0 -245.5 88t-153.5 227q-33 100 -33 236zM403 528q0 -104 35 -170q42 -75 123 -75h2q78 0 121 77q35 66 35 168q0 113 -37 181q-42 69 -117 69h-2q-80 0 -123 -71q-37 -68 -37 -179z" />
<glyph unicode="e" horiz-adv-x="1130" d="M88 723q45 160 176 257t307 97q205 0 331 -127t165 -354q8 -57 12 -125q0 -37 -37 -37h-618q-6 0 -11 -4t-3 -12l12 -41q20 -49 71.5 -77t124.5 -28q64 0 118.5 19.5t90.5 52.5q12 14 27 14q12 0 25 -14l127 -151q12 -14 12 -27q0 -14 -12 -27q-70 -74 -176.5 -114.5 t-227.5 -40.5q-139 0 -246.5 50t-177.5 140q-112 142 -112 361q0 102 22 188zM414 649q0 -12 14 -12h281q8 0 11 5t1 11l-8 27q-16 49 -53 76.5t-95 27.5q-104 0 -141 -100q-8 -20 -10 -31v-4z" />
<glyph unicode="f" horiz-adv-x="815" d="M47 819v205q0 16 10.5 26.5t26.5 10.5h98q14 0 15 14v51q0 121 43 189.5t137 96.5q77 23 201 23q26 0 55 -1h72q16 0 26 -10.5t10 -26.5v-162q0 -16 -10 -26.5t-26 -10.5h-68q-55 -4 -77.5 -26.5t-22.5 -75.5v-21q0 -14 14 -14h176q16 0 26.5 -10.5t10.5 -26.5v-205 q0 -16 -10.5 -26.5t-26.5 -10.5h-176q-14 0 -14 -14v-731q0 -16 -10.5 -26.5t-26.5 -10.5h-267q-16 0 -26 10t-10 27v731q0 14 -15 14h-98q-16 0 -26.5 10.5t-10.5 26.5z" />
<glyph unicode="g" horiz-adv-x="1153" d="M59 539q0 158 39 258q47 127 150.5 202.5t240.5 75.5q143 0 224 -84q6 -8 11 -6t5 12v25q0 16 10.5 26.5t26.5 10.5h266q16 0 26.5 -10.5t10.5 -26.5v-903q0 -281 -163 -401.5t-408 -120.5q-78 0 -183 14q-35 6 -32 41l10 227q2 39 43 33q82 -16 143 -16q117 0 183.5 53 t66.5 168l-22 -21q-71 -67 -201 -67h-4q-135 0 -248 59t-162 209q-33 98 -33 242zM401 537q0 -100 27 -148q18 -43 55 -69.5t88 -26.5q104 0 140 94q18 48 18 154q0 55 -4 86.5t-16 60.5q-16 45 -52 70.5t-88 25.5q-96 0 -137 -96q-31 -57 -31 -151z" />
<glyph unicode="h" horiz-adv-x="1126" d="M86 37v1360q0 16 10 26.5t27 10.5h266q16 0 26.5 -10.5t10.5 -26.5v-432q0 -10 5 -12.5t9 5.5q84 117 244 117t261.5 -101.5t101.5 -275.5v-661q0 -16 -10.5 -26.5t-26.5 -10.5h-267q-16 0 -26 10t-10 27v588q0 72 -38 115.5t-102 43.5q-63 0 -102 -44t-39 -115v-588 q0 -16 -10 -26.5t-27 -10.5h-266q-16 0 -26.5 10t-10.5 27z" />
<glyph unicode="i" d="M72 1325q0 86 55 139.5t145 53.5t145.5 -53.5t55.5 -139.5q0 -88 -55.5 -142.5t-145.5 -54.5t-145 54.5t-55 142.5zM102 37v985q0 16 10.5 26.5t26.5 10.5h267q16 0 26 -10.5t10 -26.5v-985q0 -16 -10 -26.5t-26 -10.5h-267q-16 0 -26.5 10t-10.5 27z" />
<glyph unicode="j" horiz-adv-x="528" d="M-139 -168q0 37 39 37h24q98 0 136 29q42 34 42 129v995q0 16 10.5 26.5t26.5 10.5h267q16 0 26 -10.5t10 -26.5v-991q0 -180 -47 -276.5t-163 -134.5q-104 -34 -293 -34h-41q-37 0 -37 37v209zM74 1315q0 80 59.5 137t138.5 57q80 0 140.5 -57t60.5 -137 q0 -82 -56.5 -138.5t-144.5 -56.5t-143 56.5t-55 138.5z" />
<glyph unicode="k" horiz-adv-x="1116" d="M86 37v1360q0 16 10 26.5t27 10.5h266q16 0 26.5 -10.5t10.5 -26.5v-617q0 -10 6 -12t12 6l213 262q16 23 45 23h304q31 0 30 -23q0 -12 -8 -22l-254 -328q-8 -12 -2 -20l299 -623l4 -16q0 -27 -33 -27h-276q-31 0 -43 29l-180 422q-2 8 -9.5 8t-11.5 -6l-90 -131 q-6 -6 -6 -19v-266q0 -16 -10 -26.5t-27 -10.5h-266q-17 0 -27 10t-10 27z" />
<glyph unicode="l" horiz-adv-x="522" d="M90 37v1360q0 16 10.5 26.5t26.5 10.5h266q16 0 26.5 -10.5t10.5 -26.5v-1360q0 -16 -10 -26.5t-27 -10.5h-266q-16 0 -26.5 10t-10.5 27z" />
<glyph unicode="m" horiz-adv-x="1720" d="M86 37v985q0 16 10 26.5t27 10.5h266q16 0 26.5 -10.5t10.5 -26.5v-72q0 -10 5 -11t11 7q82 129 258 129q100 0 177 -44t120 -128q4 -8 9.5 -7t9.5 9q86 170 287 170q159 0 249 -98t90 -277v-663q0 -16 -10 -26.5t-26 -10.5h-265q-16 0 -26 10t-10 27v590q0 70 -36 113.5 t-95 43.5t-97.5 -43t-38.5 -114v-590q0 -16 -10 -26.5t-27 -10.5h-266q-16 0 -26.5 10t-10.5 27v590q0 70 -37.5 113.5t-97.5 43.5q-55 0 -92 -34.5t-45 -92.5v-620q0 -16 -10 -26.5t-27 -10.5h-266q-16 0 -26.5 10t-10.5 27z" />
<glyph unicode="n" horiz-adv-x="1126" d="M86 37v985q0 16 10 26.5t27 10.5h266q16 0 26.5 -10.5t10.5 -26.5v-57q0 -10 5 -12.5t9 5.5q84 117 244 117t261.5 -101.5t101.5 -275.5v-661q0 -16 -10.5 -26.5t-26.5 -10.5h-267q-16 0 -26 10t-10 27v588q0 72 -38 115.5t-102 43.5q-63 0 -102 -44t-39 -115v-588 q0 -16 -10 -26.5t-27 -10.5h-266q-16 0 -26.5 10t-10.5 27z" />
<glyph unicode="o" horiz-adv-x="1142" d="M61 532q0 102 27 199q47 162 175 253t310 91q180 0 305.5 -91t174.5 -251q28 -89 28 -189v-7q0 -94 -22 -181q-43 -172 -172 -272t-316 -100q-184 0 -312 98t-173 266q-25 84 -25 184zM403 532q0 -63 13 -116q18 -66 57 -104t98 -38q60 0 100 38t56 104q12 53 12 116 q0 61 -14 119q-16 63 -55 98t-99 35q-61 0 -99 -34.5t-54 -98.5q-14 -45 -15 -119z" />
<glyph unicode="p" horiz-adv-x="1153" d="M92 -338v1360q0 16 10.5 26.5t26.5 10.5h266q16 0 26.5 -10.5t10.5 -26.5v-49q0 -10 5 -12.5t12 6.5q77 108 230 108h3q133 0 245.5 -88t153.5 -227q33 -101 33 -236q0 -145 -43 -258q-47 -127 -152.5 -205.5t-236.5 -78.5q-156 0 -233 94q-6 8 -11.5 6t-5.5 -12v-408 q0 -16 -10 -26.5t-27 -10.5h-266q-16 0 -26.5 10.5t-10.5 26.5zM434 530q0 -113 37 -180q42 -69 117 -69h2q80 0 123 71q37 67 37 178q0 104 -35 170q-43 76 -125 76q-78 0 -121 -78q-35 -66 -35 -168z" />
<glyph unicode="q" horiz-adv-x="1153" d="M39 524q0 135 33 236q41 139 153.5 227t245.5 88q156 0 234 -108q6 -8 11 -6t5 12v49q0 16 10 26.5t27 10.5h266q16 0 26.5 -10.5t10.5 -26.5v-1360q0 -16 -10.5 -26.5t-26.5 -10.5h-266q-16 0 -26.5 10.5t-10.5 26.5v408q0 10 -5 12t-11 -6q-78 -94 -234 -94 q-131 0 -236.5 78.5t-152.5 205.5q-43 113 -43 258zM403 530q0 -111 37 -178q42 -71 121 -71h2q76 0 119 69q37 67 37 180q0 102 -35 168q-43 78 -121 78q-82 0 -125 -76q-35 -66 -35 -170z" />
<glyph unicode="r" horiz-adv-x="798" d="M86 37v985q0 16 10 26.5t27 10.5h266q16 0 26.5 -10.5t10.5 -26.5v-45q0 -10 5 -12t9 6q82 102 209 102h5q62 0 102 -22q27 -14 20 -45l-45 -263q-2 -27 -26 -26q-10 0 -17 2q-25 6 -61 6q-33 0 -49 -4q-63 -8 -107.5 -49t-44.5 -109v-526q0 -16 -10 -26.5t-27 -10.5 h-266q-16 0 -26.5 10t-10.5 27z" />
<glyph unicode="s" horiz-adv-x="1046" d="M59 303v10q0 16 10.5 26.5t26.5 10.5h252q37 0 37 -12v-12q0 -39 42 -64.5t108 -25.5q57 0 92 19t35 52t-37 48.5t-117 29.5q-129 25 -209 59q-102 43 -164.5 108.5t-62.5 176.5q0 160 123.5 253t326.5 93q137 0 240.5 -44t161 -124t57.5 -184q0 -10 -10 -17.5t-27 -7.5 h-244q-37 0 -36 13v12q0 39 -37 63.5t-101 24.5q-57 0 -93 -19.5t-36 -54.5t39 -50t131 -34q125 -25 168 -39q125 -41 195.5 -110.5t70.5 -186.5q0 -160 -125.5 -246.5t-338.5 -86.5q-146 0 -253.5 39.5t-166 112.5t-58.5 167z" />
<glyph unicode="t" horiz-adv-x="790" d="M41 823v199q0 16 10 26.5t27 10.5h100q14 0 15 14v232q0 16 10 26t26 10h252q16 0 26.5 -10t10.5 -26v-232q0 -14 14 -14h170q16 0 26.5 -10.5t10.5 -26.5v-199q0 -16 -10 -26.5t-27 -10.5h-170q-14 0 -14 -14v-358q0 -117 94 -117h64q16 0 26.5 -10.5t10.5 -26.5v-215 q0 -33 -35 -37q-94 -4 -133 -4q-178 0 -264 57.5t-88 212.5v498q0 14 -15 14h-100q-16 0 -26.5 10.5t-10.5 26.5z" />
<glyph unicode="u" horiz-adv-x="1124" d="M80 356v666q0 16 10 26.5t27 10.5h266q16 0 26.5 -10.5t10.5 -26.5v-588q0 -72 37 -115t100 -43q57 0 95 35t46 92v619q0 16 10.5 26.5t26.5 10.5h266q16 0 26.5 -10.5t10.5 -26.5v-985q0 -16 -10 -26.5t-27 -10.5h-266q-16 0 -26.5 10t-10.5 27v51q0 10 -5 12t-11 -6 q-85 -110 -251 -110h-3q-156 0 -252 98t-96 274z" />
<glyph unicode="v" horiz-adv-x="1097" d="M41 1032q0 27 33 27h293q16 0 27.5 -9.5t13.5 -23.5l133 -545q4 -8 9 -8t7 8l131 545q2 14 13.5 23.5t27.5 9.5l295 -2q20 0 28.5 -10.5t2.5 -30.5l-312 -985q-8 -31 -43 -31h-301q-33 0 -43 31l-313 987q-2 4 -2 14z" />
<glyph unicode="w" horiz-adv-x="1648" d="M41 1032q0 27 33 27h274q16 0 27.5 -9.5t13.5 -23.5l119 -534q2 -8 8 -8.5t8 8.5l127 532q2 14 13.5 23.5t27.5 9.5h242q33 0 41 -33l135 -537q4 -8 9 -8t7 8l134 539q2 14 13 23.5t27 9.5l275 -2q20 0 28.5 -10.5t2.5 -30.5l-295 -985q-8 -31 -41 -31h-279q-33 0 -41 31 l-129 456q-2 10 -8 10.5t-10 -10.5l-109 -454q-2 -14 -13 -23.5t-28 -9.5h-278q-33 0 -41 31l-291 987q-2 6 -2 14z" />
<glyph unicode="x" horiz-adv-x="1144" d="M43 23q0 6 8 22l318 475q6 10 0 21l-316 473q-8 10 -8 22q0 23 31 23h284q31 0 46 -25l145 -229q10 -14 20 0l148 229q16 25 45 25h305q31 0 31 -23q0 -12 -8 -22l-316 -473q-4 -10 0 -21l318 -475q8 -16 8 -22q0 -23 -33 -23h-285q-31 0 -45 25l-145 229q-10 14 -21 0 l-147 -229q-14 -25 -45 -25h-305q-33 0 -33 23z" />
<glyph unicode="y" horiz-adv-x="1064" d="M35 1032q0 27 31 27h286q16 0 27.5 -9.5t13.5 -23.5l133 -534q4 -8 9.5 -8.5t7.5 8.5l129 534q2 14 13 23.5t28 9.5h284q20 0 28.5 -11.5t2.5 -29.5l-340 -1038q-51 -154 -107.5 -233t-164 -117t-305.5 -38h-15q-6 0 -10 10.5t-4 26.5v205q0 16 4 26.5t8 10.5h10 q131 0 186.5 22.5t69.5 96.5q2 8 0 18l-323 1010q-2 6 -2 14z" />
<glyph unicode="z" horiz-adv-x="952" d="M43 37v244q0 27 18 45l408 407q6 6 4 12.5t-10 6.5h-371q-16 0 -26.5 10t-10.5 26v234q0 16 10.5 26.5t26.5 10.5h762q16 0 26.5 -10.5t10.5 -26.5v-244q0 -27 -19 -45l-423 -407q-8 -8 -6.5 -13.5t12.5 -5.5h411q16 0 26.5 -10t10.5 -27v-233q0 -16 -10 -26.5t-27 -10.5 h-786q-17 0 -27 10t-10 27z" />
<glyph unicode="{" horiz-adv-x="823" d="M72 575v197q0 33 34 37q63 8 93 52t30 128v410q0 127 74 193.5t215 66.5h197q16 0 26.5 -10.5t10.5 -26.5v-219q0 -16 -10.5 -26.5t-26.5 -10.5h-37q-47 0 -78 -34t-31 -87v-305q0 -102 -29.5 -164.5t-93.5 -93.5q-14 -8 0 -16q63 -31 93 -94.5t30 -163.5v-314 q0 -55 31 -88t78 -33h37q16 0 26.5 -10t10.5 -26v-220q0 -16 -10.5 -26t-26.5 -10h-197q-141 0 -215 66.5t-74 193.5v415q0 84 -29.5 128t-93.5 55q-35 4 -34 36z" />
<glyph unicode="|" horiz-adv-x="442" d="M51 -127v1647q0 16 10.5 26t26.5 10h266q16 0 26.5 -10t10.5 -26v-1647q0 -16 -10 -26.5t-27 -10.5h-266q-16 0 -26.5 10.5t-10.5 26.5z" />
<glyph unicode="}" horiz-adv-x="823" d="M72 -63q0 16 10 26t27 10h36q47 0 78 33t31 88v314q0 100 29.5 163.5t93.5 94.5q14 8 0 16q-63 31 -93 93.5t-30 164.5v305q0 53 -30.5 87t-78.5 34h-36q-16 0 -26.5 10t-10.5 27v219q0 16 10 26.5t27 10.5h196q141 0 215 -66.5t74 -193.5v-410q0 -84 29.5 -128t93.5 -52 q35 -4 35 -37v-197q0 -33 -35 -36q-63 -10 -93 -54.5t-30 -128.5v-415q0 -127 -74 -193.5t-215 -66.5h-196q-16 0 -26.5 10t-10.5 26v220z" />
<glyph unicode="~" horiz-adv-x="1118" d="M61 582q37 94 127.5 154.5t192.5 60.5q49 0 89 -13.5t83 -38.5q14 -8 47 -26.5t60.5 -28.5t52.5 -10q63 0 106 61q12 18 29 19q6 0 22 -8l168 -107q20 -14 21 -33q0 -6 -4 -18q-39 -92 -128 -148.5t-190 -56.5q-49 0 -88 13.5t-82 37.5q-51 29 -91 46.5t-83 17.5 q-68 0 -119 -62q-10 -16 -30 -16q-12 0 -21 6l-145 100q-29 20 -17 50z" />
<glyph unicode="&#xa1;" horiz-adv-x="727" d="M150 1253q0 82 59 139.5t149 57.5q91 0 151 -57.5t60 -139.5q0 -80 -64.5 -138t-146.5 -58q-80 0 -144 58.5t-64 137.5zM195 55l30 860q0 17 11.5 27t27.5 10h197q16 0 27.5 -10t11.5 -27l30 -860q0 -37 -34 -37h-267q-35 0 -34 37z" />
<glyph unicode="&#xa2;" horiz-adv-x="1114" d="M61 719q0 137 39 235q39 106 121 179t195 104q6 2 9 6t3 10l-8 136v4q0 33 37 32h209q16 0 26 -10t8 -26l-6 -129q0 -10 13 -15q125 -29 215 -105.5t125 -176.5q12 -33 16 -68v-8q0 -27 -33 -33l-260 -39l-10 -2q-27 0 -31 25l-8 28q-12 45 -53 74t-97 29 q-108 -1 -143 -97q-23 -57 -22 -155q0 -88 20 -154q39 -104 145 -104q53 0 91 26.5t57 77.5l2 10q2 10 15.5 21.5t27.5 9.5l262 -41q37 -6 31 -41q-4 -33 -10 -51q-37 -113 -127.5 -187.5t-212.5 -101.5q-12 -2 -13 -16l6 -125v-4q0 -14 -9 -23.5t-25 -9.5h-209 q-18 0 -28.5 10.5t-8.5 28.5l8 131q0 14 -12 16q-113 33 -195 108t-121 185q-39 98 -39 236z" />
<glyph unicode="&#xa3;" horiz-adv-x="1259" d="M100 610v199q0 16 10.5 26.5t26.5 10.5h115q14 0 14 14v127q0 221 130 342t352 121q172 0 286.5 -88t167.5 -242q2 -6 2 -14q0 -23 -28 -29l-248 -43h-10q-23 0 -35 27q-23 55 -55.5 76.5t-79.5 21.5q-141 -4 -142 -166v-133q0 -14 15 -14h352q16 0 26.5 -10.5 t10.5 -26.5v-199q0 -16 -10.5 -26.5t-26.5 -10.5h-352q-14 0 -15 -14v-80q0 -57 -16.5 -98t-48.5 -74q-6 -6 -3 -11t11 -5h616q16 0 26.5 -10.5t10.5 -26.5v-217q0 -16 -10 -26.5t-27 -10.5h-960q-16 0 -26.5 10t-10.5 27v225q0 27 25 45q41 33 57 74t16 98v80q0 14 -14 14 h-115q-16 0 -26.5 10.5t-10.5 26.5z" />
<glyph unicode="&#xa4;" horiz-adv-x="1214" d="M37 993q0 14 14 27l164 143q14 10 25 11q14 0 26 -13l113 -114q8 -8 18 -3q100 45 205 46q106 0 209 -50q10 -6 18 2l121 119q12 12 27 13q10 0 24 -11l162 -143q14 -12 15 -27q0 -12 -13 -24l-135 -133q-8 -8 -4 -19q43 -92 43 -194q0 -105 -45 -201q-6 -10 2 -19 l127 -127q12 -12 12 -24q0 -14 -14 -27l-162 -143q-14 -10 -24 -10q-14 0 -27 12l-117 115q-8 8 -18 2q-98 -43 -201 -43q-100 0 -192 41q-10 4 -19 -4l-112 -111q-12 -12 -27 -12q-10 0 -25 10l-161 143q-14 12 -15 27q0 12 12 24l117 117q8 8 2 19q-51 98 -51 211 q0 106 45 202q6 10 -2 19l-125 125q-12 12 -12 24zM422 623q0 -72 53 -125.5t127 -53.5q72 0 124 52.5t54 126.5q-2 74 -54 127t-124 53q-74 0 -127 -52.5t-53 -127.5z" />
<glyph unicode="&#xa5;" horiz-adv-x="1402" d="M119 1409q0 25 31 25h290q31 0 43 -29l215 -502q4 -8 11.5 -8t9.5 8l217 502q12 29 43 29h291q14 0 23.5 -7.5t9.5 -17.5q0 -12 -5 -18l-335 -693q-6 -16 10 -16h149q16 0 26.5 -10t10.5 -27v-113q0 -16 -10 -26t-27 -10h-231q-14 0 -14 -15v-71q0 -14 14 -15h231 q16 0 26.5 -10t10.5 -27v-110q0 -16 -10 -26.5t-27 -10.5h-231q-14 0 -14 -14v-156q0 -16 -10.5 -26.5t-26.5 -10.5h-265q-16 0 -26 10.5t-10 26.5v156q0 14 -15 14h-231q-16 0 -26.5 10t-10.5 27v110q0 16 10 26.5t27 10.5h231q14 0 15 15v71q0 14 -15 15h-231 q-16 0 -26.5 10t-10.5 26v113q0 16 10 26.5t27 10.5h149q16 0 11 16l-330 693q-4 6 -4 18z" />
<glyph unicode="&#xa6;" horiz-adv-x="442" d="M51 -127v655q0 16 10.5 26.5t26.5 10.5h266q16 0 26.5 -10t10.5 -27v-655q0 -16 -10 -26.5t-27 -10.5h-266q-16 0 -26.5 10.5t-10.5 26.5zM51 864v656q0 16 10.5 26t26.5 10h266q16 0 26.5 -10t10.5 -26v-656q0 -16 -10 -26.5t-27 -10.5h-266q-16 0 -26.5 10.5 t-10.5 26.5z" />
<glyph unicode="&#xa7;" horiz-adv-x="1046" d="M66 492q0 117 61 202q37 55 113 92q8 4 8 9.5t-8 9.5q-170 98 -170 280q0 100 58 183.5t161.5 132.5t234.5 49q127 0 228.5 -46t159 -130t57.5 -193v-43q0 -16 -10.5 -26.5t-26.5 -10.5h-266q-16 0 -26.5 6.5t-10.5 16.5v20q0 51 -31 83t-80 32q-45 0 -76.5 -27.5 t-31.5 -72.5q0 -59 52 -91t163 -69q88 -29 152.5 -59.5t111.5 -75.5q92 -92 92 -232q0 -102 -59 -192q-49 -82 -121 -107q-8 -2 -8 -6t6 -8q92 -57 135 -125.5t43 -163.5q0 -111 -61.5 -190.5t-168 -122.5t-237.5 -43q-199 0 -312.5 94t-119.5 256l-4 74v4q0 33 37 33h264 q16 0 26.5 -7.5t10.5 -19.5v-28q0 -53 31.5 -84t82.5 -31q47 0 79 27.5t32 68.5q0 47 -41 74.5t-158 75.5q-45 16 -53 20q-104 41 -164.5 79t-99.5 95q-55 78 -55 187zM406 512q0 -41 22 -68q33 -39 94 -38q65 -1 96 40q23 27 23 66q0 41 -20 68q-35 41 -99 41 q-66 0 -98 -46q-18 -25 -18 -63z" />
<glyph unicode="&#xa8;" horiz-adv-x="794" d="M31 1311q0 72 46 117t118 45q70 0 113.5 -45.5t43.5 -116.5q0 -74 -43 -119t-114 -45q-72 0 -118 45t-46 119zM442 1311q0 72 44.5 117t115.5 45q74 0 118 -45.5t44 -116.5q0 -74 -44 -119t-118 -45q-71 0 -115.5 45t-44.5 119z" />
<glyph unicode="&#xa9;" horiz-adv-x="1634" d="M78 727q0 205 96 370t264 259t377 94q211 0 380 -94t265 -259t96 -370q0 -213 -96 -383t-265 -265t-380 -95q-209 0 -378 95t-264 265t-95 383zM264 727q0 -162 72 -289t196.5 -198.5t282.5 -71.5q160 0 286 71.5t197.5 198.5t71.5 289q0 154 -71.5 276.5t-198.5 192.5 t-285 70q-156 0 -281.5 -70t-197.5 -192.5t-72 -276.5zM559 602v238q0 111 71.5 175t190.5 64q117 0 188.5 -60.5t71.5 -164.5q0 -6 -10 -10t-27 -4l-102 -2q-37 0 -37 6v6q0 37 -23.5 59.5t-60.5 22.5q-39 0 -61.5 -22.5t-22.5 -59.5v-260q0 -35 22.5 -57.5t61.5 -22.5 q37 0 60.5 22.5t23.5 57.5q0 14 37 14l102 -2q37 0 37 -8v-8q0 -102 -71.5 -164t-188.5 -62q-119 0 -190.5 66t-71.5 176z" />
<glyph unicode="&#xaa;" horiz-adv-x="679" d="M18 510v90q0 16 10.5 26.5t26.5 10.5h545q16 0 26.5 -10.5t10.5 -26.5v-90q0 -16 -10.5 -26.5t-26.5 -10.5h-545q-16 0 -26.5 10.5t-10.5 26.5zM20 932q0 106 78 168.5t211 62.5h119q14 0 14 13v12q0 47 -32.5 76.5t-83.5 29.5q-35 0 -64 -13t-41 -36q-8 -16 -17 -23.5 t-24 -4.5l-108 10q-18 2 -27.5 11t-7.5 28q14 80 94 132t191 52q84 0 153.5 -30.5t108.5 -84t39 -116.5v-439q0 -16 -10.5 -26.5t-26.5 -10.5h-107q-16 0 -26.5 7.5t-10.5 19.5v2q0 8 -5 10t-11 -4q-59 -47 -164 -47q-115 0 -178.5 53.5t-63.5 147.5zM203 948 q0 -37 24.5 -56.5t69.5 -19.5q63 0 104 36t41 77v29q0 14 -14 14h-90q-135 0 -135 -80z" />
<glyph unicode="&#xab;" horiz-adv-x="1019" d="M100 575q0 12 6 25l164 305q16 27 43 27h209q33 0 33 -23q0 -8 -6 -20l-168 -303q-4 -10 0 -21l168 -303q6 -12 6 -20q0 -23 -33 -23h-209q-27 0 -43 27l-164 305q-6 12 -6 24zM463 575q0 12 6 25l164 305q16 27 43 27h209q33 0 33 -23q0 -8 -7 -20l-168 -303 q-4 -10 0 -21l168 -303q7 -12 7 -20q0 -23 -33 -23h-209q-27 0 -43 27l-164 305q-6 12 -6 24z" />
<glyph unicode="&#xac;" horiz-adv-x="985" d="M51 498v217q0 16 10.5 26.5t26.5 10.5h807q16 0 26.5 -10.5t10.5 -26.5v-441q0 -16 -10.5 -26t-26.5 -10h-215q-16 0 -26.5 10t-10.5 26v172q0 14 -14 15h-541q-16 0 -26.5 10t-10.5 27z" />
<glyph unicode="&#xad;" horiz-adv-x="847" d="M51 485v217q0 16 10.5 26.5t26.5 10.5h672q16 0 26.5 -10t10.5 -27v-217q0 -16 -10.5 -26t-26.5 -10h-672q-16 0 -26.5 10t-10.5 26z" />
<glyph unicode="&#xae;" horiz-adv-x="905" d="M31 1044q0 115 55 208.5t151.5 146.5t215.5 53q118 0 214.5 -53t151.5 -146.5t55 -208.5q0 -123 -55 -220t-151.5 -152.5t-214.5 -55.5q-119 0 -215.5 55.5t-151.5 153t-55 219.5zM162 1044q0 -133 82 -217t209 -84t209.5 84t82.5 217q0 121 -83.5 201t-208.5 80 t-208 -80t-83 -201zM326 885v309q0 16 10 26.5t26 10.5h117q55 0 90 -36t35 -89q0 -61 -45 -94q-12 -6 -8 -19l35 -102q2 -4 2 -14q0 -12 -9.5 -20.5t-23.5 -8.5h-35q-35 0 -43 31l-28 98q-2 12 -11 12q-6 0 -6 -14v-90q0 -16 -10 -26.5t-27 -10.5h-33q-16 0 -26 10t-10 27z M432 1081q0 -14 14 -14h17q14 0 24.5 11.5t10.5 25.5q0 16 -9.5 26.5t-25.5 10.5h-17q-14 0 -14 -15v-45z" />
<glyph unicode="&#xaf;" horiz-adv-x="620" d="M0 1208v154q0 16 10 26.5t27 10.5h547q16 0 26.5 -10.5t10.5 -26.5v-154q0 -16 -10.5 -26.5t-26.5 -10.5h-547q-17 0 -27 10.5t-10 26.5z" />
<glyph unicode="&#xb0;" horiz-adv-x="765" d="M31 1305q0 96 47 177t128 127t177 46q98 0 179 -46t127 -127t46 -177t-46 -177t-127 -128.5t-179 -47.5q-96 0 -177 47.5t-128 128t-47 177.5zM250 1305q0 -55 39 -93t94 -38q57 0 94 37.5t37 93.5q0 59 -37 97t-94 38q-55 0 -94 -39t-39 -96z" />
<glyph unicode="&#xb1;" horiz-adv-x="985" d="M51 37v217q0 16 10.5 26.5t26.5 10.5h807q16 0 26.5 -10.5t10.5 -26.5v-217q0 -16 -10.5 -26.5t-26.5 -10.5h-807q-16 0 -26.5 10t-10.5 27zM51 734v217q0 16 10.5 26.5t26.5 10.5h246q14 0 14 14v246q0 16 10.5 26.5t26.5 10.5h215q16 0 26.5 -10.5t10.5 -26.5v-246 q0 -14 14 -14h244q16 0 26.5 -10.5t10.5 -26.5v-217q0 -16 -10.5 -26.5t-26.5 -10.5h-244q-14 0 -14 -15v-241q0 -16 -10.5 -26.5t-26.5 -10.5h-215q-16 0 -26.5 10t-10.5 27v241q0 14 -14 15h-246q-16 0 -26.5 10t-10.5 27z" />
<glyph unicode="&#xb2;" horiz-adv-x="716" d="M53 1434v41q8 104 94 166.5t213 62.5q137 0 220.5 -74.5t83.5 -181.5q0 -51 -24 -101t-73 -107q-59 -74 -202 -203q-6 -8 -4.5 -13.5t12.5 -5.5h266q16 0 26.5 -10t10.5 -27v-110q0 -16 -10.5 -26.5t-26.5 -10.5h-543q-16 0 -26.5 10t-10.5 27v119q0 25 21 45 q96 88 256 248q111 111 110 161q0 33 -23.5 54.5t-62.5 21.5t-64.5 -22.5t-25.5 -57.5v-6q0 -16 -10 -26.5t-27 -10.5h-143q-16 0 -26.5 10.5t-10.5 26.5z" />
<glyph unicode="&#xb3;" horiz-adv-x="663" d="M29 1085v4q0 14 10 23.5t27 9.5h145q29 0 35 -27l4 -16l12 -31q8 -20 27.5 -31.5t42.5 -11.5q47 0 67 37t21 82q0 49 -21 86q-20 39 -67 39q-25 0 -49 -12q-14 -8 -27 -9q-14 0 -27 15l-65 82q-10 14 -10 24q0 16 16 29l158 108q8 6 6 12.5t-12 6.5h-234q-16 0 -26.5 10 t-10.5 27v112q0 16 10.5 26.5t26.5 10.5h500q16 0 26.5 -10t10.5 -27v-121q0 -27 -23 -45l-129 -100q-6 -4 -4 -11t10 -9q90 -29 131 -121q25 -49 25 -129q0 -68 -25 -131q-35 -76 -108.5 -121t-169.5 -45q-98 0 -172 47t-109 131q-14 31 -22 86z" />
<glyph unicode="&#xb4;" horiz-adv-x="532" d="M47 1194q0 8 6 20l98 183q16 27 43 26h252q31 0 31 -22q0 -12 -8 -23l-133 -184q-16 -23 -45 -23h-211q-33 0 -33 23z" />
<glyph unicode="&#xb5;" horiz-adv-x="1132" d="M86 -373v1395q0 16 10 26.5t27 10.5h268q16 0 26.5 -10.5t10.5 -26.5v-588q0 -72 37 -115t100 -43q57 0 95 35t47 92v619q0 16 10 26.5t26 10.5h267q16 0 26.5 -10.5t10.5 -26.5v-985q0 -16 -10.5 -26.5t-26.5 -10.5h-267q-16 0 -26 10t-10 27v51q0 10 -5.5 12t-11.5 -6 q-86 -111 -254 -110q-10 0 -10 -15v-342q0 -16 -10 -26.5t-27 -10.5h-266q-16 0 -26.5 10.5t-10.5 26.5z" />
<glyph unicode="&#xb6;" horiz-adv-x="1314" d="M43 973q0 135 63.5 239.5t183.5 163t283 58.5h619q16 0 26.5 -10.5t10.5 -26.5v-1770q0 -16 -10.5 -26.5t-26.5 -10.5h-172q-16 0 -26.5 10.5t-10.5 26.5v1555q0 14 -14 14h-170q-14 0 -15 -14v-1555q0 -16 -10 -26.5t-26 -10.5h-175q-16 0 -26 10.5t-10 26.5v873 q0 14 -15 14q-217 16 -348 140t-131 319z" />
<glyph unicode="&#xb7;" horiz-adv-x="417" d="M-7 186q0 80 63.5 137.5t145.5 57.5t145.5 -57.5t63.5 -137.5q0 -84 -59.5 -141t-149.5 -57t-149.5 57t-59.5 141z" />
<glyph unicode="&#xb8;" horiz-adv-x="368" d="M4 -332l12 101q6 27 29 26q10 0 16 -2q20 -4 27 -4q45 0 57 39q16 57 -75 129q-18 14 -19 27q0 16 31 16h131q29 0 47 -16q109 -96 109 -199q0 -29 -9 -51q-20 -72 -73.5 -102.5t-124.5 -30.5q-70 0 -133 22q-29 8 -25 45z" />
<glyph unicode="&#xb9;" horiz-adv-x="403" d="M51 1543v86q0 31 29 43l33 14q18 8 47 8h153q16 0 26.5 -10t10.5 -27v-786q0 -16 -10 -26.5t-27 -10.5h-141q-16 0 -26.5 10t-10.5 27v622q0 14 -14 15l-33 -2q-16 0 -26.5 10t-10.5 27z" />
<glyph unicode="&#xba;" horiz-adv-x="727" d="M37 1094q0 94 24 157q37 96 117 147.5t189 51.5q100 0 178 -50t114 -147q29 -74 29 -155q0 -92 -29 -158q-39 -98 -116.5 -151.5t-177.5 -53.5q-105 0 -184 53.5t-118 151.5q-27 66 -26 154zM51 508v94q0 16 10.5 26.5t26.5 10.5h561q16 0 26.5 -10.5t10.5 -26.5v-94 q0 -16 -10 -26.5t-27 -10.5h-561q-16 0 -26.5 10.5t-10.5 26.5zM254 1094q0 -66 16 -107q27 -68 95 -67q59 -1 88 67q18 43 18 107q0 70 -16 104q-14 35 -39 52.5t-54 17.5q-59 0 -92 -70q-16 -33 -16 -104z" />
<glyph unicode="&#xbb;" horiz-adv-x="1019" d="M119 242q0 8 6 20l168 303q6 10 0 21l-168 303q-6 12 -6 20q0 23 33 23h208q27 0 43 -27l164 -305q6 -12 6 -25q0 -12 -6 -24l-164 -305q-16 -27 -43 -27h-208q-33 0 -33 23zM481 242q0 8 6 20l168 303q6 10 0 21l-168 303q-6 12 -6 20q0 23 33 23h208q27 0 43 -27 l164 -305q6 -12 6 -25q0 -12 -6 -24l-164 -305q-16 -27 -43 -27h-208q-33 0 -33 23z" />
<glyph unicode="&#xbc;" horiz-adv-x="1701" d="M51 1282v86q0 31 29 43l33 14q18 8 47 8h153q16 0 26.5 -10t10.5 -27v-786q0 -16 -10 -26.5t-27 -10.5h-141q-16 0 -26.5 10t-10.5 27v622q0 14 -14 15l-33 -2q-16 0 -26.5 10t-10.5 27zM217 25q0 8 6 20l778 1364q16 25 43 25h162q14 0 23.5 -7.5t9.5 -17.5q0 -8 -6 -20 l-777 -1364q-14 -25 -43 -25h-163q-15 0 -24 7t-9 18zM957 246v94q0 20 10 47l195 444q12 29 43 29h149q33 0 33 -26l-4 -17l-170 -397q-6 -16 10 -17h127q14 0 14 15v102q0 16 10.5 26.5t26.5 10.5h141q16 0 26.5 -10t10.5 -27v-102q0 -14 15 -15h22q17 0 27 -10t10 -26 v-121q0 -16 -10 -26.5t-27 -10.5h-22q-14 0 -15 -14v-158q0 -16 -10 -26.5t-27 -10.5h-141q-16 0 -26.5 10t-10.5 27v158q0 14 -14 14h-356q-16 0 -26.5 10t-10.5 27z" />
<glyph unicode="&#xbd;" horiz-adv-x="1642" d="M51 1282v86q0 31 29 43l33 14q18 8 47 8h153q16 0 26.5 -10t10.5 -27v-786q0 -16 -10 -26.5t-27 -10.5h-141q-16 0 -26.5 10t-10.5 27v622q0 14 -14 15l-33 -2q-16 0 -26.5 10t-10.5 27zM217 25q0 8 6 20l778 1364q16 25 43 25h162q14 0 23.5 -7.5t9.5 -17.5q0 -8 -6 -20 l-777 -1364q-14 -25 -43 -25h-163q-15 0 -24 7t-9 18zM979 600v41q8 104 94 166.5t213 62.5q137 0 220.5 -74.5t83.5 -181.5q0 -51 -24 -101t-73 -107q-59 -74 -202 -203q-6 -8 -4.5 -13.5t12.5 -5.5h266q16 0 26.5 -10t10.5 -27v-110q0 -16 -10.5 -26.5t-26.5 -10.5h-543 q-16 0 -26.5 10t-10.5 27v119q0 25 21 45q96 88 256 248q111 111 110 161q0 33 -23.5 54.5t-62.5 21.5t-64.5 -22.5t-25.5 -57.5v-6q0 -16 -10 -26.5t-27 -10.5h-143q-16 0 -26.5 10.5t-10.5 26.5z" />
<glyph unicode="&#xbe;" horiz-adv-x="1882" d="M29 832v4q0 14 10 23.5t27 9.5h145q29 0 35 -27l4 -16l12 -31q8 -20 27.5 -31.5t42.5 -11.5q47 0 67 37t21 82q0 49 -21 86q-20 39 -67 39q-25 0 -49 -12q-14 -8 -27 -9q-14 0 -27 15l-65 82q-10 14 -10 24q0 16 16 29l158 108q8 6 6 12.5t-12 6.5h-234q-16 0 -26.5 10 t-10.5 27v112q0 16 10.5 26.5t26.5 10.5h500q16 0 26.5 -10t10.5 -27v-121q0 -27 -23 -45l-129 -100q-6 -4 -4 -11t10 -9q90 -29 131 -121q25 -49 25 -129q0 -68 -25 -131q-35 -76 -108.5 -121t-169.5 -45q-98 0 -172 47t-109 131q-14 31 -22 86zM398 25q0 8 6 20l778 1364 q16 25 43 25h162q14 0 23.5 -7.5t9.5 -17.5q0 -8 -6 -20l-777 -1364q-14 -25 -43 -25h-163q-15 0 -24 7t-9 18zM1137 246v94q0 20 10 47l195 444q12 29 43 29h149q33 0 33 -26l-4 -17l-170 -397q-6 -16 10 -17h127q14 0 14 15v102q0 16 10.5 26.5t26.5 10.5h141 q16 0 26.5 -10t10.5 -27v-102q0 -14 15 -15h22q17 0 27 -10t10 -26v-121q0 -16 -10 -26.5t-27 -10.5h-22q-14 0 -15 -14v-158q0 -16 -10 -26.5t-27 -10.5h-141q-16 0 -26.5 10t-10.5 27v158q0 14 -14 14h-356q-16 0 -26.5 10t-10.5 27z" />
<glyph unicode="&#xbf;" horiz-adv-x="1112" d="M51 -18q0 92 33 156.5t79 105.5t118 88t106.5 83t34.5 87v16q0 16 10 26.5t27 10.5h266q16 0 26.5 -10t10.5 -27v-37q0 -78 -31 -134t-74 -92t-112 -83q-78 -49 -114 -85t-36 -89q0 -55 43 -87t115 -32q78 0 124 36t46 93v10q0 16 10 26.5t27 8.5l266 -12q37 -4 37 -16 v-17q0 -129 -65.5 -228t-183.5 -154.5t-269 -55.5q-150 0 -261.5 51t-172 144.5t-60.5 216.5zM383 850q0 76 58.5 129t136.5 53q79 0 135.5 -53t56.5 -127q0 -76 -57.5 -130t-137.5 -54q-76 0 -134 54t-58 128z" />
<glyph unicode="&#xc0;" horiz-adv-x="1421" d="M55 41l430 1362q10 31 43 31h363q35 0 43 -31l432 -1362q2 -4 2 -14q0 -27 -33 -27h-288q-33 0 -41 31l-48 168q-2 12 -16 12h-463q-12 0 -16 -12l-47 -168q-8 -31 -41 -31h-289q-20 0 -28.5 11.5t-2.5 29.5zM418 1776q0 23 30 22h252q27 0 43 -26l98 -183q7 -12 7 -20 q0 -23 -33 -23h-211q-29 0 -45 23l-133 184q-8 10 -8 23zM547 485q0 -12 12 -12h303q8 0 11.5 5t0.5 11l-155 545q-2 10 -7 10t-10 -10l-155 -545v-4z" />
<glyph unicode="&#xc1;" horiz-adv-x="1421" d="M55 41l430 1362q10 31 43 31h363q35 0 43 -31l432 -1362q2 -4 2 -14q0 -27 -33 -27h-288q-33 0 -41 31l-48 168q-2 12 -16 12h-463q-12 0 -16 -12l-47 -168q-8 -31 -41 -31h-289q-20 0 -28.5 11.5t-2.5 29.5zM547 485q0 -12 12 -12h303q8 0 11.5 5t0.5 11l-155 545 q-2 10 -7 10t-10 -10l-155 -545v-4zM555 1569q0 8 6 20l98 183q16 27 43 26h252q31 0 31 -22q0 -12 -8 -23l-133 -184q-16 -23 -45 -23h-211q-33 0 -33 23z" />
<glyph unicode="&#xc2;" horiz-adv-x="1421" d="M55 41l430 1362q10 31 43 31h363q35 0 43 -31l432 -1362q2 -4 2 -14q0 -27 -33 -27h-288q-33 0 -41 31l-48 168q-2 12 -16 12h-463q-12 0 -16 -12l-47 -168q-8 -31 -41 -31h-289q-20 0 -28.5 11.5t-2.5 29.5zM379 1565q0 14 8 24l140 195q14 23 45 23h266q29 0 45 -23 l143 -195q8 -10 8 -22q0 -23 -30 -23h-185q-29 0 -43 25l-59 98q-10 14 -20 0l-60 -98q-14 -25 -43 -25h-184q-31 1 -31 21zM547 485q0 -12 12 -12h303q8 0 11.5 5t0.5 11l-155 545q-2 10 -7 10t-10 -10l-155 -545v-4z" />
<glyph unicode="&#xc3;" horiz-adv-x="1421" d="M55 41l430 1362q10 31 43 31h363q35 0 43 -31l432 -1362q2 -4 2 -14q0 -27 -33 -27h-288q-33 0 -41 31l-48 168q-2 12 -16 12h-463q-12 0 -16 -12l-47 -168q-8 -31 -41 -31h-289q-20 0 -28.5 11.5t-2.5 29.5zM412 1690q29 72 81 109.5t115 37.5q37 0 65 -11t73 -38 q20 -14 45.5 -23.5t48.5 -9.5q39 0 61 29q16 18 31 18q10 0 20 -6l89 -61q16 -10 16 -31q0 -14 -12 -37q-37 -63 -90.5 -96t-106.5 -33q-41 0 -72.5 13.5t-66.5 35.5q-29 18 -45.5 24.5t-32.5 6.5q-43 0 -66 -29q-14 -18 -30 -18q-10 0 -21 8l-86 62q-29 20 -16 49zM547 485 q0 -12 12 -12h303q8 0 11.5 5t0.5 11l-155 545q-2 10 -7 10t-10 -10l-155 -545v-4z" />
<glyph unicode="&#xc4;" horiz-adv-x="1421" d="M55 41l430 1362q10 31 43 31h363q35 0 43 -31l432 -1362q2 -4 2 -14q0 -27 -33 -27h-288q-33 0 -41 31l-48 168q-2 12 -16 12h-463q-12 0 -16 -12l-47 -168q-8 -31 -41 -31h-289q-20 0 -28.5 11.5t-2.5 29.5zM340 1686q0 72 46 117t118 45q70 0 113.5 -45.5t43.5 -116.5 q0 -74 -43 -119t-114 -45q-72 0 -118 45t-46 119zM547 485q0 -12 12 -12h303q8 0 11.5 5t0.5 11l-155 545q-2 10 -7 10t-10 -10l-155 -545v-4zM751 1686q0 72 44.5 117t115.5 45q74 0 118 -45.5t44 -116.5q0 -74 -44 -119t-118 -45q-71 0 -115.5 45t-44.5 119z" />
<glyph unicode="&#xc5;" horiz-adv-x="1421" d="M55 41l430 1362q10 31 43 31h363q35 0 43 -31l432 -1362q2 -4 2 -14q0 -27 -33 -27h-288q-33 0 -41 31l-48 168q-2 12 -16 12h-463q-12 0 -16 -12l-47 -168q-8 -31 -41 -31h-289q-20 0 -28.5 11.5t-2.5 29.5zM473 1749q0 98 67.5 166t166.5 68q100 0 167.5 -67.5 t67.5 -166.5q0 -98 -67.5 -165.5t-167.5 -67.5q-99 0 -166.5 67.5t-67.5 165.5zM547 485q0 -12 12 -12h303q8 0 11.5 5t0.5 11l-155 545q-2 10 -7 10t-10 -10l-155 -545v-4zM623 1749q0 -35 24.5 -59.5t59.5 -24.5t60.5 24.5t25.5 59.5q0 37 -25.5 61.5t-60.5 24.5 t-59.5 -24.5t-24.5 -61.5z" />
<glyph unicode="&#xc6;" horiz-adv-x="1994" d="M61 25q0 12 5 18l675 1364q12 27 45 27h1108q16 0 26.5 -10.5t10.5 -26.5v-217q0 -17 -10 -27t-27 -10h-620q-14 0 -14 -15v-243q0 -14 14 -15h389q16 0 26.5 -10t10.5 -26v-216q0 -16 -10.5 -26t-26.5 -10h-389q-14 0 -14 -15v-262q0 -14 14 -14h620q16 0 26.5 -10.5 t10.5 -26.5v-217q0 -16 -10 -26.5t-27 -10.5h-938q-16 0 -26 10t-10 27v160q0 14 -15 14h-375q-10 0 -16 -10l-84 -174q-12 -27 -43 -27h-295q-31 0 -31 25zM653 489q-5 -16 11 -16h241q14 0 15 14v519q0 10 -6.5 12t-10.5 -8z" />
<glyph unicode="&#xc7;" horiz-adv-x="1247" d="M78 498v442q0 152 68.5 267.5t192.5 179t288 63.5t287.5 -60.5t192.5 -170t69 -252.5v-11q0 -8 -35 -12l-267 -18h-10q-29 0 -28 10v12q0 96 -57.5 153.5t-151.5 57.5t-151.5 -58.5t-57.5 -152.5v-465q0 -94 57 -151.5t152 -57.5q94 0 151.5 57.5t57.5 151.5q0 12 9 18.5 t27 4.5l269 -14q35 -4 35 -11v-10q0 -195 -121 -324t-326 -157q-18 -4 -4 -19q76 -78 76 -164q0 -16 -8 -53q-20 -72 -73.5 -102.5t-125.5 -30.5q-70 0 -133 23q-29 8 -25 45l13 100q6 27 28 27q10 0 17 -2q20 -4 26 -4q45 0 58 38q18 61 -99 146l-16 8q-178 43 -281.5 174 t-103.5 322z" />
<glyph unicode="&#xc8;" horiz-adv-x="1181" d="M100 37v1360q0 16 10.5 26.5t26.5 10.5h944q16 0 26.5 -10.5t10.5 -26.5v-217q0 -17 -10 -27t-27 -10h-626q-14 0 -15 -15v-243q0 -14 15 -15h395q16 0 26.5 -10t10.5 -26v-216q0 -16 -10.5 -26t-26.5 -10h-395q-14 0 -15 -15v-262q0 -14 15 -14h626q16 0 26.5 -10.5 t10.5 -26.5v-217q0 -16 -10 -26.5t-27 -10.5h-944q-16 0 -26.5 10t-10.5 27zM318 1802q0 23 30 22h252q27 0 43 -26l98 -183q7 -12 7 -20q0 -23 -33 -23h-211q-29 0 -45 23l-133 184q-8 10 -8 23z" />
<glyph unicode="&#xc9;" horiz-adv-x="1181" d="M100 37v1360q0 16 10.5 26.5t26.5 10.5h944q16 0 26.5 -10.5t10.5 -26.5v-217q0 -17 -10 -27t-27 -10h-626q-14 0 -15 -15v-243q0 -14 15 -15h395q16 0 26.5 -10t10.5 -26v-216q0 -16 -10.5 -26t-26.5 -10h-395q-14 0 -15 -15v-262q0 -14 15 -14h626q16 0 26.5 -10.5 t10.5 -26.5v-217q0 -16 -10 -26.5t-27 -10.5h-944q-16 0 -26.5 10t-10.5 27zM455 1595q0 8 6 20l98 183q16 27 43 26h252q31 0 31 -22q0 -12 -8 -23l-133 -184q-16 -23 -45 -23h-211q-33 0 -33 23z" />
<glyph unicode="&#xca;" horiz-adv-x="1181" d="M100 37v1360q0 16 10.5 26.5t26.5 10.5h944q16 0 26.5 -10.5t10.5 -26.5v-217q0 -17 -10 -27t-27 -10h-626q-14 0 -15 -15v-243q0 -14 15 -15h395q16 0 26.5 -10t10.5 -26v-216q0 -16 -10.5 -26t-26.5 -10h-395q-14 0 -15 -15v-262q0 -14 15 -14h626q16 0 26.5 -10.5 t10.5 -26.5v-217q0 -16 -10 -26.5t-27 -10.5h-944q-16 0 -26.5 10t-10.5 27zM278 1591q0 14 8 24l140 195q14 23 45 23h266q29 0 45 -23l143 -195q8 -10 8 -22q0 -23 -30 -23h-185q-29 0 -43 25l-59 98q-10 14 -20 0l-60 -98q-14 -25 -43 -25h-184q-31 1 -31 21z" />
<glyph unicode="&#xcb;" horiz-adv-x="1181" d="M100 37v1360q0 16 10.5 26.5t26.5 10.5h944q16 0 26.5 -10.5t10.5 -26.5v-217q0 -17 -10 -27t-27 -10h-626q-14 0 -15 -15v-243q0 -14 15 -15h395q16 0 26.5 -10t10.5 -26v-216q0 -16 -10.5 -26t-26.5 -10h-395q-14 0 -15 -15v-262q0 -14 15 -14h626q16 0 26.5 -10.5 t10.5 -26.5v-217q0 -16 -10 -26.5t-27 -10.5h-944q-16 0 -26.5 10t-10.5 27zM240 1712q0 72 46 117t118 45q70 0 113.5 -45.5t43.5 -116.5q0 -74 -43 -119t-114 -45q-72 0 -118 45t-46 119zM651 1712q0 72 44.5 117t115.5 45q74 0 118 -45.5t44 -116.5q0 -74 -44 -119 t-118 -45q-71 0 -115.5 45t-44.5 119z" />
<glyph unicode="&#xcc;" d="M-18 1802q0 23 30 22h252q27 0 43 -26l98 -183q7 -12 7 -20q0 -23 -33 -23h-211q-29 0 -45 23l-133 184q-8 10 -8 23zM100 37v1360q0 16 10.5 26.5t26.5 10.5h266q16 0 26.5 -10.5t10.5 -26.5v-1360q0 -16 -10 -26.5t-27 -10.5h-266q-16 0 -26.5 10t-10.5 27z" />
<glyph unicode="&#xcd;" d="M100 37v1360q0 16 10.5 26.5t26.5 10.5h266q16 0 26.5 -10.5t10.5 -26.5v-1360q0 -16 -10 -26.5t-27 -10.5h-266q-16 0 -26.5 10t-10.5 27zM119 1595q0 8 6 20l98 183q16 27 43 26h252q31 0 31 -22q0 -12 -8 -23l-133 -184q-16 -23 -45 -23h-211q-33 0 -33 23z" />
<glyph unicode="&#xce;" d="M-57 1591q0 14 8 24l140 195q14 23 45 23h266q29 0 45 -23l143 -195q8 -10 8 -22q0 -23 -30 -23h-185q-29 0 -43 25l-59 98q-10 14 -20 0l-60 -98q-14 -25 -43 -25h-184q-31 1 -31 21zM100 37v1360q0 16 10.5 26.5t26.5 10.5h266q16 0 26.5 -10.5t10.5 -26.5v-1360 q0 -16 -10 -26.5t-27 -10.5h-266q-16 0 -26.5 10t-10.5 27z" />
<glyph unicode="&#xcf;" d="M-96 1712q0 72 46 117t118 45q70 0 113.5 -45.5t43.5 -116.5q0 -74 -43 -119t-114 -45q-72 0 -118 45t-46 119zM100 37v1360q0 16 10.5 26.5t26.5 10.5h266q16 0 26.5 -10.5t10.5 -26.5v-1360q0 -16 -10 -26.5t-27 -10.5h-266q-16 0 -26.5 10t-10.5 27zM315 1712 q0 72 44.5 117t115.5 45q74 0 118 -45.5t44 -116.5q0 -74 -44 -119t-118 -45q-71 0 -115.5 45t-44.5 119z" />
<glyph unicode="&#xd0;" horiz-adv-x="1359" d="M100 659v154q0 16 10.5 26.5t26.5 10.5h43q14 0 15 14v533q0 16 10 26.5t26 10.5h510q160 0 283 -55.5t190.5 -158t67.5 -235.5v-536q0 -133 -67.5 -235.5t-190.5 -158t-283 -55.5h-510q-16 0 -26 10t-10 27v571q0 14 -15 15h-43q-16 0 -26.5 10t-10.5 26zM535 305 q0 -14 14 -14h207q82 0 133 58.5t53 156.5v422q0 98 -52 156.5t-136 58.5h-205q-14 0 -14 -15v-264q0 -14 14 -14h121q16 0 26.5 -10.5t10.5 -26.5v-154q0 -16 -10.5 -26t-26.5 -10h-121q-14 0 -14 -15v-303z" />
<glyph unicode="&#xd1;" horiz-adv-x="1337" d="M102 37v1360q0 16 10.5 26.5t26.5 10.5h252q29 0 43 -25l451 -762q4 -8 10 -6t6 12l-2 744q0 16 10.5 26.5t26.5 10.5h262q16 0 26.5 -10.5t10.5 -26.5v-1360q0 -16 -10.5 -26.5t-26.5 -10.5h-252q-27 0 -43 25l-450 772q-4 10 -11.5 8t-7.5 -12l4 -756q0 -16 -10 -26.5 t-27 -10.5h-262q-16 0 -26.5 10t-10.5 27zM355 1716q29 72 81 109.5t115 37.5q37 0 65 -11t73 -38q20 -14 45.5 -23.5t48.5 -9.5q39 0 61 29q16 18 31 18q10 0 20 -6l89 -61q16 -10 16 -31q0 -14 -12 -37q-37 -63 -90.5 -96t-106.5 -33q-41 0 -72.5 13.5t-66.5 35.5 q-29 18 -45.5 24.5t-32.5 6.5q-43 0 -66 -29q-14 -18 -30 -18q-10 0 -21 8l-86 62q-29 20 -16 49z" />
<glyph unicode="&#xd2;" horiz-adv-x="1271" d="M78 512v410q0 156 69.5 275.5t195.5 186t292 66.5t293 -66.5t196.5 -186.5t69.5 -275v-410q0 -160 -69.5 -280.5t-196.5 -187.5t-293 -67t-292 67t-195.5 187.5t-69.5 280.5zM347 1792q0 23 30 22h252q27 0 43 -26l98 -183q7 -12 7 -20q0 -23 -33 -23h-211q-29 0 -45 23 l-133 184q-8 10 -8 23zM418 502q0 -106 60.5 -170t156.5 -64q98 0 158.5 63.5t60.5 170.5v424q0 104 -60.5 168.5t-158.5 64.5q-96 0 -156.5 -64.5t-60.5 -168.5v-424z" />
<glyph unicode="&#xd3;" horiz-adv-x="1271" d="M78 512v410q0 156 69.5 275.5t195.5 186t292 66.5t293 -66.5t196.5 -186.5t69.5 -275v-410q0 -160 -69.5 -280.5t-196.5 -187.5t-293 -67t-292 67t-195.5 187.5t-69.5 280.5zM418 502q0 -106 60.5 -170t156.5 -64q98 0 158.5 63.5t60.5 170.5v424q0 104 -60.5 168.5 t-158.5 64.5q-96 0 -156.5 -64.5t-60.5 -168.5v-424zM483 1585q0 8 6 20l98 183q16 27 43 26h252q31 0 31 -22q0 -12 -8 -23l-133 -184q-16 -23 -45 -23h-211q-33 0 -33 23z" />
<glyph unicode="&#xd4;" horiz-adv-x="1271" d="M78 512v410q0 156 69.5 275.5t195.5 186t292 66.5t293 -66.5t196.5 -186.5t69.5 -275v-410q0 -160 -69.5 -280.5t-196.5 -187.5t-293 -67t-292 67t-195.5 187.5t-69.5 280.5zM307 1581q0 14 8 24l140 195q14 23 45 23h266q29 0 45 -23l143 -195q8 -10 8 -22 q0 -23 -30 -23h-185q-29 0 -43 25l-59 98q-10 14 -20 0l-60 -98q-14 -25 -43 -25h-184q-31 1 -31 21zM418 502q0 -106 60.5 -170t156.5 -64q98 0 158.5 63.5t60.5 170.5v424q0 104 -60.5 168.5t-158.5 64.5q-96 0 -156.5 -64.5t-60.5 -168.5v-424z" />
<glyph unicode="&#xd5;" horiz-adv-x="1271" d="M78 512v410q0 156 69.5 275.5t195.5 186t292 66.5t293 -66.5t196.5 -186.5t69.5 -275v-410q0 -160 -69.5 -280.5t-196.5 -187.5t-293 -67t-292 67t-195.5 187.5t-69.5 280.5zM340 1706q29 72 81 109.5t115 37.5q37 0 65 -11t73 -38q20 -14 45.5 -23.5t48.5 -9.5 q39 0 61 29q16 18 31 18q10 0 20 -6l89 -61q16 -10 16 -31q0 -14 -12 -37q-37 -63 -90.5 -96t-106.5 -33q-41 0 -72.5 13.5t-66.5 35.5q-29 18 -45.5 24.5t-32.5 6.5q-43 0 -66 -29q-14 -18 -30 -18q-10 0 -21 8l-86 62q-29 20 -16 49zM418 502q0 -106 60.5 -170t156.5 -64 q98 0 158.5 63.5t60.5 170.5v424q0 104 -60.5 168.5t-158.5 64.5q-96 0 -156.5 -64.5t-60.5 -168.5v-424z" />
<glyph unicode="&#xd6;" horiz-adv-x="1271" d="M78 512v410q0 156 69.5 275.5t195.5 186t292 66.5t293 -66.5t196.5 -186.5t69.5 -275v-410q0 -160 -69.5 -280.5t-196.5 -187.5t-293 -67t-292 67t-195.5 187.5t-69.5 280.5zM268 1702q0 72 46 117t118 45q70 0 113.5 -45.5t43.5 -116.5q0 -74 -43 -119t-114 -45 q-72 0 -118 45t-46 119zM418 502q0 -106 60.5 -170t156.5 -64q98 0 158.5 63.5t60.5 170.5v424q0 104 -60.5 168.5t-158.5 64.5q-96 0 -156.5 -64.5t-60.5 -168.5v-424zM679 1702q0 72 44.5 117t115.5 45q74 0 118 -45.5t44 -116.5q0 -74 -44 -119t-118 -45q-71 0 -115.5 45 t-44.5 119z" />
<glyph unicode="&#xd7;" horiz-adv-x="929" d="M63 430q0 12 15 27l174 174q10 10 0 20l-174 172q-12 12 -12 27q0 14 12 27l151 151q14 14 27 14q14 0 27 -14l174 -172q10 -10 20 0l170 170q12 12 27 12q14 0 26 -12l154 -152q12 -12 12 -26t-12 -27l-172 -172q-10 -10 0 -20l170 -170q12 -12 12 -27q0 -14 -12 -26 l-152 -152q-14 -14 -26 -14q-8 0 -27 14l-170 170q-10 10 -20 0l-172 -172q-12 -12 -27 -12q-14 0 -27 12l-153 151q-14 18 -15 27z" />
<glyph unicode="&#xd8;" horiz-adv-x="1275" d="M82 512v410q0 156 69.5 275.5t195.5 186t292 66.5q125 0 231 -41q12 -4 19 8l31 62q12 27 45 26h98q31 0 31 -22q0 -12 -4 -21l-64 -125q-6 -10 4 -20q80 -70 124 -171.5t44 -223.5v-410q0 -160 -69.5 -280.5t-196.5 -187.5t-293 -67q-141 0 -260 52q-12 6 -19 -6 l-32 -66q-12 -27 -45 -27h-97q-31 0 -30 23q0 12 4 20l69 142q6 10 -2 18q-72 70 -108.5 166t-36.5 213zM422 530q0 -10 6 -12t10 8l301 596q6 12 -6 19q-43 18 -94 18q-96 0 -156.5 -64.5t-60.5 -168.5v-396zM512 324q-6 -10 4 -21q51 -35 123 -35q98 0 158.5 63.5 t60.5 170.5v424q0 23 -2 35q0 10 -7 12t-11 -8z" />
<glyph unicode="&#xd9;" horiz-adv-x="1275" d="M92 487v910q0 16 10.5 26.5t26.5 10.5h266q16 0 26.5 -10.5t10.5 -26.5v-910q0 -96 56.5 -154.5t150.5 -58.5q92 0 148.5 58.5t56.5 154.5v910q0 16 10 26.5t27 10.5h266q16 0 26.5 -10.5t10.5 -26.5v-910q0 -150 -67.5 -264t-191.5 -176.5t-286 -62.5t-286 62.5 t-192.5 177t-68.5 263.5zM351 1802q0 23 30 22h252q27 0 43 -26l98 -183q7 -12 7 -20q0 -23 -33 -23h-211q-29 0 -45 23l-133 184q-8 10 -8 23z" />
<glyph unicode="&#xda;" horiz-adv-x="1275" d="M92 487v910q0 16 10.5 26.5t26.5 10.5h266q16 0 26.5 -10.5t10.5 -26.5v-910q0 -96 56.5 -154.5t150.5 -58.5q92 0 148.5 58.5t56.5 154.5v910q0 16 10 26.5t27 10.5h266q16 0 26.5 -10.5t10.5 -26.5v-910q0 -150 -67.5 -264t-191.5 -176.5t-286 -62.5t-286 62.5 t-192.5 177t-68.5 263.5zM488 1595q0 8 6 20l98 183q16 27 43 26h252q31 0 31 -22q0 -12 -8 -23l-133 -184q-16 -23 -45 -23h-211q-33 0 -33 23z" />
<glyph unicode="&#xdb;" horiz-adv-x="1275" d="M92 487v910q0 16 10.5 26.5t26.5 10.5h266q16 0 26.5 -10.5t10.5 -26.5v-910q0 -96 56.5 -154.5t150.5 -58.5q92 0 148.5 58.5t56.5 154.5v910q0 16 10 26.5t27 10.5h266q16 0 26.5 -10.5t10.5 -26.5v-910q0 -150 -67.5 -264t-191.5 -176.5t-286 -62.5t-286 62.5 t-192.5 177t-68.5 263.5zM311 1591q0 14 8 24l140 195q14 23 45 23h266q29 0 45 -23l143 -195q8 -10 8 -22q0 -23 -30 -23h-185q-29 0 -43 25l-59 98q-10 14 -20 0l-60 -98q-14 -25 -43 -25h-184q-31 1 -31 21z" />
<glyph unicode="&#xdc;" horiz-adv-x="1275" d="M92 487v910q0 16 10.5 26.5t26.5 10.5h266q16 0 26.5 -10.5t10.5 -26.5v-910q0 -96 56.5 -154.5t150.5 -58.5q92 0 148.5 58.5t56.5 154.5v910q0 16 10 26.5t27 10.5h266q16 0 26.5 -10.5t10.5 -26.5v-910q0 -150 -67.5 -264t-191.5 -176.5t-286 -62.5t-286 62.5 t-192.5 177t-68.5 263.5zM273 1712q0 72 46 117t118 45q70 0 113.5 -45.5t43.5 -116.5q0 -74 -43 -119t-114 -45q-72 0 -118 45t-46 119zM684 1712q0 72 44.5 117t115.5 45q74 0 118 -45.5t44 -116.5q0 -74 -44 -119t-118 -45q-71 0 -115.5 45t-44.5 119z" />
<glyph unicode="&#xdd;" horiz-adv-x="1300" d="M59 1407q0 27 33 27h289q31 0 43 -29l215 -502q4 -8 11 -8t9 8l218 502q12 29 43 29h290q14 0 23.5 -7.5t9.5 -17.5q0 -12 -4 -18l-418 -863q-4 -12 -4 -18v-469q0 -16 -10 -26.5t-27 -10.5h-264q-16 0 -26.5 10.5t-10.5 26.5v469q0 6 -4 18l-412 863zM498 1569q0 8 6 20 l98 183q16 27 43 26h252q31 0 31 -22q0 -12 -8 -23l-133 -184q-16 -23 -45 -23h-211q-33 0 -33 23z" />
<glyph unicode="&#xde;" horiz-adv-x="1200" d="M94 37v1360q0 16 10.5 26.5t26.5 10.5h266q16 0 26.5 -10.5t10.5 -26.5v-221q0 -14 15 -15h235q139 0 246.5 -56t166 -158.5t58.5 -233.5t-64.5 -230.5t-176 -155t-246.5 -55.5h-219q-14 0 -15 -14v-221q0 -16 -10 -26.5t-27 -10.5h-266q-16 0 -26.5 10t-10.5 27z M434 559q0 -14 15 -14h182q84 0 135 42t51 120t-51 120.5t-135 42.5h-182q-14 0 -15 -14v-297z" />
<glyph unicode="&#xdf;" horiz-adv-x="1265" d="M90 39v934q0 225 139.5 351t388.5 126q252 0 400.5 -108.5t150.5 -297.5q0 -166 -131 -251q-8 -4 -8 -10.5t8 -10.5q70 -45 113 -136t43 -206q0 -207 -150.5 -318.5t-449.5 -111.5h-39q-16 0 -26.5 10t-10.5 27v215q0 16 10.5 26.5t26.5 10.5h88q100 0 155.5 46t55.5 130 q0 82 -53 129t-150 47h-86q-16 0 -26.5 10.5t-10.5 26.5v190q0 16 10.5 26.5t26.5 10.5h97q76 0 121.5 38t45.5 93q-2 51 -45 88t-139 37q-86 0 -150.5 -42t-64.5 -113v-969q0 -16 -10 -26.5t-27 -10.5l-266 2q-16 0 -26.5 10.5t-10.5 26.5z" />
<glyph unicode="&#xe0;" horiz-adv-x="1095" d="M39 287q0 158 109.5 243.5t316.5 85.5h194q14 0 15 15v35q0 55 -36 86.5t-101 31.5q-47 0 -81 -15t-48 -42q-10 -14 -19.5 -21.5t-23.5 -5.5l-275 35q-37 4 -33 29q10 88 74 158.5t167 111.5t232 41q136 0 246.5 -46t174 -127t63.5 -179v-686q0 -16 -10.5 -26.5 t-26.5 -10.5h-266q-16 0 -26.5 10t-10.5 27v41q0 10 -5 12t-12 -6q-82 -100 -264 -100q-162 0 -258 76.5t-96 226.5zM248 1417q0 23 30 22h252q27 0 43 -26l98 -183q7 -12 7 -20q0 -23 -33 -23h-211q-29 0 -45 23l-133 184q-8 10 -8 23zM379 326q0 -45 30.5 -72t86.5 -27 q77 0 127.5 40t50.5 106v45q0 14 -15 14h-118q-78 0 -120 -26.5t-42 -79.5z" />
<glyph unicode="&#xe1;" horiz-adv-x="1095" d="M39 287q0 158 109.5 243.5t316.5 85.5h194q14 0 15 15v35q0 55 -36 86.5t-101 31.5q-47 0 -81 -15t-48 -42q-10 -14 -19.5 -21.5t-23.5 -5.5l-275 35q-37 4 -33 29q10 88 74 158.5t167 111.5t232 41q136 0 246.5 -46t174 -127t63.5 -179v-686q0 -16 -10.5 -26.5 t-26.5 -10.5h-266q-16 0 -26.5 10t-10.5 27v41q0 10 -5 12t-12 -6q-82 -100 -264 -100q-162 0 -258 76.5t-96 226.5zM379 326q0 -45 30.5 -72t86.5 -27q77 0 127.5 40t50.5 106v45q0 14 -15 14h-118q-78 0 -120 -26.5t-42 -79.5zM385 1210q0 8 6 20l98 183q16 27 43 26h252 q31 0 31 -22q0 -12 -8 -23l-133 -184q-16 -23 -45 -23h-211q-33 0 -33 23z" />
<glyph unicode="&#xe2;" horiz-adv-x="1095" d="M39 287q0 158 109.5 243.5t316.5 85.5h194q14 0 15 15v35q0 55 -36 86.5t-101 31.5q-47 0 -81 -15t-48 -42q-10 -14 -19.5 -21.5t-23.5 -5.5l-275 35q-37 4 -33 29q10 88 74 158.5t167 111.5t232 41q136 0 246.5 -46t174 -127t63.5 -179v-686q0 -16 -10.5 -26.5 t-26.5 -10.5h-266q-16 0 -26.5 10t-10.5 27v41q0 10 -5 12t-12 -6q-82 -100 -264 -100q-162 0 -258 76.5t-96 226.5zM209 1206q0 14 8 24l140 195q14 23 45 23h266q29 0 45 -23l143 -195q8 -10 8 -22q0 -23 -30 -23h-185q-29 0 -43 25l-59 98q-10 14 -20 0l-60 -98 q-14 -25 -43 -25h-184q-31 1 -31 21zM379 326q0 -45 30.5 -72t86.5 -27q77 0 127.5 40t50.5 106v45q0 14 -15 14h-118q-78 0 -120 -26.5t-42 -79.5z" />
<glyph unicode="&#xe3;" horiz-adv-x="1095" d="M39 287q0 158 109.5 243.5t316.5 85.5h194q14 0 15 15v35q0 55 -36 86.5t-101 31.5q-47 0 -81 -15t-48 -42q-10 -14 -19.5 -21.5t-23.5 -5.5l-275 35q-37 4 -33 29q10 88 74 158.5t167 111.5t232 41q136 0 246.5 -46t174 -127t63.5 -179v-686q0 -16 -10.5 -26.5 t-26.5 -10.5h-266q-16 0 -26.5 10t-10.5 27v41q0 10 -5 12t-12 -6q-82 -100 -264 -100q-162 0 -258 76.5t-96 226.5zM242 1331q29 72 81 109.5t115 37.5q37 0 65 -11t73 -38q20 -14 45.5 -23.5t48.5 -9.5q39 0 61 29q16 18 31 18q10 0 20 -6l89 -61q16 -10 16 -31 q0 -14 -12 -37q-37 -63 -90.5 -96t-106.5 -33q-41 0 -72.5 13.5t-66.5 35.5q-29 18 -45.5 24.5t-32.5 6.5q-43 0 -66 -29q-14 -18 -30 -18q-10 0 -21 8l-86 62q-29 20 -16 49zM379 326q0 -45 30.5 -72t86.5 -27q77 0 127.5 40t50.5 106v45q0 14 -15 14h-118 q-78 0 -120 -26.5t-42 -79.5z" />
<glyph unicode="&#xe4;" horiz-adv-x="1095" d="M39 287q0 158 109.5 243.5t316.5 85.5h194q14 0 15 15v35q0 55 -36 86.5t-101 31.5q-47 0 -81 -15t-48 -42q-10 -14 -19.5 -21.5t-23.5 -5.5l-275 35q-37 4 -33 29q10 88 74 158.5t167 111.5t232 41q136 0 246.5 -46t174 -127t63.5 -179v-686q0 -16 -10.5 -26.5 t-26.5 -10.5h-266q-16 0 -26.5 10t-10.5 27v41q0 10 -5 12t-12 -6q-82 -100 -264 -100q-162 0 -258 76.5t-96 226.5zM170 1327q0 72 46 117t118 45q70 0 113.5 -45.5t43.5 -116.5q0 -74 -43 -119t-114 -45q-72 0 -118 45t-46 119zM379 326q0 -45 30.5 -72t86.5 -27 q77 0 127.5 40t50.5 106v45q0 14 -15 14h-118q-78 0 -120 -26.5t-42 -79.5zM581 1327q0 72 44.5 117t115.5 45q74 0 118 -45.5t44 -116.5q0 -74 -44 -119t-118 -45q-71 0 -115.5 45t-44.5 119z" />
<glyph unicode="&#xe5;" horiz-adv-x="1095" d="M39 287q0 158 109.5 243.5t316.5 85.5h194q14 0 15 15v35q0 55 -36 86.5t-101 31.5q-47 0 -81 -15t-48 -42q-10 -14 -19.5 -21.5t-23.5 -5.5l-275 35q-37 4 -33 29q10 88 74 158.5t167 111.5t232 41q136 0 246.5 -46t174 -127t63.5 -179v-686q0 -16 -10.5 -26.5 t-26.5 -10.5h-266q-16 0 -26.5 10t-10.5 27v41q0 10 -5 12t-12 -6q-82 -100 -264 -100q-162 0 -258 76.5t-96 226.5zM303 1390q0 98 67.5 166t166.5 68q100 0 167.5 -67.5t67.5 -166.5q0 -98 -67.5 -165.5t-167.5 -67.5q-99 0 -166.5 67.5t-67.5 165.5zM379 326 q0 -45 30.5 -72t86.5 -27q77 0 127.5 40t50.5 106v45q0 14 -15 14h-118q-78 0 -120 -26.5t-42 -79.5zM453 1390q0 -35 24.5 -59.5t59.5 -24.5t60.5 24.5t25.5 59.5q0 37 -25.5 61.5t-60.5 24.5t-59.5 -24.5t-24.5 -61.5z" />
<glyph unicode="&#xe6;" horiz-adv-x="1724" d="M39 299q0 147 109.5 235.5t314.5 88.5h196q14 0 15 14v25q0 55 -38 88.5t-104 33.5q-45 0 -79.5 -15t-49.5 -42q-10 -14 -19 -21.5t-24 -5.5l-272 35q-37 4 -33 39q12 84 78 152.5t164 108.5t207 40q115 0 209 -43t141 -106q10 -14 20 0q43 59 126 104t186 45 q145 0 274 -85t176 -226q35 -100 37 -295q0 -18 -10 -28.5t-27 -10.5h-598q-14 0 -14 -14l6 -29q16 -59 71.5 -87t137.5 -28q129 0 199 66q12 12 26 12q12 0 25 -12l119 -129q12 -12 12 -29q0 -10 -10 -24q-76 -82 -176.5 -127t-219.5 -45q-123 0 -219 47t-139 119 q-2 8 -6 9t-8 -3q-47 -74 -153.5 -123t-246.5 -49q-182 0 -292.5 81.5t-110.5 233.5zM379 326q0 -43 31.5 -74t91.5 -31q69 0 120.5 42t51.5 108v45q0 14 -15 14h-120q-76 0 -118 -27.5t-42 -76.5zM1022 633q0 -10 12 -10h277q12 0 12 10q0 16 -10 47q-16 49 -52 76.5 t-90 27.5q-51 0 -87.5 -28.5t-51.5 -75.5q-8 -23 -10 -43v-4z" />
<glyph unicode="&#xe7;" horiz-adv-x="1114" d="M61 535q0 137 39 235q51 143 178.5 224t294.5 81q170 0 299 -84t175 -213q12 -33 16 -67v-9q0 -27 -33 -32l-260 -39l-10 -2q-27 0 -31 24l-8 29q-12 45 -53 73.5t-97 28.5q-108 0 -143 -96q-23 -57 -22 -156q0 -88 20 -153q39 -104 145 -105q53 0 91 27t57 78l2 10 q2 10 15.5 21.5t27.5 9.5l262 -41q37 -6 31 -41q-4 -33 -10 -51q-37 -113 -128.5 -187.5t-213.5 -101.5q-8 -2 -10.5 -7t3.5 -11q84 -84 84 -173q0 -29 -8 -53q-20 -72 -73.5 -102.5t-125.5 -30.5q-70 0 -133 23q-29 8 -24 45l12 100q6 27 29 27q10 0 16 -2q20 -4 27 -4 q45 0 57 38q18 57 -90 140l-16 8q-125 27 -217.5 105.5t-135.5 197.5q-39 98 -39 236z" />
<glyph unicode="&#xe8;" horiz-adv-x="1130" d="M66 539q0 98 22 184q45 160 176 257t307 97q205 0 331 -127t165 -354q8 -57 12 -125q0 -37 -37 -37h-618q-6 0 -11 -4t-3 -12l12 -41q20 -49 71.5 -77t124.5 -28q64 0 118.5 19.5t90.5 52.5q12 14 27 14q12 0 25 -14l127 -151q12 -14 12 -27q0 -14 -12 -27 q-70 -74 -176.5 -114.5t-227.5 -40.5q-139 0 -246.5 50t-177.5 140q-113 143 -112 365zM275 1419q0 23 30 22h252q27 0 43 -26l98 -183q7 -12 7 -20q0 -23 -33 -23h-211q-29 0 -45 23l-133 184q-8 10 -8 23zM414 649q0 -12 14 -12h281q8 0 11 5t1 11l-8 27q-16 49 -53 76.5 t-95 27.5q-104 0 -141 -100q-8 -20 -10 -31v-4z" />
<glyph unicode="&#xe9;" horiz-adv-x="1130" d="M66 539q0 98 22 184q45 160 176 257t307 97q205 0 331 -127t165 -354q8 -57 12 -125q0 -37 -37 -37h-618q-6 0 -11 -4t-3 -12l12 -41q20 -49 71.5 -77t124.5 -28q64 0 118.5 19.5t90.5 52.5q12 14 27 14q12 0 25 -14l127 -151q12 -14 12 -27q0 -14 -12 -27 q-70 -74 -176.5 -114.5t-227.5 -40.5q-139 0 -246.5 50t-177.5 140q-113 143 -112 365zM412 1212q0 8 6 20l98 183q16 27 43 26h252q31 0 31 -22q0 -12 -8 -23l-133 -184q-16 -23 -45 -23h-211q-33 0 -33 23zM414 649q0 -12 14 -12h281q8 0 11 5t1 11l-8 27q-16 49 -53 76.5 t-95 27.5q-104 0 -141 -100q-8 -20 -10 -31v-4z" />
<glyph unicode="&#xea;" horiz-adv-x="1130" d="M66 539q0 98 22 184q45 160 176 257t307 97q205 0 331 -127t165 -354q8 -57 12 -125q0 -37 -37 -37h-618q-6 0 -11 -4t-3 -12l12 -41q20 -49 71.5 -77t124.5 -28q64 0 118.5 19.5t90.5 52.5q12 14 27 14q12 0 25 -14l127 -151q12 -14 12 -27q0 -14 -12 -27 q-70 -74 -176.5 -114.5t-227.5 -40.5q-139 0 -246.5 50t-177.5 140q-113 143 -112 365zM235 1208q0 14 8 24l140 195q14 23 45 23h266q29 0 45 -23l143 -195q8 -10 8 -22q0 -23 -30 -23h-185q-29 0 -43 25l-59 98q-10 14 -20 0l-60 -98q-14 -25 -43 -25h-184q-31 1 -31 21z M414 649q0 -12 14 -12h281q8 0 11 5t1 11l-8 27q-16 49 -53 76.5t-95 27.5q-104 0 -141 -100q-8 -20 -10 -31v-4z" />
<glyph unicode="&#xeb;" horiz-adv-x="1130" d="M66 539q0 98 22 184q45 160 176 257t307 97q205 0 331 -127t165 -354q8 -57 12 -125q0 -37 -37 -37h-618q-6 0 -11 -4t-3 -12l12 -41q20 -49 71.5 -77t124.5 -28q64 0 118.5 19.5t90.5 52.5q12 14 27 14q12 0 25 -14l127 -151q12 -14 12 -27q0 -14 -12 -27 q-70 -74 -176.5 -114.5t-227.5 -40.5q-139 0 -246.5 50t-177.5 140q-113 143 -112 365zM197 1329q0 72 46 117t118 45q70 0 113.5 -45.5t43.5 -116.5q0 -74 -43 -119t-114 -45q-72 0 -118 45t-46 119zM414 649q0 -12 14 -12h281q8 0 11 5t1 11l-8 27q-16 49 -53 76.5 t-95 27.5q-104 0 -141 -100q-8 -20 -10 -31v-4zM608 1329q0 72 44.5 117t115.5 45q74 0 118 -45.5t44 -116.5q0 -74 -44 -119t-118 -45q-71 0 -115.5 45t-44.5 119z" />
<glyph unicode="&#xec;" horiz-adv-x="509" d="M-45 1426q0 23 30 22h252q27 0 43 -26l98 -183q7 -12 7 -20q0 -23 -33 -23h-211q-29 0 -45 23l-133 184q-8 10 -8 23zM82 37v985q0 16 10 26.5t27 10.5h266q16 0 26.5 -10.5t10.5 -26.5v-985q0 -16 -10.5 -26.5t-26.5 -10.5h-266q-17 0 -27 10t-10 27z" />
<glyph unicode="&#xed;" horiz-adv-x="509" d="M82 37v985q0 16 10 26.5t27 10.5h266q16 0 26.5 -10.5t10.5 -26.5v-985q0 -16 -10.5 -26.5t-26.5 -10.5h-266q-17 0 -27 10t-10 27zM92 1219q0 8 6 20l98 183q16 27 43 26h252q31 0 31 -22q0 -12 -8 -23l-133 -184q-16 -23 -45 -23h-211q-33 0 -33 23z" />
<glyph unicode="&#xee;" horiz-adv-x="509" d="M-84 1215q0 14 8 24l140 195q14 23 45 23h266q29 0 45 -23l143 -195q8 -10 8 -22q0 -23 -30 -23h-185q-29 0 -43 25l-59 98q-10 14 -20 0l-60 -98q-14 -25 -43 -25h-184q-31 1 -31 21zM82 37v985q0 16 10 26.5t27 10.5h266q16 0 26.5 -10.5t10.5 -26.5v-985 q0 -16 -10.5 -26.5t-26.5 -10.5h-266q-17 0 -27 10t-10 27z" />
<glyph unicode="&#xef;" horiz-adv-x="534" d="M-108 1336q0 72 46 117t118 45q70 0 113.5 -45.5t43.5 -116.5q0 -74 -43 -119t-114 -45q-72 0 -118 45t-46 119zM96 37v985q0 16 10 26.5t27 10.5h266q16 0 26.5 -10.5t10.5 -26.5v-985q0 -16 -10.5 -26.5t-26.5 -10.5h-266q-17 0 -27 10t-10 27zM303 1336q0 72 44.5 117 t115.5 45q74 0 118 -45.5t44 -116.5q0 -74 -44 -119t-118 -45q-71 0 -115.5 45t-44.5 119z" />
<glyph unicode="&#xf0;" horiz-adv-x="1118" d="M39 471q0 119 39 209q55 137 186 194q43 23 111.5 36.5t134.5 13.5q63 0 104 -15q18 -6 13 13q-31 63 -70 129q-6 10 -18 6l-197 -49q-4 -2 -12 -2q-25 0 -31 28l-27 107q-2 6 -2 14q0 23 27 29l123 33q8 2 10 7t-4 11q-51 66 -137 154q-12 12 -13 22q0 23 33 23h275 q27 0 45 -23l86 -108q4 -4 10 -7.5t10 -1.5l160 43q4 2 12 2q27 0 33 -30l27 -105q2 -4 2 -12q0 -25 -29 -31l-88 -22q-8 -2 -9 -7.5t5 -13.5q125 -195 158 -360q32 -129 32 -285q0 -121 -37 -211q-53 -125 -177 -201.5t-285 -76.5q-162 0 -285 74.5t-176 203.5 q-39 86 -39 209zM383 463q0 -80 25 -129q16 -45 51 -70.5t80 -25.5q90 0 133 96q22 51 22 129q0 72 -22 123q-41 92 -133 92q-47 0 -82 -23.5t-51 -68.5q-23 -47 -23 -123z" />
<glyph unicode="&#xf1;" horiz-adv-x="1126" d="M86 37v985q0 16 10 26.5t27 10.5h266q16 0 26.5 -10.5t10.5 -26.5v-57q0 -10 5 -12.5t9 5.5q84 117 244 117t261.5 -101.5t101.5 -275.5v-661q0 -16 -10.5 -26.5t-26.5 -10.5h-267q-16 0 -26 10t-10 27v588q0 72 -38 115.5t-102 43.5q-63 0 -102 -44t-39 -115v-588 q0 -16 -10 -26.5t-27 -10.5h-266q-16 0 -26.5 10t-10.5 27zM283 1315q29 72 81 109.5t115 37.5q37 0 65 -11t73 -38q20 -14 45.5 -23.5t48.5 -9.5q39 0 61 29q16 18 31 18q10 0 20 -6l89 -61q16 -10 16 -31q0 -14 -12 -37q-37 -63 -90.5 -96t-106.5 -33q-41 0 -72.5 13.5 t-66.5 35.5q-29 18 -45.5 24.5t-32.5 6.5q-43 0 -66 -29q-14 -18 -30 -18q-10 0 -21 8l-86 62q-29 20 -16 49z" />
<glyph unicode="&#xf2;" horiz-adv-x="1142" d="M61 532q0 102 27 199q47 162 175 253t310 91q180 0 305.5 -91t174.5 -251q29 -92 28 -196q0 -94 -22 -181q-43 -172 -172 -272t-316 -100q-184 0 -312 98t-173 266q-25 84 -25 184zM283 1417q0 23 30 22h252q27 0 43 -26l98 -183q7 -12 7 -20q0 -23 -33 -23h-211 q-29 0 -45 23l-133 184q-8 10 -8 23zM403 532q0 -63 13 -116q18 -66 57 -104t98 -38q60 0 100 38t56 104q12 53 12 116q0 61 -14 119q-16 63 -55 98t-99 35q-61 0 -99 -34.5t-54 -98.5q-14 -45 -15 -119z" />
<glyph unicode="&#xf3;" horiz-adv-x="1142" d="M61 532q0 102 27 199q47 162 175 253t310 91q180 0 305.5 -91t174.5 -251q29 -92 28 -196q0 -94 -22 -181q-43 -172 -172 -272t-316 -100q-184 0 -312 98t-173 266q-25 84 -25 184zM403 532q0 -63 13 -116q18 -66 57 -104t98 -38q60 0 100 38t56 104q12 53 12 116 q0 61 -14 119q-16 63 -55 98t-99 35q-61 0 -99 -34.5t-54 -98.5q-14 -45 -15 -119zM420 1210q0 8 6 20l98 183q16 27 43 26h252q31 0 31 -22q0 -12 -8 -23l-133 -184q-16 -23 -45 -23h-211q-33 0 -33 23z" />
<glyph unicode="&#xf4;" horiz-adv-x="1142" d="M61 532q0 102 27 199q47 162 175 253t310 91q180 0 305.5 -91t174.5 -251q29 -92 28 -196q0 -94 -22 -181q-43 -172 -172 -272t-316 -100q-184 0 -312 98t-173 266q-25 84 -25 184zM244 1206q0 14 8 24l140 195q14 23 45 23h266q29 0 45 -23l143 -195q8 -10 8 -22 q0 -23 -30 -23h-185q-29 0 -43 25l-59 98q-10 14 -20 0l-60 -98q-14 -25 -43 -25h-184q-31 1 -31 21zM403 532q0 -63 13 -116q18 -66 57 -104t98 -38q60 0 100 38t56 104q12 53 12 116q0 61 -14 119q-16 63 -55 98t-99 35q-61 0 -99 -34.5t-54 -98.5q-14 -45 -15 -119z" />
<glyph unicode="&#xf5;" horiz-adv-x="1142" d="M61 532q0 102 27 199q47 162 175 253t310 91q180 0 305.5 -91t174.5 -251q29 -92 28 -196q0 -94 -22 -181q-43 -172 -172 -272t-316 -100q-184 0 -312 98t-173 266q-25 84 -25 184zM277 1331q29 72 81 109.5t115 37.5q37 0 65 -11t73 -38q20 -14 45.5 -23.5t48.5 -9.5 q39 0 61 29q16 18 31 18q10 0 20 -6l89 -61q16 -10 16 -31q0 -14 -12 -37q-37 -63 -90.5 -96t-106.5 -33q-41 0 -72.5 13.5t-66.5 35.5q-29 18 -45.5 24.5t-32.5 6.5q-43 0 -66 -29q-14 -18 -30 -18q-10 0 -21 8l-86 62q-29 20 -16 49zM403 532q0 -63 13 -116 q18 -66 57 -104t98 -38q60 0 100 38t56 104q12 53 12 116q0 61 -14 119q-16 63 -55 98t-99 35q-61 0 -99 -34.5t-54 -98.5q-14 -45 -15 -119z" />
<glyph unicode="&#xf6;" horiz-adv-x="1142" d="M61 532q0 102 27 199q47 162 175 253t310 91q180 0 305.5 -91t174.5 -251q29 -92 28 -196q0 -94 -22 -181q-43 -172 -172 -272t-316 -100q-184 0 -312 98t-173 266q-25 84 -25 184zM205 1327q0 72 46 117t118 45q70 0 113.5 -45.5t43.5 -116.5q0 -74 -43 -119t-114 -45 q-72 0 -118 45t-46 119zM403 532q0 -63 13 -116q18 -66 57 -104t98 -38q60 0 100 38t56 104q12 53 12 116q0 61 -14 119q-16 63 -55 98t-99 35q-61 0 -99 -34.5t-54 -98.5q-14 -45 -15 -119zM616 1327q0 72 44.5 117t115.5 45q74 0 118 -45.5t44 -116.5q0 -74 -44 -119 t-118 -45q-71 0 -115.5 45t-44.5 119z" />
<glyph unicode="&#xf7;" horiz-adv-x="985" d="M51 518v217q0 16 10.5 26.5t26.5 10.5h807q16 0 26.5 -10t10.5 -27v-217q0 -16 -10.5 -26.5t-26.5 -10.5h-807q-16 0 -26.5 10.5t-10.5 26.5zM338 281q0 61 45 106t109 45q61 0 106 -45t45 -106q0 -63 -45 -108.5t-106 -45.5q-64 0 -109 45t-45 109zM338 991 q0 61 45 106.5t109 45.5q61 0 106 -45t45 -107q0 -63 -45 -108t-106 -45q-64 0 -109 45t-45 108z" />
<glyph unicode="&#xf8;" horiz-adv-x="1146" d="M66 532q0 102 26 199q47 162 175 253t311 91q133 0 239 -51q14 -6 21 4l63 90q12 16 29 17q12 0 22 -9l60 -43q16 -12 16 -30q0 -6 -8 -23l-64 -92q-8 -10 0 -18q72 -84 101 -187q28 -92 28 -196q0 -94 -22 -181q-43 -172 -172 -272t-316 -100q-125 0 -233 49 q-14 8 -20 -4l-60 -88q-12 -16 -31 -17q-12 0 -22 8l-59 45q-16 12 -17 29q0 6 8 23l62 90q8 10 0 20q-82 88 -113 209q-25 84 -24 184zM408 532q0 -40 6 -81q2 -8 8 -10.5t10 5.5l213 306q8 12 -6 18q-33 14 -64 14q-61 0 -99 -34.5t-54 -98.5q-14 -45 -14 -119zM514 303 q-8 -10 6 -18q27 -10 55 -11q59 0 99.5 38t56.5 104q12 53 12 116q0 27 -4 64q-2 10 -8 11t-10 -7z" />
<glyph unicode="&#xf9;" horiz-adv-x="1124" d="M80 356v666q0 16 10 26.5t27 10.5h266q16 0 26.5 -10.5t10.5 -26.5v-588q0 -72 37 -115t100 -43q57 0 95 35t46 92v619q0 16 10.5 26.5t26.5 10.5h266q16 0 26.5 -10.5t10.5 -26.5v-985q0 -16 -10 -26.5t-27 -10.5h-266q-16 0 -26.5 10t-10.5 27v51q0 10 -5 12t-11 -6 q-86 -111 -254 -110q-156 0 -252 98t-96 274zM269 1401q0 23 30 22h252q27 0 43 -26l98 -183q7 -12 7 -20q0 -23 -33 -23h-211q-29 0 -45 23l-133 184q-8 10 -8 23z" />
<glyph unicode="&#xfa;" horiz-adv-x="1124" d="M80 356v666q0 16 10 26.5t27 10.5h266q16 0 26.5 -10.5t10.5 -26.5v-588q0 -72 37 -115t100 -43q57 0 95 35t46 92v619q0 16 10.5 26.5t26.5 10.5h266q16 0 26.5 -10.5t10.5 -26.5v-985q0 -16 -10 -26.5t-27 -10.5h-266q-16 0 -26.5 10t-10.5 27v51q0 10 -5 12t-11 -6 q-86 -111 -254 -110q-156 0 -252 98t-96 274zM406 1194q0 8 6 20l98 183q16 27 43 26h252q31 0 31 -22q0 -12 -8 -23l-133 -184q-16 -23 -45 -23h-211q-33 0 -33 23z" />
<glyph unicode="&#xfb;" horiz-adv-x="1124" d="M80 356v666q0 16 10 26.5t27 10.5h266q16 0 26.5 -10.5t10.5 -26.5v-588q0 -72 37 -115t100 -43q57 0 95 35t46 92v619q0 16 10.5 26.5t26.5 10.5h266q16 0 26.5 -10.5t10.5 -26.5v-985q0 -16 -10 -26.5t-27 -10.5h-266q-16 0 -26.5 10t-10.5 27v51q0 10 -5 12t-11 -6 q-86 -111 -254 -110q-156 0 -252 98t-96 274zM229 1190q0 14 8 24l140 195q14 23 45 23h266q29 0 45 -23l143 -195q8 -10 8 -22q0 -23 -30 -23h-185q-29 0 -43 25l-59 98q-10 14 -20 0l-60 -98q-14 -25 -43 -25h-184q-31 1 -31 21z" />
<glyph unicode="&#xfc;" horiz-adv-x="1124" d="M80 356v666q0 16 10 26.5t27 10.5h266q16 0 26.5 -10.5t10.5 -26.5v-588q0 -72 37 -115t100 -43q57 0 95 35t46 92v619q0 16 10.5 26.5t26.5 10.5h266q16 0 26.5 -10.5t10.5 -26.5v-985q0 -16 -10 -26.5t-27 -10.5h-266q-16 0 -26.5 10t-10.5 27v51q0 10 -5 12t-11 -6 q-86 -111 -254 -110q-156 0 -252 98t-96 274zM191 1311q0 72 46 117t118 45q70 0 113.5 -45.5t43.5 -116.5q0 -74 -43 -119t-114 -45q-72 0 -118 45t-46 119zM602 1311q0 72 44.5 117t115.5 45q74 0 118 -45.5t44 -116.5q0 -74 -44 -119t-118 -45q-71 0 -115.5 45t-44.5 119 z" />
<glyph unicode="&#xfd;" horiz-adv-x="1064" d="M35 1032q0 27 31 27h286q16 0 27.5 -9.5t13.5 -23.5l133 -534q4 -8 9.5 -8.5t7.5 8.5l129 534q2 14 13 23.5t28 9.5h284q20 0 28.5 -11.5t2.5 -29.5l-340 -1038q-51 -154 -107.5 -233t-164 -117t-305.5 -38h-15q-6 0 -10 10.5t-4 26.5v205q0 16 4 26.5t8 10.5h10 q131 0 186.5 22.5t69.5 96.5q2 8 0 18l-323 1010q-2 6 -2 14zM379 1219q0 8 6 20l98 183q16 27 43 26h252q31 0 31 -22q0 -12 -8 -23l-133 -184q-16 -23 -45 -23h-211q-33 0 -33 23z" />
<glyph unicode="&#xfe;" horiz-adv-x="1120" d="M90 -373v1770q0 16 10.5 26.5t26.5 10.5h266q16 0 26.5 -10.5t10.5 -26.5v-375q0 -8 5 -10t11 4q78 61 203 61q131 0 236.5 -78.5t152.5 -205.5q43 -113 43 -258q0 -135 -32 -236q-41 -139 -154 -227t-246 -88q-127 0 -203 71q-6 8 -11 6t-5 -12v-422q0 -16 -10 -26.5 t-27 -10.5h-266q-16 0 -26.5 10.5t-10.5 26.5zM430 383q0 -4 4 -16l2 -7q43 -78 121 -77q82 0 125 75q35 66 35 170q0 111 -37 179q-43 72 -123 71q-70 0 -115 -61l-8 -17q0 -2 -2 -7t-2 -11v-299z" />
<glyph unicode="&#xff;" horiz-adv-x="1064" d="M35 1032q0 27 31 27h286q16 0 27.5 -9.5t13.5 -23.5l133 -534q4 -8 9.5 -8.5t7.5 8.5l129 534q2 14 13 23.5t28 9.5h284q20 0 28.5 -11.5t2.5 -29.5l-340 -1038q-51 -154 -107.5 -233t-164 -117t-305.5 -38h-15q-6 0 -10 10.5t-4 26.5v205q0 16 4 26.5t8 10.5h10 q131 0 186.5 22.5t69.5 96.5q2 8 0 18l-323 1010q-2 6 -2 14zM164 1336q0 72 46 117t118 45q70 0 113.5 -45.5t43.5 -116.5q0 -74 -43 -119t-114 -45q-72 0 -118 45t-46 119zM575 1336q0 72 44.5 117t115.5 45q74 0 118 -45.5t44 -116.5q0 -74 -44 -119t-118 -45 q-71 0 -115.5 45t-44.5 119z" />
<glyph unicode="&#x152;" horiz-adv-x="1912" d="M78 506v422q0 152 62.5 270.5t169 185t231.5 66.5q154 0 286 -82q6 -4 11.5 -1t5.5 11v19q0 16 10 26.5t27 10.5h931q16 0 26.5 -10.5t10.5 -26.5v-217q0 -17 -10 -27t-27 -10h-614q-14 0 -14 -15v-243q0 -14 14 -15h383q16 0 26.5 -10t10.5 -26v-216q0 -16 -10.5 -26 t-26.5 -10h-383q-14 0 -14 -15v-262q0 -14 14 -14h614q16 0 26.5 -10.5t10.5 -26.5v-217q0 -16 -10 -26.5t-27 -10.5h-931q-16 0 -26.5 10t-10.5 27v14q0 8 -5 11.5t-12 -1.5q-135 -84 -286 -84q-125 0 -231.5 67t-169 187.5t-62.5 274.5zM418 496q0 -102 58.5 -165 t152.5 -63q96 0 155.5 62.5t59.5 165.5v434q0 102 -59.5 165.5t-155.5 63.5q-94 0 -152.5 -63.5t-58.5 -165.5v-434z" />
<glyph unicode="&#x153;" horiz-adv-x="1794" d="M61 532q0 141 37 238q53 141 175 223t288 82q92 0 176 -35.5t152 -101.5q10 -10 20 0q68 63 151 100t177 37q168 0 295 -87t174 -224q35 -92 37 -293q0 -18 -10.5 -28.5t-26.5 -10.5h-602q-12 0 -12 -12t4 -24.5t6 -16.5q41 -111 207 -111q53 0 102 17.5t82 50.5 q16 12 27 12q12 0 24 -12l129 -135q12 -12 13 -27q0 -10 -11 -24q-156 -166 -411 -166q-217 0 -355 141q-10 10 -20 0q-68 -66 -152 -103.5t-178 -37.5q-164 0 -285.5 84t-175.5 229q-37 100 -37 235zM403 535q0 -106 25 -166q16 -45 51 -70t80 -25t79 26t50 69 q27 55 27 166q0 104 -27 157q-16 43 -50 67.5t-79 24.5t-80 -24.5t-51 -67.5q-25 -55 -25 -157zM1092 635q0 -10 12 -10h276q12 0 13 12q0 18 -11 43q-16 47 -53 75.5t-88 28.5t-86 -28.5t-53 -75.5q-8 -25 -10 -41v-4z" />
<glyph unicode="&#x178;" horiz-adv-x="1300" d="M59 1407q0 27 33 27h289q31 0 43 -29l215 -502q4 -8 11 -8t9 8l218 502q12 29 43 29h290q14 0 23.5 -7.5t9.5 -17.5q0 -12 -4 -18l-418 -863q-4 -12 -4 -18v-469q0 -16 -10 -26.5t-27 -10.5h-264q-16 0 -26.5 10.5t-10.5 26.5v469q0 6 -4 18l-412 863zM283 1686 q0 72 46 117t118 45q70 0 113.5 -45.5t43.5 -116.5q0 -74 -43 -119t-114 -45q-72 0 -118 45t-46 119zM694 1686q0 72 44.5 117t115.5 45q74 0 118 -45.5t44 -116.5q0 -74 -44 -119t-118 -45q-71 0 -115.5 45t-44.5 119z" />
<glyph unicode="&#x2c6;" horiz-adv-x="704" d="M25 1190q0 14 8 24l140 195q14 23 45 23h266q29 0 45 -23l143 -195q8 -10 8 -22q0 -23 -30 -23h-185q-29 0 -43 25l-59 98q-10 14 -20 0l-60 -98q-14 -25 -43 -25h-184q-31 1 -31 21z" />
<glyph unicode="&#x2dc;" horiz-adv-x="731" d="M43 1315q29 72 81 109.5t115 37.5q37 0 65 -11t73 -38q20 -14 45.5 -23.5t48.5 -9.5q39 0 61 29q16 18 31 18q10 0 20 -6l89 -61q16 -10 16 -31q0 -14 -12 -37q-37 -63 -90.5 -96t-106.5 -33q-41 0 -72.5 13.5t-66.5 35.5q-29 18 -45.5 24.5t-32.5 6.5q-43 0 -66 -29 q-14 -18 -30 -18q-10 0 -21 8l-86 62q-29 20 -16 49z" />
<glyph unicode="&#x2000;" horiz-adv-x="991" />
<glyph unicode="&#x2001;" horiz-adv-x="1983" />
<glyph unicode="&#x2002;" horiz-adv-x="991" />
<glyph unicode="&#x2003;" horiz-adv-x="1983" />
<glyph unicode="&#x2004;" horiz-adv-x="661" />
<glyph unicode="&#x2005;" horiz-adv-x="495" />
<glyph unicode="&#x2006;" horiz-adv-x="330" />
<glyph unicode="&#x2007;" horiz-adv-x="330" />
<glyph unicode="&#x2008;" horiz-adv-x="247" />
<glyph unicode="&#x2009;" horiz-adv-x="396" />
<glyph unicode="&#x200a;" horiz-adv-x="110" />
<glyph unicode="&#x2010;" horiz-adv-x="847" d="M51 485v217q0 16 10.5 26.5t26.5 10.5h672q16 0 26.5 -10t10.5 -27v-217q0 -16 -10.5 -26t-26.5 -10h-672q-16 0 -26.5 10t-10.5 26z" />
<glyph unicode="&#x2011;" horiz-adv-x="847" d="M51 485v217q0 16 10.5 26.5t26.5 10.5h672q16 0 26.5 -10t10.5 -27v-217q0 -16 -10.5 -26t-26.5 -10h-672q-16 0 -26.5 10t-10.5 26z" />
<glyph unicode="&#x2012;" horiz-adv-x="847" d="M51 485v217q0 16 10.5 26.5t26.5 10.5h672q16 0 26.5 -10t10.5 -27v-217q0 -16 -10.5 -26t-26.5 -10h-672q-16 0 -26.5 10t-10.5 26z" />
<glyph unicode="&#x2013;" horiz-adv-x="995" d="M51 473v217q0 16 10.5 26.5t26.5 10.5h819q16 0 26.5 -10t10.5 -27v-217q0 -16 -10 -26.5t-27 -10.5h-819q-16 0 -26.5 10.5t-10.5 26.5z" />
<glyph unicode="&#x2014;" horiz-adv-x="1329" d="M51 475v215q0 16 10.5 26.5t26.5 10.5h1153q16 0 26.5 -10t10.5 -27v-215q0 -16 -10.5 -26.5t-26.5 -10.5h-1153q-16 0 -26.5 10.5t-10.5 26.5z" />
<glyph unicode="&#x2018;" horiz-adv-x="462" d="M14 983l4 16l164 406q12 29 43 29h195q18 0 27.5 -10.5t5.5 -30.5l-103 -404q-8 -33 -41 -33h-262q-33 0 -33 27z" />
<glyph unicode="&#x2019;" horiz-adv-x="462" d="M10 997l103 404q8 33 41 33h262q33 0 33 -27l-5 -16l-163 -406q-12 -29 -43 -29h-195q-18 0 -27.5 10.5t-5.5 30.5z" />
<glyph unicode="&#x201a;" horiz-adv-x="1228" d="M66 -176l59 467q2 35 39 35h225q18 0 27.5 -10.5t5.5 -30.5l-125 -469q-8 -31 -41 -31h-156q-38 0 -34 39z" />
<glyph unicode="&#x201c;" horiz-adv-x="815" d="M14 999l142 404q10 31 41 31h186q18 0 27.5 -11.5t5.5 -29.5l-82 -404q-6 -33 -39 -33h-250q-20 0 -28.5 12.5t-2.5 30.5zM408 999l139 404q10 31 41 31h186q39 0 33 -41l-78 -404q-6 -33 -39 -33h-252q-20 0 -28.5 12.5t-1.5 30.5z" />
<glyph unicode="&#x201d;" horiz-adv-x="815" d="M8 997l78 404q6 33 39 33h252q20 0 28.5 -12.5t2.5 -30.5l-140 -404q-8 -31 -41 -31h-186q-39 0 -33 41zM399 997l82 404q6 33 39 33h250q21 0 29 -12.5t2 -30.5l-142 -404q-8 -31 -41 -31h-186q-18 0 -27.5 11.5t-5.5 29.5z" />
<glyph unicode="&#x201e;" horiz-adv-x="862" d="M8 -172l78 404q6 33 39 33h252q20 0 28.5 -12.5t2.5 -30.5l-140 -404q-8 -31 -41 -31h-186q-39 0 -33 41zM399 -172l82 404q6 33 39 33h250q21 0 29 -12.5t2 -30.5l-142 -404q-8 -31 -41 -31h-186q-18 0 -27.5 11.5t-5.5 29.5z" />
<glyph unicode="&#x2022;" horiz-adv-x="653" d="M51 573q0 76 37 138.5t101.5 99.5t140.5 37q74 0 136 -37t99 -99.5t37 -138.5q0 -74 -37 -137t-99.5 -101t-135.5 -38q-76 0 -140.5 37t-101.5 101.5t-37 137.5z" />
<glyph unicode="&#x2026;" horiz-adv-x="1781" d="M61 186q0 80 63.5 137.5t145.5 57.5t145.5 -57.5t63.5 -137.5q0 -84 -59.5 -141t-149.5 -57t-149.5 57t-59.5 141zM679 186q0 80 63.5 137.5t145.5 57.5t145.5 -57.5t63.5 -137.5q0 -84 -59.5 -141t-149.5 -57t-149.5 57t-59.5 141zM1300 186q0 80 63.5 137.5t145.5 57.5 t145.5 -57.5t63.5 -137.5q0 -84 -59.5 -141t-149.5 -57t-149.5 57t-59.5 141z" />
<glyph unicode="&#x202f;" horiz-adv-x="396" />
<glyph unicode="&#x2039;" horiz-adv-x="665" d="M92 575q0 12 6 25l164 305q16 27 43 27h209q33 0 33 -23q0 -8 -6 -20l-168 -303q-4 -10 0 -21l168 -303q6 -12 6 -20q0 -23 -33 -23h-209q-27 0 -43 27l-164 305q-6 12 -6 24z" />
<glyph unicode="&#x203a;" horiz-adv-x="667" d="M119 242q0 8 6 20l168 303q6 10 0 21l-168 303q-6 12 -6 20q0 23 33 23h208q27 0 43 -27l164 -305q6 -12 6 -25q0 -12 -6 -24l-164 -305q-16 -27 -43 -27h-208q-33 0 -33 23z" />
<glyph unicode="&#x205f;" horiz-adv-x="495" />
<glyph unicode="&#x20ac;" horiz-adv-x="1298" d="M78 551v100q0 16 10 26.5t27 10.5h112q14 0 15 14v33q0 14 -15 15h-112q-16 0 -26.5 10t-10.5 26v101q0 16 10 26.5t27 10.5h112q14 0 15 14v43q0 141 61.5 247.5t173 164t258.5 57.5q199 0 328 -94t158 -258l2 -11q0 -27 -33 -30l-268 -33h-7q-25 0 -34 31 q-16 49 -54.5 76.5t-91.5 27.5q-70 0 -111.5 -47t-41.5 -123v-51q0 -14 14 -14h360q20 0 28.5 -10.5t2.5 -30.5l-31 -103q-8 -31 -41 -30h-319q-14 0 -14 -15v-33q0 -14 14 -14h291q20 0 28.5 -10t2.5 -31l-31 -102q-8 -31 -41 -31h-250q-14 0 -14 -14v-58q0 -76 42 -122 t111 -46q58 0 96.5 31t51.5 84q10 37 43 31l264 -47q37 -6 31 -43q-35 -160 -163 -253t-323 -93q-147 0 -258.5 58t-173 164.5t-61.5 250.5v43q0 14 -15 14h-112q-16 0 -26.5 10.5t-10.5 26.5z" />
<glyph unicode="&#x2122;" horiz-adv-x="1380" d="M23 1315v82q0 16 10 26.5t26 10.5h510q16 0 26.5 -10.5t10.5 -26.5v-82q0 -16 -10 -26.5t-27 -10.5h-153q-14 0 -15 -14v-512q0 -16 -10 -26.5t-26 -10.5h-107q-16 0 -26.5 10t-10.5 27v512q0 14 -14 14h-148q-16 0 -26 10t-10 27zM692 752v645q0 16 10.5 26.5t26.5 10.5 h111q29 0 45 -23l114 -156q10 -14 21 0l119 156q18 23 45 23h108q16 0 26.5 -10.5t10.5 -26.5v-645q0 -16 -10 -26.5t-27 -10.5h-106q-16 0 -26.5 10t-10.5 27v378q0 10 -6 12.5t-13 -5.5l-65 -90q-16 -23 -45 -23h-21q-31 0 -45 23l-63 90q-6 8 -12.5 6t-6.5 -13v-378 q0 -16 -10 -26.5t-26 -10.5h-107q-16 0 -26.5 10t-10.5 27z" />
<glyph unicode="&#x25fc;" horiz-adv-x="1054" d="M0 0v1055h1055v-1055h-1055z" />
</font>
</defs>
</svg>
