<?xml version="1.0" standalone="no"?>
<!DOCTYPE svg PUBLIC "-//W3C//DTD SVG 1.1//EN" "http://www.w3.org/Graphics/SVG/1.1/DTD/svg11.dtd" >
<svg xmlns="http://www.w3.org/2000/svg" xmlns:xlink="http://www.w3.org/1999/xlink" version="1.1">
<metadata></metadata>
<defs>
<font id="barlowblack_italic" horiz-adv-x="1095" >
<font-face units-per-em="2048" ascent="1638" descent="-410" />
<missing-glyph horiz-adv-x="397" />
<glyph horiz-adv-x="0" />
<glyph unicode="&#xd;" horiz-adv-x="397" />
<glyph unicode=" "  horiz-adv-x="397" />
<glyph unicode="&#x09;" horiz-adv-x="397" />
<glyph unicode="&#xa0;" horiz-adv-x="397" />
<glyph unicode="!" horiz-adv-x="718" d="M119 188q0 63 37 118.5t95 88.5t118 33q80 0 139 -55.5t59 -134.5q0 -63 -33.5 -117.5t-92 -87.5t-126.5 -33q-88 0 -142 53t-54 135zM236 547l71 848q0 18 11.5 28.5t27.5 10.5h299q37 0 31 -39l-139 -848q-8 -39 -45 -39h-222q-16 0 -26.5 10t-7.5 29z" />
<glyph unicode="&#x22;" horiz-adv-x="839" d="M125 979l18 414q0 18 11.5 29.5t29.5 11.5h277q16 0 25.5 -11.5t5.5 -29.5l-86 -414q-6 -37 -41 -37h-205q-37 0 -35 37zM600 979l21 414q0 18 11 29.5t30 11.5h274q18 0 26.5 -11.5t4.5 -29.5l-84 -414q-6 -37 -41 -37h-205q-37 0 -37 37z" />
<glyph unicode="#" horiz-adv-x="1400" d="M63 362l31 250q2 18 14.5 28.5t28.5 10.5h135q12 0 19 15l28 108l3 6q0 12 -17 13h-76q-39 0 -34 38l32 252q2 18 13.5 28.5t27.5 10.5h131q12 0 19 15l55 204q4 16 16.5 25.5t28.5 9.5h297q18 0 26.5 -11t4.5 -30l-53 -194l-2 -6q0 -12 14 -13h110q12 0 17 15l55 204 q4 16 16.5 25.5t28.5 9.5h297q20 0 27.5 -11t3.5 -30l-53 -194l-2 -6q0 -6 5 -9.5t9 -3.5h82q18 0 26.5 -10t6.5 -29l-31 -252q-2 -18 -13.5 -28t-29.5 -10h-135q-14 0 -17 -15l-28 -108l-2 -6q0 -12 14 -13h78q18 0 26.5 -10t6.5 -29l-31 -250q-2 -18 -13.5 -28t-29.5 -10 h-131q-12 0 -17 -15l-55 -205q-4 -16 -16.5 -25t-28.5 -9h-297q-20 0 -27.5 11t-3.5 30l54 194l2 6q0 6 -5.5 9.5t-9.5 3.5h-110q-12 0 -17 -15l-55 -205q-12 -35 -47 -34h-295q-20 0 -28.5 11t-2.5 30l54 194l2 6q0 12 -17 13h-80q-39 0 -35 38zM664 666q0 -14 14 -15h108 q13 1 19 15l29 108l2 6q0 6 -5.5 9.5t-9.5 3.5h-110q-14 0 -17 -15l-30 -108v-4z" />
<glyph unicode="$" horiz-adv-x="1103" d="M66 317q0 14 4 52l10 94q2 18 14 28.5t29 10.5h293q16 0 26.5 -6.5t8.5 -14.5l-2 -22q-2 -8 -3 -27q0 -51 29 -85t88 -34q63 0 94 39t31 76q0 47 -50 74.5t-157 60.5q-82 27 -139 50.5t-98 58.5q-49 43 -81 113.5t-32 162.5q0 20 4 62q23 168 133.5 281.5t290.5 146.5 q16 4 16 16l11 100q6 39 41 39h159q33 0 31 -39l-14 -94q0 -14 12 -18q154 -27 238 -116t84 -224q0 -18 -4 -60l-9 -77q-6 -39 -43 -39h-293q-39 0 -34 16l2 16l2 29q0 57 -28 95t-89 38q-57 0 -96 -31.5t-39 -76.5t46 -71t144 -54q113 -35 160 -58q213 -100 213 -327 q0 -20 -4 -66q-23 -176 -133.5 -291.5t-292.5 -148.5q-14 -4 -16 -16l-7 -80q-6 -39 -41 -39h-163q-37 0 -31 39l12 75q0 16 -14 19q-150 25 -231.5 109.5t-81.5 213.5z" />
<glyph unicode="%" horiz-adv-x="1607" d="M172 1061q0 102 53.5 192t141.5 143.5t186 53.5q84 0 151.5 -40t106.5 -109.5t39 -153.5q0 -102 -53.5 -191.5t-141.5 -142.5t-186 -53q-129 0 -213 86t-84 215zM264 23q0 8 10 24l902 1360q16 27 47 27h180q31 0 31 -23q0 -8 -11 -25l-899 -1359q-16 -27 -47 -27h-182 q-31 0 -31 23zM362 1085q0 -57 37 -95t93 -38q67 0 116 51.5t49 122.5q0 55 -35.5 93t-91.5 38q-68 0 -118 -51t-50 -121zM872 287q0 102 53.5 191t142.5 142.5t187 53.5q84 0 152 -40t105.5 -108.5t37.5 -152.5q0 -104 -53 -193.5t-141 -142.5t-187 -53q-129 0 -213 87 t-84 216zM1063 309q0 -57 37 -95t94 -38q66 0 116 51.5t50 120.5q0 57 -37 95t-92 38q-68 0 -118 -51t-50 -121z" />
<glyph unicode="&#x26;" horiz-adv-x="1456" d="M53 307q0 152 76 254.5t205 177.5q6 4 7 11.5t-3 13.5q-61 88 -84 140t-23 97q0 23 2 33q14 123 83 217.5t177.5 146.5t243.5 52q125 0 222.5 -45t150.5 -128t53 -190q0 -35 -2 -51q-16 -127 -93 -214t-198 -152q-16 -6 -6 -23l84 -108q10 -12 23 0q84 74 137 145 q16 23 35 23q10 0 18 -7l201 -129q16 -12 16 -28q0 -14 -8 -25q-92 -129 -205 -233q-12 -12 -4 -25l166 -213q8 -10 8 -20q0 -12 -10 -19.5t-27 -7.5h-329q-29 0 -43 20q-12 14 -22.5 27.5t-20.5 26.5q-6 12 -21 4q-201 -94 -395 -94q-178 0 -296 79.5t-118 243.5zM430 371 q0 -31 23.5 -50.5t66.5 -19.5q27 0 53 6q21 5 76 25q8 4 10.5 10t-2.5 12l-53 66l-61 78q-8 12 -23 2q-70 -49 -86 -103q-4 -20 -4 -26zM608 1028q0 -29 58 -110q6 -14 20 -5q100 59 100 123q0 31 -22.5 48.5t-61.5 17.5q-43 0 -68.5 -21.5t-25.5 -52.5z" />
<glyph unicode="'" horiz-adv-x="382" d="M125 979l18 414q0 18 11.5 29.5t29.5 11.5h295q18 0 26.5 -11.5t4.5 -29.5l-84 -414q-6 -37 -43 -37h-223q-37 0 -35 37z" />
<glyph unicode="(" horiz-adv-x="804" d="M35 489q0 94 12 201q59 496 383 838q20 20 47 20h289q31 0 31 -20q0 -8 -11 -25q-123 -176 -206.5 -368.5t-114.5 -444.5q-14 -102 -14 -209q0 -178 36.5 -322.5t98.5 -283.5q6 -10 6 -18q0 -12 -10.5 -19.5t-26.5 -7.5h-289q-29 0 -43 23q-188 268 -188 636z" />
<glyph unicode=")" horiz-adv-x="804" d="M98 -150q0 14 8 25q123 174 208 367.5t116 447.5q14 102 14 207q0 178 -37.5 323.5t-99.5 282.5q-4 12 -4 19q0 12 10.5 19t26.5 7h287q29 0 43 -20q190 -270 190 -641q0 -92 -12 -197q-35 -274 -135.5 -478t-247.5 -359q-20 -23 -49 -23h-287q-31 0 -31 20z" />
<glyph unicode="*" horiz-adv-x="794" d="M127 1065q0 23 27 35l122 59q10 4 11.5 10.5t-6.5 10.5l-109 57q-20 12 -20 27q0 14 8 24l84 127q16 23 35 23q8 0 18 -6l106 -68q8 -4 11 -4q10 0 12 14l12 117q2 39 41 39h131q39 0 33 -39l-16 -117q0 -20 20 -10l123 68q8 6 21 6q18 0 28 -23l51 -127l4 -16 q0 -20 -26 -35l-127 -57q-10 -4 -10 -11.5t8 -11.5l110 -59q20 -12 21 -27q0 -14 -8 -24l-84 -127q-12 -23 -33 -23q-10 0 -20 8l-107 70l-8 4q-10 0 -12 -14l-13 -121q-6 -39 -43 -39h-131q-39 0 -33 39l17 121v4q0 8 -5 9t-14 -3l-125 -70q-10 -8 -22 -8q-16 0 -27 23 l-51 127q-4 12 -4 18z" />
<glyph unicode="+" horiz-adv-x="946" d="M61 473l31 250q6 39 43 39h217q14 0 19 16l26 223q2 18 13.5 28.5t29.5 10.5h242q18 0 26.5 -10t6.5 -29l-27 -223v-4q0 -12 12 -12h218q18 0 26 -10.5t6 -28.5l-30 -250q-2 -18 -13.5 -28.5t-27.5 -10.5h-217q-14 0 -19 -16l-27 -223q-6 -39 -43 -39h-241 q-18 0 -26.5 10t-6.5 29l27 223v4q0 12 -15 12h-217q-16 0 -25.5 10.5t-7.5 28.5z" />
<glyph unicode="," horiz-adv-x="526" d="M-14 -186l108 477q4 16 15.5 26.5t27.5 10.5h254q31 0 31 -25q0 -6 -4 -18l-185 -480q-12 -33 -45 -32h-172q-18 0 -26 11t-4 30z" />
<glyph unicode="-" horiz-adv-x="831" d="M59 459l31 250q2 18 14.5 28.5t28.5 10.5h670q18 0 26.5 -10.5t6.5 -28.5l-31 -250q-2 -18 -13.5 -28.5t-29.5 -10.5h-668q-39 0 -35 39z" />
<glyph unicode="." horiz-adv-x="522" d="M23 172q0 63 36.5 118.5t94 88.5t116.5 33q82 0 140.5 -55.5t58.5 -135.5q0 -63 -34 -117.5t-91 -87t-125 -32.5q-88 0 -142 53t-54 135z" />
<glyph unicode="/" horiz-adv-x="999" d="M2 23q0 10 6 22l717 1358q16 31 47 31h293q29 0 29 -23q0 -10 -7 -22l-714 -1358q-14 -31 -47 -31h-293q-31 0 -31 23z" />
<glyph unicode="0" horiz-adv-x="1138" d="M74 397q0 41 6 86l57 467q27 231 179.5 365.5t390.5 134.5q215 0 334.5 -110.5t119.5 -305.5q0 -41 -6 -84l-57 -467q-29 -236 -181.5 -372t-390.5 -136q-215 0 -333.5 112t-118.5 310zM449 432q0 -59 30.5 -93t85.5 -34q66 0 108 42t50 116l61 500q2 10 2 30 q0 59 -31.5 93t-88.5 34q-63 0 -103.5 -42t-50.5 -115l-61 -500q-2 -10 -2 -31z" />
<glyph unicode="1" horiz-adv-x="667" d="M121 1116l26 219q6 37 39 45l162 47q18 7 47 7h312q18 0 26 -10.5t6 -28.5l-166 -1356q-6 -39 -43 -39h-299q-16 0 -25 10t-7 29l127 1030v4q0 12 -15 12l-157 -6q-35 0 -33 37z" />
<glyph unicode="2" horiz-adv-x="1144" d="M37 39l29 237q2 29 26 48q98 80 195.5 170t120.5 110q104 98 159 146q211 190 211 270q0 45 -30.5 72.5t-83.5 27.5q-57 0 -97.5 -31.5t-46.5 -84.5l-4 -33q-2 -18 -13 -28.5t-30 -10.5h-301q-18 0 -26.5 10t-6.5 29l13 94q23 117 101.5 204t196 134t255.5 47 q141 0 244.5 -51t156.5 -137t53 -193q0 -100 -49 -194.5t-149 -196.5q-80 -82 -304 -270q-14 -14 -31.5 -27.5t-35.5 -30.5q-10 -8 -8 -14t12 -6h455q16 0 25 -10.5t7 -28.5l-30 -252q-2 -18 -14.5 -28.5t-28.5 -10.5h-938q-19 0 -27 10t-6 29z" />
<glyph unicode="3" horiz-adv-x="1103" d="M57 412l2 41q4 39 41 39h303q35 0 35 -37q0 -53 15 -84q25 -57 90 -58q66 0 106 58q39 53 45 127q2 14 2 43q0 51 -14 86q-27 61 -94 61q-25 0 -53.5 -16.5t-71.5 -46.5q-16 -10 -27 -11q-16 0 -26 19l-123 215q-4 8 -4 20q0 20 20 35l295 180q10 6 8 13.5t-12 7.5h-379 q-18 0 -26.5 10t-6.5 29l31 252q2 18 13.5 28.5t29.5 10.5h870q16 0 25.5 -10.5t7.5 -28.5l-35 -287q-6 -31 -30 -47l-220 -146q-8 -6 -7 -13t12 -9q129 -49 178 -203q18 -61 18 -133q0 -23 -4 -72q-12 -102 -67 -209q-72 -135 -205 -213.5t-295 -78.5q-160 0 -273.5 79.5 t-154.5 217.5q-18 61 -19 131z" />
<glyph unicode="4" horiz-adv-x="1275" d="M51 389l27 205q2 25 14 47l416 764q14 29 47 29h317q14 0 22.5 -5.5t8.5 -15.5t-8 -24l-365 -680q-8 -18 11 -19h194q6 0 11.5 4t5.5 13l24 188q2 18 13.5 28.5t27.5 10.5h299q37 0 33 -39l-23 -188v-5q0 -12 13 -12h67q39 0 35 -39l-33 -262q-6 -39 -43 -39h-67 q-14 0 -19 -16l-35 -295q-6 -39 -43 -39h-299q-16 0 -25 10t-7 29l37 295v4q0 12 -15 12h-608q-16 0 -25.5 10.5t-7.5 28.5z" />
<glyph unicode="5" horiz-adv-x="1101" d="M66 387q0 20 11 30.5t29 10.5h310q29 0 39 -27l8 -26q27 -57 92 -58q55 0 102 54q33 43 39 92q2 10 2 31q0 35 -12 65q-27 55 -94 55q-59 0 -98 -39q-25 -25 -52 -24h-319q-16 0 -25.5 10t-7.5 29l98 805q6 39 43 39h885q16 0 25.5 -10.5t7.5 -28.5l-31 -252 q-6 -39 -43 -39h-532q-14 0 -19 -17l-20 -167v-5q0 -8 5 -10t13 2q76 39 166 39q139 0 239.5 -74.5t137.5 -201.5q18 -61 18 -135q0 -23 -4 -64q-14 -111 -65 -203q-70 -127 -204 -203.5t-296 -76.5q-160 0 -274.5 74.5t-155.5 205.5q-16 59 -18 119z" />
<glyph unicode="6" d="M68 403q0 23 4 68l73 602q14 111 86 197t188 133t259 47q199 0 317.5 -90t118.5 -242q0 -31 -2 -45l-8 -63q-6 -39 -43 -39h-299q-35 0 -35 22l4 23q4 43 -21.5 73.5t-72.5 30.5q-49 0 -85 -30.5t-40 -73.5l-14 -123v-4q0 -16 16 -6q80 45 184 45q123 0 221.5 -65.5 t141.5 -188.5q16 -49 16 -119q0 -55 -4 -84q-14 -115 -63 -203q-70 -127 -203 -203.5t-295 -76.5q-158 0 -271.5 74.5t-154.5 205.5q-18 66 -18 135zM444 438q0 -43 17 -71q27 -49 90 -50q63 0 106 50q19 22 31 54t12 62q0 43 -20 78q-25 45 -88 45q-70 0 -109 -45 q-27 -33 -37 -94z" />
<glyph unicode="7" horiz-adv-x="1015" d="M102 1010l50 385q6 39 43 39h901q18 0 26 -10.5t6 -28.5l-32 -267q-4 -27 -15 -47l-532 -1050q-16 -31 -49 -31h-318q-30 0 -30 25q0 8 6 20l532 1040q8 18 -10 19h-248q-14 0 -18 -17l-11 -77q-2 -18 -13 -28.5t-28 -10.5h-227q-39 0 -33 39z" />
<glyph unicode="8" horiz-adv-x="1103" d="M55 375q0 78 22.5 149.5t57.5 124.5q37 55 92 99q14 8 4 22q-41 35 -63 90q-27 59 -27 127q0 162 105 291q76 88 192.5 137t255.5 49q160 0 268.5 -58t151.5 -179q25 -66 25 -144q0 -123 -74 -223q-35 -45 -88 -86q-14 -14 -2 -22q49 -37 74 -103q26 -65 26 -145 q0 -33 -6 -74q-12 -102 -61 -190q-70 -117 -202 -186.5t-298 -69.5q-158 0 -270.5 65.5t-157.5 190.5q-25 68 -25 135zM444 428q0 -41 13 -66q29 -53 96 -53q66 0 102 47q37 43 43 113q2 12 2 35q0 35 -8 53q-27 68 -100 68q-76 0 -117 -68q-23 -39 -29 -92q-2 -14 -2 -37z M508 965q0 -33 10 -60q12 -28 39 -43.5t61 -15.5q35 0 66 15.5t49 41.5q25 37 31 90l2 27q0 57 -30.5 86t-82.5 29q-39 0 -70.5 -17.5t-47.5 -50.5q-18 -33 -25 -78q-2 -8 -2 -24z" />
<glyph unicode="9" horiz-adv-x="1067" d="M49 315q0 31 2 45l8 64q6 39 43 39h299q35 0 35 -23l-4 -22q-4 -43 21.5 -74t72.5 -31q49 0 85 31t40 74l15 123v4q0 16 -17 6q-80 -45 -184 -45q-123 0 -221.5 65.5t-141.5 188.5q-16 49 -16 119q0 55 4 84q14 115 64 202q70 127 204 204t295 77q156 0 269.5 -75 t154.5 -206q19 -61 19 -129q0 -25 -4 -73l-74 -603q-14 -111 -86 -196.5t-187.5 -132.5t-259.5 -47q-199 0 -317.5 90t-118.5 241zM463 950q0 -43 20 -78q25 -45 88 -45q70 0 109 45q27 34 37 95l2 28q0 43 -17 72q-27 49 -90 49t-106 -49q-18 -23 -30.5 -54.5t-12.5 -62.5z " />
<glyph unicode=":" horiz-adv-x="757" d="M145 188q0 63 37 118.5t95.5 88.5t117.5 33q80 0 138.5 -55.5t58.5 -134.5q0 -63 -34 -117.5t-91 -87.5t-125 -33q-88 0 -142.5 53t-54.5 135zM225 846q0 63 37 118.5t95.5 88t117.5 32.5q80 0 139.5 -55t59.5 -135q0 -63 -34 -117.5t-92.5 -87.5t-125.5 -33 q-88 0 -142.5 53.5t-54.5 135.5z" />
<glyph unicode=";" horiz-adv-x="632" d="M55 -186l99 477q6 37 43 37h254q33 0 32 -25q0 -6 -4 -18l-178 -480q-12 -33 -45 -32h-170q-18 0 -26.5 11t-4.5 30zM156 782q0 63 36.5 119.5t94 89.5t116.5 33q80 0 139.5 -55.5t59.5 -134.5q0 -63 -33.5 -117.5t-91 -87.5t-125.5 -33q-88 0 -142 53t-54 133z" />
<glyph unicode="&#x3c;" horiz-adv-x="946" d="M57 436l33 262q4 33 35 45l827 347q6 4 19 4q27 0 22 -33l-35 -283q-6 -35 -36 -45l-437 -155q-10 -2 -11 -9.5t9 -11.5l398 -156q31 -12 24 -45l-35 -282q-3 -35 -30 -35l-17 4l-741 348q-29 12 -25 45z" />
<glyph unicode="=" horiz-adv-x="946" d="M61 272l31 250q6 39 43 39h783q18 0 26 -10.5t6 -28.5l-30 -250q-2 -18 -13.5 -28.5t-27.5 -10.5h-785q-16 0 -25.5 10.5t-7.5 28.5zM61 643l31 250q6 39 43 39h783q18 0 26 -10.5t6 -28.5l-30 -250q-2 -18 -13.5 -28.5t-27.5 -10.5h-785q-16 0 -25.5 10.5t-7.5 28.5z " />
<glyph unicode="&#x3e;" horiz-adv-x="946" d="M12 74l35 282q6 35 37 45l436 156q10 2 11 9t-9 12l-399 155q-29 12 -23 45l35 283q4 35 31 35l16 -4l742 -349q29 -12 24 -45l-33 -262q-4 -33 -34 -45l-828 -348q-12 -4 -18 -4q-10 0 -17.5 9t-5.5 26z" />
<glyph unicode="?" horiz-adv-x="1116" d="M121 989l2 10q16 133 96 236.5t208 161t284 57.5q211 0 332.5 -99.5t121.5 -267.5q0 -20 -4 -57q-12 -92 -52 -156.5t-90 -104.5t-126 -85q-78 -47 -116 -82t-44 -86q-2 -14 -13 -23.5t-30 -9.5h-295q-39 0 -35 29l5 29q10 80 49 139t88 96t125 82t112.5 77t42.5 77 q4 43 -29.5 67.5t-95.5 24.5q-68 0 -111.5 -30t-49.5 -75q-2 -18 -13.5 -28t-27.5 -8l-297 14q-37 4 -37 12zM317 160q0 59 33 110.5t85 82t112 30.5q76 0 129 -51t53 -125q0 -57 -32.5 -107.5t-87 -80t-111.5 -29.5q-78 0 -129.5 49t-51.5 121z" />
<glyph unicode="@" horiz-adv-x="1619" d="M59 385q0 104 31 227q61 231 203.5 412.5t341.5 283t420 101.5q180 0 311 -66.5t200.5 -189.5t69.5 -287q0 -104 -26 -211q-47 -209 -161 -326.5t-292 -117.5q-143 0 -211 74q-10 10 -22 0q-47 -37 -108.5 -55.5t-127.5 -18.5q-100 0 -158.5 57.5t-64.5 147.5 q-2 10 -2 35q0 72 20 139q18 70 62 166q53 106 135 161.5t172 55.5q88 0 129 -53q6 -8 11 -8.5t9 6.5l5 18q4 16 16 26.5t27 10.5h170q18 0 25 -11.5t3 -29.5l-88 -338q-10 -41 -10 -72q0 -78 61 -78q49 0 82 48.5t58 144.5q27 104 26 192q0 172 -97 259.5t-267 87.5 q-158 0 -295 -74t-235.5 -204t-143.5 -296q-27 -98 -27 -186q0 -172 103.5 -264.5t281.5 -92.5q84 0 162 20.5t133 51.5q20 8 27 8q14 0 26 -16l74 -107q8 -10 8 -22q0 -18 -20 -33q-92 -63 -218 -101t-257 -38q-158 0 -288 67.5t-207 194.5t-77 301zM709 500q0 -16 2 -23 q12 -55 65 -55q45 0 84 55q37 47 49 115q14 70 11 113q-2 25 -19.5 38t-42.5 13q-27 0 -49.5 -14.5t-38.5 -39.5q-18 -27 -49 -122q-12 -37 -12 -80z" />
<glyph unicode="A" horiz-adv-x="1419" d="M12 25q0 12 4 20l580 1356q12 33 45 33h410q31 0 36 -33l248 -1356v-8q0 -37 -39 -37h-321q-35 0 -37 33l-23 147q0 6 -5 10.5t-11 4.5h-412q-12 0 -20 -15l-57 -147q-12 -33 -45 -33h-324q-29 0 -29 25zM594 504q0 -14 12 -15h246q8 0 13 5.5t3 13.5l-67 473 q-2 10 -9.5 10t-11.5 -10l-186 -473v-4z" />
<glyph unicode="B" horiz-adv-x="1222" d="M43 39l166 1356q6 39 43 39h508q231 0 348 -77t117 -253q0 -49 -4 -76q-23 -190 -177 -278q-10 -5 -11 -11t7 -10q131 -86 131 -258q0 -20 -4 -61q-27 -211 -181.5 -310.5t-383.5 -99.5h-526q-18 0 -26.5 10t-6.5 29zM455 342q0 -12 12 -12h176q140 0 156 121q1 9 1 18 q0 96 -124 96h-2h-178q-6 0 -11.5 -4t-5.5 -12l-24 -203v-4zM520 895q0 -16 15 -16h157q78 0 119 33.5t41 99.5q0 45 -34 68.5t-99 23.5h-156q-14 -1 -18 -17z" />
<glyph unicode="C" horiz-adv-x="1210" d="M78 432q0 53 4 80l51 414q18 156 101 274.5t215.5 184t295.5 65.5q227 0 359.5 -114.5t132.5 -309.5q0 -20 -4 -70q0 -18 -37 -22l-301 -21h-10q-29 0 -29 11l2 12q2 10 2 31q0 72 -41 112.5t-112 40.5q-80 0 -134.5 -50t-64.5 -134l-53 -440q-2 -10 -2 -31 q0 -70 42 -111t111 -41q80 0 133.5 50.5t63.5 132.5q2 10 14 17t29 5l297 -16q35 -4 35 -10l-2 -11q-18 -147 -100.5 -259.5t-214.5 -175t-296 -62.5q-225 0 -356 121.5t-131 326.5z" />
<glyph unicode="D" horiz-adv-x="1226" d="M43 39l166 1356q6 39 43 39h502q150 0 260 -49.5t170.5 -139.5t60.5 -211q0 -20 -4 -61l-61 -512q-16 -137 -98.5 -241.5t-212.5 -162t-291 -57.5h-502q-19 0 -27 10t-6 29zM455 342q0 -12 12 -12h166q66 0 116 54t64 142l47 381q2 12 2 37q0 74 -37 117t-100 43h-162 q-14 0 -18 -17l-90 -741v-4z" />
<glyph unicode="E" horiz-adv-x="1132" d="M43 39l166 1356q6 39 43 39h932q16 0 25.5 -10.5t7.5 -28.5l-31 -252q-6 -39 -43 -39h-580q-14 0 -18 -17l-23 -180q0 -16 15 -16h354q16 0 25.5 -10.5t7.5 -28.5l-31 -250q-6 -39 -43 -39h-354q-16 0 -17 -16l-24 -201v-4q0 -12 12 -12h582q16 0 25 -10.5t7 -28.5 l-30 -252q-2 -18 -14.5 -28.5t-28.5 -10.5h-932q-18 0 -26.5 10t-6.5 29z" />
<glyph unicode="F" horiz-adv-x="1099" d="M43 39l166 1356q6 39 43 39h930q16 0 25.5 -10.5t6.5 -28.5l-30 -252q-6 -39 -43 -39h-578q-14 0 -18 -17l-23 -180q0 -16 15 -16h354q16 0 25.5 -10.5t7.5 -28.5l-31 -250q-6 -39 -43 -39h-354q-16 0 -17 -16l-63 -508q-2 -18 -13.5 -28.5t-29.5 -10.5h-297 q-18 0 -26.5 10t-6.5 29z" />
<glyph unicode="G" horiz-adv-x="1208" d="M80 442q0 53 4 82l47 387q20 160 103 283t215.5 189.5t295.5 66.5q147 0 259 -55.5t172.5 -152.5t60.5 -216q0 -16 -4 -57q-2 -14 -13.5 -23.5t-27.5 -9.5h-297q-39 0 -35 10v8q1 11 1 22q0 54 -34 95q-41 49 -120 49q-80 0 -135.5 -54t-65.5 -144l-49 -410 q-2 -10 -2 -29q0 -76 47 -123t121 -47t126 42t60 116l2 21v4q0 12 -14 12h-160q-18 0 -26.5 10t-6.5 29l27 229q2 18 14 28.5t29 10.5h504q16 0 25 -10t7 -29l-34 -272q-18 -152 -101.5 -270.5t-215.5 -184t-294 -65.5q-225 0 -355 123.5t-130 334.5z" />
<glyph unicode="H" horiz-adv-x="1214" d="M43 39l166 1356q6 39 43 39h297q18 0 26.5 -10.5t6.5 -28.5l-60 -488q0 -16 15 -16h297q18 0 18 16l59 488q2 18 14.5 28.5t28.5 10.5h299q16 0 25.5 -10.5t7.5 -28.5l-166 -1356q-2 -18 -14 -28.5t-29 -10.5h-299q-16 0 -25.5 10t-7.5 29l62 506v4q0 12 -12 12h-299 q-14 0 -19 -16l-61 -506q-2 -18 -13.5 -28.5t-29.5 -10.5h-297q-18 0 -26.5 10t-6.5 29z" />
<glyph unicode="I" horiz-adv-x="528" d="M43 39l166 1356q6 39 43 39h297q18 0 26.5 -10.5t6.5 -28.5l-166 -1356q-2 -18 -13.5 -28.5t-29.5 -10.5h-297q-19 0 -27 10t-6 29z" />
<glyph unicode="J" horiz-adv-x="1185" d="M39 406q0 20 4 69l6 60q6 38 41 38h2h299q16 0 25.5 -10t7.5 -28l-8 -58q-2 -8 -2 -24q0 -63 40 -101.5t109 -38.5q78 0 131.5 45t61.5 119l112 918q6 39 43 39h295q18 0 26.5 -10.5t6.5 -28.5l-113 -920q-16 -145 -98 -257t-213 -173t-293 -61q-221 0 -352 114.5 t-131 307.5z" />
<glyph unicode="K" horiz-adv-x="1263" d="M43 39l166 1356q6 39 43 39h297q18 0 26.5 -10.5t6.5 -28.5l-58 -469v-2q0 -10 6.5 -11.5t14.5 7.5l395 489q18 25 49 25h338q27 0 27 -21q0 -10 -13 -27l-471 -577q-8 -12 -4 -23l330 -739l4 -16q0 -31 -37 -31h-336q-31 0 -39 27l-208 491q-2 8 -9.5 8t-11.5 -8 l-92 -121q-8 -10 -10 -20l-41 -338q-2 -18 -13.5 -28.5t-29.5 -10.5h-297q-19 0 -27 10t-6 29z" />
<glyph unicode="L" horiz-adv-x="1140" d="M43 39l166 1356q6 39 43 39h297q18 0 26.5 -10.5t6.5 -28.5l-127 -1049v-4q0 -12 12 -12h600q18 0 26.5 -10.5t6.5 -28.5l-31 -252q-2 -18 -13.5 -28.5t-29.5 -10.5h-950q-19 0 -27 10t-6 29z" />
<glyph unicode="M" horiz-adv-x="1419" d="M43 39l166 1356q6 39 43 39h295q31 0 43 -27l190 -403q2 -8 11 -9q8 0 14 9l289 403q18 27 49 27h297q37 0 33 -39l-166 -1356q-6 -39 -43 -39h-299q-16 0 -25.5 10t-7.5 29l90 723v4q0 10 -6 10t-15 -8l-147 -211q-18 -27 -49 -27h-139q-31 0 -43 27l-97 211q-6 8 -12 8 q-8 0 -10 -14l-88 -723q-2 -18 -13.5 -28.5t-29.5 -10.5h-297q-19 0 -27 10t-6 29z" />
<glyph unicode="N" horiz-adv-x="1306" d="M43 39l166 1356q6 39 43 39h285q31 0 43 -27l309 -678q2 -8 10 -8t10 14l78 660q6 39 43 39h299q16 0 25.5 -10.5t7.5 -28.5l-168 -1356q-2 -18 -13.5 -28.5t-27.5 -10.5h-287q-31 0 -43 27l-307 690q-4 10 -10 10t-10 -14l-80 -674q-2 -39 -43 -39h-297q-19 0 -27 10 t-6 29z" />
<glyph unicode="O" horiz-adv-x="1232" d="M78 440q0 41 6 84l47 385q20 160 104 283t218.5 190.5t300.5 67.5q152 0 264 -56.5t172.5 -160t60.5 -242.5q0 -39 -6 -82l-47 -385q-18 -164 -103 -287.5t-220.5 -192.5t-301.5 -69q-151 0 -262.5 57.5t-172 162t-60.5 245.5zM455 475q0 -78 43 -124t116 -46 q84 0 141.5 56.5t67.5 150.5l49 401q2 12 2 37q0 78 -43 124t-118 46q-82 0 -139.5 -56t-67.5 -151l-49 -401q-2 -12 -2 -37z" />
<glyph unicode="P" horiz-adv-x="1191" d="M37 39l166 1356q6 39 43 39h573q195 0 307.5 -107.5t112.5 -292.5q0 -47 -4 -71q-16 -137 -91 -242t-192.5 -162t-263.5 -57h-205q-14 0 -18 -17l-55 -446q-2 -18 -13.5 -28.5t-29.5 -10.5h-297q-18 0 -26.5 10t-6.5 29zM506 825q0 -16 14 -16h162q78 0 130 46t52 120 q0 59 -40 94t-107 35h-160q-14 0 -18 -17z" />
<glyph unicode="Q" horiz-adv-x="1202" d="M78 424q0 51 4 78l49 399q18 164 101 288t214.5 192.5t290.5 68.5q221 0 351.5 -125t130.5 -336q0 -41 -7 -88l-49 -399q-20 -180 -126.5 -308t-272.5 -180q-12 -2 -16 -18l-17 -135q-2 -18 -13 -28.5t-28 -10.5h-299q-37 0 -33 39l17 133q0 16 -10 18 q-135 47 -211 153.5t-76 258.5zM455 477q0 -76 38.5 -120t104.5 -44q76 0 130 54.5t65 144.5l49 410q2 12 2 34q0 76 -39 120t-107 44q-76 0 -129 -55t-63 -143l-49 -410q-2 -12 -2 -35z" />
<glyph unicode="R" horiz-adv-x="1222" d="M43 39l166 1356q6 39 43 39h594q184 0 292.5 -104.5t108.5 -282.5q0 -20 -4 -70q-16 -133 -91 -233.5t-194 -149.5q-14 -6 -10 -21l178 -528q2 -6 2 -14q0 -31 -34 -31h-318q-33 0 -39 29l-153 510q-2 12 -19 12h-69q-18 0 -19 -16l-61 -496q-2 -18 -13.5 -28.5 t-29.5 -10.5h-297q-18 0 -26.5 10t-6.5 29zM516 860q0 -16 14 -16h181q70 0 115.5 41t45.5 106q0 51 -35.5 82t-93.5 31h-180q-14 -1 -18 -17z" />
<glyph unicode="S" horiz-adv-x="1185" d="M61 383q0 18 5 59l4 21q2 18 13 28.5t28 10.5h292q39 0 35 -21l-2 -22q-1 -6 -1 -11q0 -48 46 -90q51 -46 140 -45q80 0 114.5 37t34.5 76q0 41 -38 61.5t-132 49.5l-55 18q-174 55 -292 146.5t-118 261.5q0 143 77 253.5t209 172t290 61.5q143 0 256.5 -51t177 -146.5 t63.5 -218.5q0 -18 -4 -59l-2 -10q-2 -18 -13 -28.5t-28 -10.5h-293q-39 0 -34 16l2 16q1 7 1 13q1 53 -43 99q-48 50 -139 50q-68 0 -108.5 -29.5t-40.5 -80.5q0 -47 54 -79t206 -83q16 -6 125.5 -42t183.5 -121t74 -204q0 -147 -77 -259.5t-213 -175t-306 -62.5 q-225 0 -358.5 108.5t-133.5 290.5z" />
<glyph unicode="T" horiz-adv-x="1181" d="M135 1141l33 254q2 18 13.5 28.5t27.5 10.5h1036q17 0 26 -10.5t7 -28.5l-31 -254q-6 -39 -43 -39h-319q-14 0 -19 -17l-129 -1046q-2 -18 -13 -28.5t-28 -10.5h-299q-18 0 -26.5 10t-5.5 29l129 1046q0 16 -15 17h-309q-39 0 -35 39z" />
<glyph unicode="U" horiz-adv-x="1224" d="M86 424q0 25 4 74l111 897q6 39 43 39h297q39 0 34 -39l-110 -897q-2 -10 -2 -33q0 -70 40 -111t109 -41q76 0 129.5 50.5t63.5 134.5l108 897q2 18 14.5 28.5t28.5 10.5h299q16 0 25.5 -10.5t7.5 -28.5l-110 -897q-18 -154 -101.5 -270.5t-213.5 -180t-292 -63.5 q-223 0 -354 118.5t-131 321.5z" />
<glyph unicode="V" horiz-adv-x="1282" d="M178 1391v8q0 35 37 35h324q33 0 39 -35l88 -840q4 -10 10 -10t10 10l291 840q10 35 45 35h315q31 0 31 -23q0 -12 -4 -20l-557 -1358q-6 -14 -18.5 -23.5t-28.5 -9.5h-322q-33 0 -39 33z" />
<glyph unicode="W" horiz-adv-x="1701" d="M98 1391v8q0 35 39 35h322q35 0 37 -33l84 -647q2 -10 9 -10.5t11 10.5l229 645q12 35 45 35h234q35 0 37 -33l80 -647q2 -10 9 -10.5t11 10.5l225 645q14 35 48 35h321q29 0 29 -27q0 -10 -2 -16l-514 -1358q-14 -33 -47 -33h-304q-37 0 -36 35l-56 678q-2 10 -8 11 t-8 -11l-205 -678q-12 -35 -45 -35h-281q-34 0 -40 33z" />
<glyph unicode="X" horiz-adv-x="1308" d="M18 23q0 10 9 24l436 660q6 8 2 20l-272 659q-4 12 -5 19q0 29 35 29h326q29 0 41 -29l143 -373q4 -8 9.5 -8t9.5 8l235 373q16 29 47 29h324q29 0 28 -21q0 -12 -8 -27l-432 -659q-8 -8 -4 -20l272 -660q4 -12 5 -18q0 -29 -37 -29h-322q-29 0 -41 29l-143 372 q-4 8 -10.5 8.5t-10.5 -8.5l-237 -372q-16 -29 -47 -29h-324q-29 0 -29 23z" />
<glyph unicode="Y" horiz-adv-x="1292" d="M184 1403q0 31 37 31h324q33 0 41 -31l125 -473q4 -8 9 -8t9 8l242 473q14 31 47 31h325q33 0 33 -23q0 -6 -8 -22l-512 -885q-6 -18 -6 -21l-53 -440q-6 -39 -43 -39h-297q-17 0 -26 10.5t-7 28.5l55 440q0 14 -2 21l-291 885q-2 4 -2 14z" />
<glyph unicode="Z" horiz-adv-x="1116" d="M12 39l35 283q2 25 23 47l657 714q6 8 4 14.5t-12 6.5h-539q-16 0 -25.5 10t-7.5 29l31 252q2 18 14.5 28.5t28.5 10.5h940q18 0 26.5 -10.5t6.5 -28.5l-35 -283q-2 -23 -20 -47l-664 -715q-6 -8 -3 -14t11 -6h543q37 0 33 -39l-31 -252q-6 -39 -43 -39h-940 q-16 0 -25.5 10t-7.5 29z" />
<glyph unicode="[" horiz-adv-x="876" d="M-4 -297l237 1933q2 18 13.5 28.5t27.5 10.5h512q16 0 25.5 -10t7.5 -29l-31 -252q-6 -39 -43 -38h-159q-16 0 -17 -17l-163 -1319q0 -16 14 -16h160q37 0 32 -39l-30 -252q-6 -39 -43 -39h-510q-19 0 -27 10.5t-6 28.5z" />
<glyph unicode="\" horiz-adv-x="999" d="M170 1401q0 14 10 23.5t27 9.5h293q33 0 41 -31l383 -1358l2 -12q0 -14 -10.5 -23.5t-26.5 -9.5h-295q-33 0 -39 31l-383 1358z" />
<glyph unicode="]" horiz-adv-x="876" d="M141 -297l33 252q2 18 13.5 28.5t27.5 10.5h160q14 0 18 16l162 1319q0 16 -14 17h-160q-16 0 -25.5 10t-7.5 28l31 252q2 18 14.5 28.5t28.5 10.5h510q39 0 35 -39l-238 -1933q-6 -39 -43 -39h-510q-39 0 -35 39z" />
<glyph unicode="^" horiz-adv-x="968" d="M94 621q0 4 4 20l353 762q8 16 18 23.5t27 7.5h243q16 0 25.5 -7.5t13.5 -23.5l170 -762q2 -4 2 -14q0 -31 -37 -31h-235q-35 0 -41 33l-57 387q-2 10 -9.5 10t-11.5 -10l-151 -387q-12 -33 -50 -33h-235q-29 0 -29 25z" />
<glyph unicode="_" horiz-adv-x="1091" d="M-10 39l24 209q6 39 43 39h967q18 0 26.5 -10.5t6.5 -28.5l-25 -209q-6 -39 -43 -39h-966q-19 0 -27 10t-6 29z" />
<glyph unicode="`" horiz-adv-x="544" d="M180 1391q0 12 9 19t28 7h280q29 0 41 -28l68 -172q4 -13 4 -19q0 -29 -37 -29h-235q-29 0 -43 25l-109 176q-6 10 -6 21z" />
<glyph unicode="a" horiz-adv-x="1120" d="M39 422q0 59 6 115q20 150 78 262q61 125 173 203.5t253 78.5q139 0 196 -86q6 -6 11 -6q8 0 8 15l4 22q2 18 13.5 28.5t29.5 10.5h297q18 0 26.5 -10.5t6.5 -28.5l-121 -987q-2 -18 -13.5 -28.5t-29.5 -10.5h-297q-18 0 -26.5 10t-6.5 29l4 43v4q0 8 -5 8t-11 -8 q-90 -102 -238 -102q-131 0 -227 87t-123 236q-8 51 -8 115zM432 475q0 -51 17 -94q27 -68 96 -68q68 0 114 70q38 59 48 147q4 41 4 60q0 55 -17 98q-27 63 -96 64q-72 0 -113 -68q-35 -57 -49 -154q-4 -37 -4 -55z" />
<glyph unicode="b" horiz-adv-x="1126" d="M37 39l166 1356q6 39 43 39h297q18 0 26.5 -10.5t5.5 -28.5l-47 -391v-5q0 -8 5.5 -9t13.5 5q76 86 217 86t233.5 -78.5t122.5 -203.5q19 -64 19 -154q0 -53 -6 -108q-12 -121 -58 -230q-61 -150 -179 -236.5t-251 -86.5q-147 0 -211 102q-4 10 -10 8t-8 -12l-6 -43 q-2 -18 -13.5 -28.5t-29.5 -10.5h-297q-18 0 -26.5 10t-6.5 29zM467 473q0 -55 14 -90q27 -70 99 -70q70 0 112 68q37 57 49 149q4 41 4 58q0 53 -16 96q-27 68 -96 68q-68 0 -111 -64q-55 -84 -55 -215z" />
<glyph unicode="c" horiz-adv-x="1091" d="M66 446q0 61 4 93q16 133 69 231q72 145 209 228t305 83q170 0 289 -87t150 -218q8 -39 8 -69q0 -37 -39 -43l-297 -48q-2 0 -5 -1t-7 1q-29 0 -29 25l-2 29q-8 35 -38 58.5t-73 23.5q-80 0 -121 -74q-31 -53 -43 -141q-4 -41 -4 -60q0 -45 11 -82q23 -82 104 -82 q84 0 125 84q4 6 5 9l1 4q2 8 17.5 21t29.5 11l289 -49q35 -6 27 -43q-8 -31 -19 -55q-70 -150 -208 -230.5t-306 -80.5t-283.5 85t-152.5 236q-16 59 -16 141z" />
<glyph unicode="d" horiz-adv-x="1126" d="M39 422q0 59 6 115q20 150 78 262q61 125 173 203.5t253 78.5q139 0 196 -86q6 -6 11 -6q8 0 8 15l49 391q2 18 13.5 28.5t29.5 10.5h297q18 0 26.5 -10.5t6.5 -28.5l-166 -1356q-2 -18 -13.5 -28.5t-29.5 -10.5h-297q-18 0 -26.5 10t-6.5 29l4 43v4q0 8 -5 8t-11 -8 q-90 -102 -238 -102q-131 0 -227 87t-123 236q-8 51 -8 115zM432 475q0 -51 17 -94q27 -68 96 -68q68 0 114 70q38 59 48 147q4 41 4 60q0 55 -17 98q-27 63 -96 64q-72 0 -113 -68q-35 -57 -49 -154q-4 -37 -4 -55z" />
<glyph unicode="e" horiz-adv-x="1103" d="M68 451q0 45 6 90q12 90 43 172q66 166 213 267t323 101q205 0 315.5 -136t121.5 -372q2 -16 2 -49t-2 -49q-6 -39 -43 -39h-590q-16 0 -17 -18l6 -27q27 -82 162 -82q60 0 113 15.5t90 42.5q16 12 29 12q12 0 22 -17l113 -192q6 -12 6 -20q0 -16 -18 -33 q-78 -68 -184.5 -100.5t-223.5 -32.5q-147 0 -256 54t-168 155q-63 111 -63 258zM471 647q0 -12 14 -12h215q16 0 17 12q0 6 -2 11.5t-2 11.5q-25 82 -109 82q-80 0 -123 -82l-8 -17z" />
<glyph unicode="f" horiz-adv-x="808" d="M98 797l29 229q2 18 13.5 28.5t27.5 10.5h88q14 0 18 16l7 58q20 158 115.5 227.5t293.5 69.5q47 0 74 -2h76q37 0 32 -39l-22 -178q-2 -18 -13.5 -28.5t-27.5 -10.5h-76q-41 -4 -60.5 -21.5t-23.5 -52.5l-2 -23v-4q0 -12 15 -12h159q39 0 35 -39l-29 -229 q-6 -39 -43 -39h-161q-6 0 -11.5 -4t-5.5 -13l-86 -702q-2 -18 -14 -28.5t-29 -10.5h-299q-16 0 -25.5 10t-7.5 29l86 702v4q0 12 -12 13h-88q-18 0 -26.5 10t-6.5 29z" />
<glyph unicode="g" horiz-adv-x="1130" d="M61 426q0 51 9 117q18 152 71 258q63 129 175 204.5t245 75.5q131 0 197 -77q6 -8 11 -6.5t7 12.5l2 16q2 18 13.5 28.5t27.5 10.5h299q18 0 26.5 -10.5t6.5 -28.5l-109 -887q-37 -293 -216 -416.5t-427 -123.5q-86 0 -200 18q-16 4 -22.5 15.5t-4.5 27.5l45 260 q2 20 15.5 28.5t31.5 2.5q74 -18 146 -19q90 0 154.5 35t90.5 109l2 6q0 8 -9 10t-17 -2q-74 -53 -185 -53q-317 0 -372 266q-12 61 -13 123zM442 485q0 -45 13 -79q27 -72 106 -72q78 0 121 69q27 56 37 142q4 45 4 61q0 43 -10 72q-27 74 -105 74q-68 0 -112 -72 q-39 -55 -50 -141q-4 -37 -4 -54z" />
<glyph unicode="h" d="M31 39l166 1356q6 39 43 39h297q39 0 34 -39l-53 -422v-4q0 -8 5 -10.5t12 6.5q89 116 240 116h3q137 0 223 -85t86 -234q0 -18 -4 -64l-82 -659q-2 -18 -13 -28.5t-27 -10.5h-299q-18 0 -26.5 10t-6.5 29l69 575q2 8 2 25q0 51 -25.5 82t-70.5 31q-51 0 -86 -38 t-43 -100l-72 -575q-2 -18 -13 -28.5t-28 -10.5h-299q-18 0 -26 10t-6 29z" />
<glyph unicode="i" horiz-adv-x="536" d="M47 39l121 987q2 18 13.5 28.5t29.5 10.5h297q18 0 26.5 -10.5t6.5 -28.5l-121 -987q-2 -18 -13.5 -28.5t-29.5 -10.5h-297q-19 0 -27 10t-6 29zM174 1290q0 109 69.5 178.5t174.5 69.5q88 0 139 -50t51 -134q0 -109 -69.5 -177.5t-173.5 -68.5q-86 0 -138.5 50 t-52.5 132z" />
<glyph unicode="j" horiz-adv-x="524" d="M-236 -373l29 242q4 39 45 39q16 -2 47 -2q86 0 122 32.5t46 114.5l119 973q2 18 13.5 28.5t29.5 10.5h297q18 0 26.5 -10.5t6.5 -28.5l-119 -967q-25 -197 -85 -298t-185 -140q-113 -35 -316 -35h-43q-39 4 -33 41zM176 1284q0 63 36 119.5t92 90.5t116 34 q76 0 133 -56.5t57 -134.5q0 -63 -32.5 -118.5t-89 -88t-121.5 -32.5q-86 0 -138.5 53t-52.5 133z" />
<glyph unicode="k" horiz-adv-x="1101" d="M31 39l166 1356q6 39 43 39h297q39 0 34 -39l-69 -568v-4q0 -8 5 -9t13 7l185 219q18 25 47 25h340q31 0 30 -21q0 -10 -12 -26l-287 -342q-6 -10 -4 -23l211 -608q2 -6 2 -14q0 -31 -35 -31h-311q-31 0 -41 31l-108 379q-2 10 -9.5 10t-11.5 -8l-74 -103l-8 -20 l-31 -250q-2 -18 -13 -28.5t-28 -10.5h-299q-18 0 -26 10t-6 29z" />
<glyph unicode="l" horiz-adv-x="516" d="M37 39l166 1356q6 39 43 39h297q18 0 26.5 -10.5t5.5 -28.5l-165 -1356q-2 -18 -13.5 -28.5t-29.5 -10.5h-297q-19 0 -27 10t-6 29z" />
<glyph unicode="m" horiz-adv-x="1679" d="M31 39l121 987q6 39 43 39h297q18 0 26 -10.5t6 -28.5l-8 -80v-4q0 -8 5 -8t11 8q92 139 267 139q100 0 168.5 -46t99.5 -132q2 -8 8 -8q8 0 12 10q96 176 293 176q140 0 215.5 -78.5t75.5 -224.5q0 -37 -6 -80l-82 -659q-2 -18 -13 -28.5t-28 -10.5h-299q-16 0 -25.5 10 t-7.5 29l72 575q2 8 2 27q0 51 -24.5 81t-65.5 30q-47 0 -81 -38t-42 -100l-72 -575q-2 -18 -13 -28.5t-28 -10.5h-299q-18 0 -26 10t-6 29l69 575q2 8 2 25q0 51 -25.5 82t-70.5 31q-41 0 -72.5 -27t-48.5 -72q-4 -16 -4 -20l-74 -594q-2 -18 -13 -28.5t-28 -10.5h-299 q-18 0 -26 10t-6 29z" />
<glyph unicode="n" d="M31 39l121 987q6 39 43 39h297q18 0 26 -10.5t6 -28.5l-6 -53v-4q0 -8 5 -10.5t12 6.5q89 116 240 116h3q137 0 223 -85t86 -234q0 -18 -4 -64l-82 -659q-2 -18 -13 -28.5t-27 -10.5h-299q-18 0 -26.5 10t-6.5 29l69 575q2 8 2 25q0 51 -25.5 82t-70.5 31q-51 0 -86 -38 t-43 -100l-72 -575q-2 -18 -13 -28.5t-28 -10.5h-299q-18 0 -26 10t-6 29z" />
<glyph unicode="o" horiz-adv-x="1107" d="M63 444q0 45 7 91q12 106 47 182q68 170 208 267t324 97t299 -97t142 -263q8 -66 8 -98q0 -41 -6 -84q-14 -92 -35 -156q-63 -184 -207.5 -291.5t-337.5 -107.5q-188 0 -305 104.5t-137 282.5q-6 37 -7 73zM440 481q0 -76 28 -122t85 -46q51 0 87 36t56 95q10 31 19 93 q4 41 4 57q0 74 -27.5 116t-85.5 42q-98 0 -139 -121q-14 -35 -23 -94q-4 -37 -4 -56z" />
<glyph unicode="p" horiz-adv-x="1126" d="M-8 -330l166 1356q6 39 43 39h297q18 0 26 -10.5t6 -28.5l-4 -43v-4q0 -8 5.5 -8t11.5 8q90 102 237 102q131 0 227.5 -87t122.5 -236q9 -49 9 -115q0 -55 -6 -115q-20 -147 -76 -262q-63 -125 -175 -203.5t-253 -78.5q-139 0 -197 86q-6 6 -10 6q-8 0 -8 -15l-49 -391 q-2 -18 -13.5 -28.5t-29.5 -10.5h-297q-18 0 -26.5 10.5t-6.5 28.5zM467 475q0 -55 16 -98q27 -63 97 -64q72 0 112 68q35 58 49 154q4 37 4 55q0 51 -16 94q-27 68 -96 68q-68 0 -115 -70q-37 -59 -47 -147q-4 -41 -4 -60z" />
<glyph unicode="q" horiz-adv-x="1126" d="M39 420q0 53 6 108q18 131 57 230q61 150 179 236.5t251 86.5q147 0 211 -102q4 -10 10.5 -8t8.5 12l6 43q2 18 13.5 28.5t29.5 10.5h297q18 0 26.5 -10.5t6.5 -28.5l-166 -1356q-6 -39 -43 -39h-297q-18 0 -26.5 10.5t-6.5 28.5l47 391v5q0 8 -5 9t-11 -5 q-80 -86 -219 -86q-141 0 -233.5 78.5t-123.5 203.5q-18 63 -18 154zM432 477q0 -53 17 -96q27 -68 96 -68q68 0 110 64q56 80 56 215q0 55 -15 90q-27 70 -98 70q-70 0 -113 -68q-37 -57 -49 -149q-4 -41 -4 -58z" />
<glyph unicode="r" horiz-adv-x="786" d="M31 39l121 987q6 39 43 39h297q18 0 26 -10.5t6 -28.5l-2 -29q-2 -10 2 -14t13 4q86 92 202 92h5q58 0 94 -22q16 -10 16 -29q0 -4 -4 -20l-84 -301q-8 -37 -45 -27q-23 6 -55 6q-29 0 -58 -6q-53 -10 -94 -44t-47 -91l-64 -506q-2 -18 -13 -28.5t-28 -10.5h-299 q-18 0 -26 10t-6 29z" />
<glyph unicode="s" horiz-adv-x="1028" d="M41 276q0 25 2 37v11q6 38 41 38h2h283q37 0 37 -10l-3 -12v-7q0 -29 29 -47q33 -20 88 -20q45 0 74 15.5t29 42.5q0 25 -32 37t-104 22q-74 10 -132 24.5t-111 43.5q-139 76 -140 225q0 123 64.5 215t179.5 141t258 49q193 0 306.5 -87t113.5 -234q0 -16 -4 -49 q0 -10 -11.5 -16.5t-27.5 -6.5h-272q-16 0 -26.5 4t-10.5 8l2 11q4 35 -22.5 54t-78.5 19q-47 0 -78.5 -17t-31.5 -46t36 -41t115 -23q10 -2 75 -12t124 -33q92 -35 139 -93t47 -148q0 -29 -2 -45q-20 -168 -158.5 -255t-353.5 -87q-211 0 -328.5 78.5t-117.5 213.5z" />
<glyph unicode="t" horiz-adv-x="776" d="M90 797l29 229q2 18 13 28.5t28 10.5h94q14 0 18 16l29 232q2 18 13.5 28.5t27.5 10.5h283q18 0 26 -10.5t6 -28.5l-28 -232q0 -16 14 -16h152q16 0 25 -10.5t7 -28.5l-28 -229q-2 -19 -13.5 -29t-29.5 -10h-150q-14 0 -18 -17l-37 -303q-2 -10 -2 -30q0 -72 61 -72h66 q16 0 25.5 -10.5t7.5 -28.5l-31 -248q-6 -37 -41 -39q-76 -6 -143 -6q-164 0 -244 46t-80 171q0 16 4 58l55 462v4q0 12 -12 13h-94q-18 0 -26.5 10t-6.5 29z" />
<glyph unicode="u" d="M63 291q0 49 5 76l79 659q6 39 43 39h297q39 0 35 -39l-71 -575q-2 -8 -2 -25q0 -51 25.5 -82t70.5 -31q43 0 74.5 27t46.5 72q4 6 4 11t2 9l71 594q6 39 43 39h297q39 0 35 -39l-123 -987q-2 -18 -13 -28.5t-28 -10.5h-299q-37 0 -32 39l6 49v4q0 8 -5.5 9t-13.5 -7 q-91 -110 -257 -110h-3q-135 0 -211 80.5t-76 226.5z" />
<glyph unicode="v" horiz-adv-x="1093" d="M123 1020v8q0 37 37 37h325q37 0 39 -35l39 -483q2 -10 9.5 -10t11.5 10l157 483q12 35 47 35l328 -4q29 0 29 -23q0 -4 -4 -20l-418 -985q-6 -14 -18.5 -23.5t-28.5 -9.5h-336q-35 0 -41 33z" />
<glyph unicode="w" horiz-adv-x="1638" d="M121 1022v8q0 35 37 35h309q35 0 35 -35l35 -471q4 -10 10 -10t10 10l160 469q4 16 16 25.5t29 9.5h270q35 0 37 -35l51 -473q2 -10 9.5 -10t11.5 10l168 475q12 35 45 35l307 -4q31 0 31 -23q0 -12 -4 -20l-408 -985q-12 -33 -49 -33h-309q-33 0 -37 33l-60 385 q0 4 -2 7t-4 3q-6 0 -12 -12l-129 -381q-10 -35 -47 -35h-309q-35 0 -39 33z" />
<glyph unicode="x" horiz-adv-x="1148" d="M2 20q0 12 12 27l359 473q6 10 2 25l-242 473q-4 6 -4 18q0 29 33 29h319q33 0 41 -27l92 -194q2 -8 11 -8q8 0 14 8l137 194q18 27 49 27h342q29 0 29 -21q0 -10 -10 -26l-359 -473q-6 -14 -2 -25l242 -473q4 -6 4 -18t-9 -20.5t-26 -8.5h-317q-31 0 -43 27l-90 194 q-4 10 -11 10q-8 0 -14 -10l-139 -194q-18 -27 -49 -27h-340q-15 0 -23 5t-8 15z" />
<glyph unicode="y" horiz-adv-x="1060" d="M-12 -369l30 238q2 16 7.5 27.5t9.5 11.5h10q129 0 185.5 15.5t70.5 66.5q2 12 0 20l-184 1010v8q0 37 37 37h319q33 0 37 -35l41 -469q0 -10 8 -10q6 0 12 12l152 467q8 35 45 35h319q31 0 31 -25q0 -12 -4 -20l-446 -1024q-72 -158 -140.5 -240t-187.5 -123t-328 -41 h-14q-14 0 -10 39z" />
<glyph unicode="z" horiz-adv-x="933" d="M0 39l35 280q2 27 26 48l396 329q8 8 6 14.5t-12 6.5h-316q-16 0 -25.5 10t-7.5 29l33 270q6 39 43 39h752q16 0 25.5 -10.5t7.5 -28.5l-35 -281q-2 -27 -27 -47l-414 -329q-8 -8 -6 -14.5t13 -6.5h364q16 0 25.5 -10t7.5 -29l-35 -270q-2 -18 -13.5 -28.5t-27.5 -10.5 h-782q-17 0 -26 10t-7 29z" />
<glyph unicode="{" horiz-adv-x="843" d="M100 561l29 225q2 35 41 39q63 8 98 52.5t45 128.5l52 403q16 127 101 196.5t228 69.5h207q18 0 26.5 -10t6.5 -29l-31 -252q-6 -39 -37 -38h-32q-45 0 -79 -33t-40 -82l-35 -285q-12 -104 -49 -166.5t-107 -95.5q-8 -4 -9 -10t7 -10q96 -53 96 -191q0 -33 -6 -74 l-34 -290q-6 -49 19.5 -82t70.5 -33h26q18 0 26.5 -10.5t6.5 -28.5l-31 -252q-2 -18 -13 -28.5t-30 -10.5h-207q-129 0 -197.5 57.5t-68.5 163.5q0 29 2 45l51 410q2 16 3 45q0 123 -105 137q-33 2 -31 39z" />
<glyph unicode="|" horiz-adv-x="452" d="M-14 -125l200 1643q2 18 13.5 28t29.5 10h297q18 0 26.5 -10t6.5 -28l-201 -1643q-6 -39 -43 -39h-297q-18 0 -26 10.5t-6 28.5z" />
<glyph unicode="}" horiz-adv-x="843" d="M-4 -297l31 252q2 18 12 28.5t27 10.5h30q43 0 78 32.5t39 82.5l37 290q12 102 50 167t106 98q10 4 10 10t-8 8q-96 55 -97 190q0 35 6 74l35 285q6 49 -20.5 82t-69.5 33h-26q-18 0 -26.5 10t-6.5 28l30 252q2 18 13.5 28.5t27.5 10.5h207q131 0 200 -57t69 -166 q0 -29 -2 -43l-50 -403q-4 -33 -4 -50q0 -117 105 -131q37 -4 30 -39l-26 -225q-6 -37 -43 -39q-125 -18 -144 -182l-51 -410q-16 -127 -101 -196.5t-228 -69.5h-207q-18 0 -26.5 10.5t-6.5 28.5z" />
<glyph unicode="~" horiz-adv-x="1105" d="M80 559q0 10 6 23q49 100 150.5 165.5t205.5 65.5q47 0 82 -13.5t76 -37.5q10 -6 40 -25.5t53.5 -29t45.5 -9.5q53 0 107 58q16 20 33 20q12 0 20 -8l176 -125q14 -12 15 -29q0 -12 -7 -24q-51 -98 -151.5 -159.5t-202.5 -61.5q-45 0 -81 12t-70 35q-6 4 -37 23.5 t-64 31.5t-61 12q-68 0 -117 -59q-16 -16 -33 -16q-12 0 -22 8l-148 114q-16 10 -16 29z" />
<glyph unicode="&#xa1;" horiz-adv-x="718" d="M141 55l140 848q2 19 14 29t29 10h221q37 0 35 -39l-68 -848q-4 -39 -41 -39h-299q-16 0 -24.5 10.5t-6.5 28.5zM246 1208q0 98 71.5 170t176.5 72q88 0 143 -53.5t55 -134.5q0 -63 -37 -119t-95 -88.5t-120 -32.5q-78 0 -136 54t-58 132z" />
<glyph unicode="&#xa2;" horiz-adv-x="1091" d="M88 637q0 29 4 86q16 133 70 231q51 104 139 178t201 109q16 4 16 19l8 129q0 18 12.5 29.5t30.5 11.5h232q18 0 27.5 -11.5t5.5 -29.5l-23 -125v-4q0 -10 12 -15q113 -33 191 -108.5t100 -175.5q8 -39 8 -70q0 -37 -39 -43l-297 -47q-2 0 -5 -1t-7 1q-29 0 -29 24l-2 29 q-8 35 -37.5 58.5t-72.5 23.5q-80 0 -121 -74q-31 -51 -43 -141q-4 -41 -4 -59q0 -45 10 -82q23 -82 105 -82q84 0 125 84q4 6 5 9l1 3q2 8 17 21.5t30 11.5l289 -49q35 -6 26 -43q-8 -31 -18 -56q-53 -113 -147.5 -187.5t-215.5 -105.5q-12 -2 -16 -18l-6 -123 q-2 -18 -14.5 -29.5t-28.5 -11.5h-234q-16 0 -25.5 11.5t-7.5 29.5l25 129q0 16 -12 19q-102 35 -172 110.5t-97 185.5q-16 63 -16 148z" />
<glyph unicode="&#xa3;" horiz-adv-x="1224" d="M109 39l30 260q6 31 31 49q43 31 61.5 64.5t24.5 89.5l6 41q0 16 -14 16h-105q-16 0 -25 10.5t-7 28.5l28 231q6 39 43 39h103q14 0 18 17l10 88q29 227 175.5 352t365.5 125q176 0 280.5 -92t139.5 -252l2 -10q0 -31 -35 -37l-283 -49h-8q-25 0 -35 28 q-12 47 -36.5 64.5t-61.5 17.5q-111 0 -129 -139l-12 -96q0 -16 14 -17h334q18 0 26.5 -10t6.5 -29l-29 -231q-2 -18 -13 -28.5t-28 -10.5h-334q-14 0 -18 -16l-4 -41q-8 -53 -26.5 -88t-51.5 -64q-14 -20 8 -20h574q18 0 26 -10.5t6 -28.5l-30 -252q-2 -18 -13.5 -28.5 t-29.5 -10.5h-953q-18 0 -26.5 10t-5.5 29z" />
<glyph unicode="&#xa4;" horiz-adv-x="1212" d="M37 254q0 16 16 31l127 114q12 12 6 23q-23 68 -22 141q0 20 4 62q12 98 63 192q6 14 -2 23l-104 123q-10 14 -10 24q0 16 18 31l201 164q14 12 26 12t27 -14l94 -111q8 -10 21 -4q98 39 194 39q98 0 189 -43q12 -6 22 4l127 115q14 14 31 14q12 0 25 -12l159 -164 q12 -12 13 -25q0 -14 -17 -30l-145 -134q-12 -8 -8 -22q16 -59 16 -119q0 -18 -4 -63q-11 -97 -62 -193q-6 -14 2 -22l105 -125q10 -14 10 -25q0 -14 -18 -31l-201 -163q-14 -12 -29 -13q-12 0 -24 15l-99 112q-8 10 -20 4q-94 -39 -190 -39q-92 0 -175 35q-12 6 -22 -4 l-119 -108q-18 -14 -29 -15q-12 0 -24 13l-162 163q-10 10 -10 25zM483 606q0 -57 39 -97t96 -40q59 0 110.5 46t59.5 110q7 63 -33 109t-100 46q-66 0 -119 -52t-53 -122z" />
<glyph unicode="&#xa5;" horiz-adv-x="1357" d="M221 221l17 129q6 39 43 39h213q6 0 11 4t5 13l6 49v4q0 12 -12 12h-213q-18 0 -26.5 10.5t-6.5 28.5l14 129q6 39 43 39h125q18 0 15 18l-228 693q-2 4 -2 14q0 31 39 31h324q33 0 39 -31l125 -473q4 -8 9 -8t11 8l240 473q16 31 49 31h325q31 0 31 -23q0 -10 -6 -22 l-401 -693q-4 -8 -1 -13t11 -5h127q16 0 25.5 -10.5t7.5 -28.5l-17 -129q-6 -39 -43 -39h-215q-6 0 -11 -4t-5 -12l-6 -49v-5q0 -12 14 -12h213q18 0 26.5 -10t6.5 -29l-15 -129q-6 -39 -43 -39h-215q-14 0 -18 -16l-14 -123q-2 -18 -13.5 -28.5t-29.5 -10.5h-295 q-18 0 -26.5 10.5t-6.5 28.5l14 123v4q0 12 -14 12h-213q-16 0 -25.5 10.5t-7.5 28.5z" />
<glyph unicode="&#xa6;" horiz-adv-x="452" d="M-14 -125l77 649q2 18 14.5 28.5t28.5 10.5h300q16 0 25 -10t7 -29l-80 -649q-6 -39 -43 -39h-297q-18 0 -26 10.5t-6 28.5zM106 868l80 650q2 18 13.5 28t29.5 10h297q18 0 26.5 -10t6.5 -28l-80 -650q-2 -18 -13 -28.5t-28 -10.5h-299q-16 0 -25.5 10.5t-7.5 28.5z" />
<glyph unicode="&#xa7;" horiz-adv-x="1038" d="M10 -106l2 32l6 84q4 39 41 39h299q37 0 33 -29l-2 -28q-6 -41 16.5 -65.5t65.5 -24.5q39 0 67.5 22.5t28.5 57.5q0 31 -33.5 53t-130.5 63l-57 27q-100 45 -155.5 83t-86.5 93q-35 63 -34 145q0 74 24.5 137.5t65.5 110.5q35 47 106 84q10 4 11.5 10.5t-7.5 10.5 q-127 88 -127 235q0 113 69 208t186.5 151.5t260.5 56.5q182 0 296 -91t114 -241q0 -31 -2 -47l-6 -45q-2 -18 -13.5 -28.5t-27.5 -10.5h-299q-39 0 -35 21l2 20q6 43 -16.5 67.5t-61.5 24.5t-66.5 -22.5t-27.5 -63.5q0 -33 24.5 -54.5t54.5 -33.5t105 -39 q84 -31 144.5 -61.5t101.5 -75.5q68 -74 68 -188q0 -59 -22.5 -123t-61.5 -115q-57 -78 -121 -102q-18 -6 -4 -19q70 -51 101.5 -108.5t31.5 -128.5q0 -129 -71.5 -222.5t-191.5 -141.5t-263 -48q-193 0 -297.5 86t-104.5 234zM449 504q0 -29 14 -43q20 -27 69 -27 q53 0 78 29q20 18 25 51v10q0 16 -8 37q-20 33 -76 33q-53 0 -80 -31q-20 -20 -22 -49v-10z" />
<glyph unicode="&#xa8;" horiz-adv-x="802" d="M143 1280q0 90 57.5 147.5t139.5 57.5q70 0 109.5 -41t39.5 -111q0 -90 -55 -147.5t-137 -57.5q-70 0 -112 41t-42 111zM557 1276q0 92 54 150.5t140 58.5q70 0 111 -41t41 -111q0 -90 -55.5 -147.5t-141.5 -57.5q-69 0 -109 40t-40 108z" />
<glyph unicode="&#xa9;" horiz-adv-x="1554" d="M102 621q0 53 7 108q25 203 138 368t288.5 259t377.5 94q188 0 333 -80t224.5 -222t79.5 -323q0 -47 -6 -96q-27 -215 -140.5 -384t-289.5 -265t-381 -96q-186 0 -329.5 80.5t-222.5 225t-79 331.5zM307 649q0 -135 56.5 -239.5t159 -163t235.5 -58.5q147 0 274 69 t209 192.5t100 279.5q4 45 5 68q0 129 -57.5 231t-161 159.5t-238.5 57.5q-145 0 -271 -67.5t-207 -185.5t-100 -263q-4 -27 -4 -80zM551 575q0 25 2 37l29 219q14 115 94 181.5t198 66.5q109 0 171.5 -53t62.5 -145q0 -23 -2 -33q-2 -8 -39 -12l-117 -5h-18q-18 0 -19 5v6 q4 33 -12 53t-47 20q-33 0 -54.5 -19t-25.5 -54l-29 -242q-4 -33 12.5 -52.5t47.5 -19.5q33 0 54.5 19.5t25.5 52.5q0 6 10 10t29 2l114 -4q37 0 37 -8l-2 -6q-12 -106 -91 -169t-196 -63q-108 0 -171.5 57.5t-63.5 155.5z" />
<glyph unicode="&#xaa;" horiz-adv-x="663" d="M35 510l10 86q6 39 43 39h543q16 0 25.5 -10.5t7.5 -28.5l-11 -86q-6 -39 -43 -39h-542q-37 0 -33 39zM86 901q0 119 87 191.5t226 72.5h107q14 0 18 9v8q6 41 -20.5 67.5t-71.5 26.5q-29 0 -53.5 -10.5t-40.5 -28.5q-12 -18 -21.5 -25.5t-23.5 -5.5l-119 11 q-18 2 -27.5 12t-3.5 28q23 84 110 138.5t198 54.5q117 0 195.5 -60.5t78.5 -150.5l-2 -22l-53 -439q-2 -18 -13.5 -28.5t-29.5 -10.5h-119q-39 0 -35 23v4q0 6 -5 7t-13 -5q-57 -41 -154 -41q-104 0 -159.5 46t-55.5 128zM287 940q0 -55 71 -55q58 0 98 33.5t44 68.5l2 12 v5q0 12 -15 12h-73q-61 0 -94 -17.5t-33 -58.5z" />
<glyph unicode="&#xab;" horiz-adv-x="968" d="M113 569q0 12 10 33l178 301q8 14 21.5 21.5t27.5 7.5h225q29 0 29 -23q0 -10 -6 -22l-182 -301q-8 -12 -2 -21l106 -301q4 -12 4 -16q0 -12 -10 -20.5t-27 -8.5h-223q-33 0 -43 29l-104 301q-4 12 -4 20zM473 569q0 12 10 33l179 301q16 29 49 29h223q31 0 31 -23 q0 -12 -9 -22l-182 -301q-6 -8 -2 -21l109 -301q2 -4 2 -14q0 -31 -35 -31h-225q-35 0 -41 29l-105 301q-4 12 -4 20z" />
<glyph unicode="&#xac;" horiz-adv-x="946" d="M61 473l31 250q6 39 43 39h783q18 0 26 -10.5t6 -28.5l-57 -469q-2 -18 -13.5 -28.5t-29.5 -10.5h-242q-37 0 -33 39l21 164q0 16 -14 16h-488q-16 0 -25.5 10.5t-7.5 28.5z" />
<glyph unicode="&#xad;" horiz-adv-x="831" d="M59 459l31 250q2 18 14.5 28.5t28.5 10.5h670q18 0 26.5 -10.5t6.5 -28.5l-31 -250q-2 -18 -13.5 -28.5t-29.5 -10.5h-668q-39 0 -35 39z" />
<glyph unicode="&#xae;" horiz-adv-x="874" d="M106 975q0 18 5 63q14 117 79.5 211t167 147.5t217.5 53.5q109 0 192 -46t129 -127t46 -183q0 -18 -4 -56q-14 -125 -79.5 -223t-167 -153.5t-220.5 -55.5q-162 0 -263.5 102.5t-101.5 266.5zM248 995q0 -113 66.5 -181.5t174.5 -68.5q119 0 208 82t104 211q2 12 2 35 q0 104 -67.5 171t-176.5 67q-86 0 -157.5 -42t-112.5 -115t-41 -159zM377 881l37 307q6 39 43 39h116q51 0 81 -31t30 -80q0 -77 -53 -110q-12 -8 -13 -23l21 -96v-10q0 -35 -37 -35h-39q-35 0 -41 32l-12 91l-4 14q-2 0 -6 -16l-11 -82q-2 -18 -13 -28.5t-30 -10.5h-36 q-18 0 -26.5 10t-6.5 29zM514 1081q-4 -16 10 -16h13q12 0 21 10t11 23v4q0 12 -7 19t-17 7h-8q-14 0 -19 -16z" />
<glyph unicode="&#xaf;" horiz-adv-x="618" d="M109 1200l20 178q6 39 43 39h543q16 0 25.5 -10t7.5 -29l-23 -178q-2 -18 -13.5 -28.5t-29.5 -10.5h-541q-18 0 -26.5 10.5t-5.5 28.5z" />
<glyph unicode="&#xb0;" horiz-adv-x="741" d="M141 1253q0 109 54.5 201t144.5 146.5t192 54.5q135 0 221.5 -87t86.5 -220q0 -109 -54.5 -202t-144.5 -148.5t-195 -55.5q-133 0 -219 88t-86 223zM383 1286q0 -43 25.5 -69.5t66.5 -26.5q51 0 87 37t36 90q0 43 -26.5 69.5t-67.5 26.5q-47 0 -84 -37t-37 -90z" />
<glyph unicode="&#xb1;" horiz-adv-x="946" d="M61 39l31 250q6 39 43 39h783q18 0 26 -10.5t6 -28.5l-30 -250q-2 -18 -13.5 -28.5t-27.5 -10.5h-785q-16 0 -25.5 10.5t-7.5 28.5zM61 745l31 250q6 39 43 39h217q14 0 19 16l26 223q2 18 13.5 28.5t29.5 10.5h242q18 0 26.5 -10t6.5 -29l-27 -223v-4q0 -12 12 -12h218 q18 0 26 -10.5t6 -28.5l-30 -250q-2 -18 -13.5 -28.5t-27.5 -10.5h-217q-14 0 -19 -16l-27 -223q-6 -39 -43 -39h-241q-18 0 -26.5 10t-6.5 29l27 223v4q0 12 -15 12h-217q-16 0 -25.5 10.5t-7.5 28.5z" />
<glyph unicode="&#xb2;" horiz-adv-x="704" d="M20 856l17 137q6 33 29 47q111 92 270 230q125 109 125 157q0 25 -16.5 39.5t-45.5 14.5q-33 0 -56.5 -18.5t-25.5 -47.5v-2q-2 -18 -13 -28.5t-30 -10.5h-159q-18 0 -26.5 10.5t-6.5 28.5l4 41q20 106 115.5 169.5t222.5 63.5q129 0 202.5 -66.5t73.5 -166.5 q0 -61 -28.5 -114.5t-87.5 -114.5t-207 -181q-8 -8 -6 -14t12 -6h235q39 0 35 -39l-16 -129q-6 -39 -43 -39h-541q-16 0 -25.5 10t-7.5 29z" />
<glyph unicode="&#xb3;" horiz-adv-x="645" d="M10 1071q0 18 12.5 29.5t30.5 11.5h160q33 0 35 -37q2 -16 10 -35q16 -29 49 -28q37 0 55 28q23 31 29 74q2 8 2 25q0 29 -10 53q-14 31 -51 31q-27 0 -53 -17q-16 -8 -25 -8q-16 0 -29 16l-61 95q-8 10 -8 22q0 20 22 33l148 84q10 6 9 13t-11 7h-203q-39 0 -35 39 l16 129q6 39 43 39h498q39 0 35 -39l-19 -137q-2 -29 -28 -47l-119 -80q-18 -12 2 -22q74 -27 102 -119q13 -37 13 -76q0 -14 -4 -47q-10 -70 -41 -127q-41 -80 -122 -128t-179 -48t-167 48t-96 132q-10 33 -10 86z" />
<glyph unicode="&#xb4;" horiz-adv-x="544" d="M149 1192q0 10 8 25l111 172q16 29 47 28h283q31 0 30 -22q0 -12 -12 -25l-151 -176q-23 -25 -49 -25h-236q-31 0 -31 23z" />
<glyph unicode="&#xb5;" horiz-adv-x="1101" d="M-20 -371l172 1397q6 39 43 39h299q18 0 26 -10.5t6 -28.5l-69 -575q-2 -8 -2 -25q0 -51 25.5 -82t70.5 -31q43 0 74.5 27t46.5 72q4 8 4 20l74 594q6 39 43 39h297q18 0 26 -10.5t6 -28.5l-121 -987q-2 -18 -13 -28.5t-27 -10.5h-299q-18 0 -26.5 10t-6.5 29l6 49v4 q0 8 -5 9t-14 -7q-78 -92 -202 -106q-14 -4 -19 -19l-41 -340q-6 -39 -43 -39h-299q-16 0 -25.5 10.5t-6.5 28.5z" />
<glyph unicode="&#xb6;" horiz-adv-x="1304" d="M111 913q0 18 4 60q27 209 182.5 335t407.5 126h638q18 0 26.5 -10.5t6.5 -28.5l-215 -1766q-2 -18 -14 -28.5t-29 -10.5h-194q-18 0 -26.5 10.5t-6.5 28.5l186 1520q0 16 -14 16h-143q-14 0 -19 -16l-186 -1520q-2 -18 -13.5 -28.5t-27.5 -10.5h-197q-16 0 -25.5 10.5 t-7.5 28.5l107 869v4q0 10 -12 14q-199 16 -313.5 120.5t-114.5 276.5z" />
<glyph unicode="&#xb7;" horiz-adv-x="442" d="M-18 172q0 63 36.5 118.5t94 88.5t116.5 33q82 0 140.5 -55.5t58.5 -135.5q0 -63 -34 -117.5t-91 -87t-125 -32.5q-88 0 -142 53t-54 135z" />
<glyph unicode="&#xb8;" horiz-adv-x="374" d="M-78 -350q0 12 2 18l29 119q6 27 24 27q6 0 23 -4q6 -2 20 -3q23 0 40.5 13.5t17.5 38.5q0 43 -60 96q-14 12 -14 27q0 18 31 18h149q27 0 45 -18q82 -82 82 -172q0 -35 -16 -78q-31 -74 -88 -106t-129 -32t-137 27q-19 9 -19 29z" />
<glyph unicode="&#xb9;" horiz-adv-x="397" d="M86 856l74 598v4q0 12 -15 12l-22 2q-18 0 -26.5 10.5t-6.5 28.5l12 101q2 33 35 45l27 10q22 10 47 10h172q18 0 26.5 -10t6.5 -29l-94 -782q-2 -18 -14.5 -28.5t-28.5 -10.5h-160q-16 0 -25.5 10t-7.5 29z" />
<glyph unicode="&#xba;" horiz-adv-x="700" d="M72 510l12 86q2 18 13.5 28.5t27.5 10.5h543q18 0 26 -10.5t6 -28.5l-10 -86q-2 -18 -13 -28.5t-30 -10.5h-541q-38 0 -34 39zM113 1038q0 20 4 54q4 35 16 80t29 75q49 98 136 150.5t196 52.5q98 0 171.5 -51t98.5 -150q12 -49 12 -108q0 -31 -2 -45q-12 -94 -49 -158 q-53 -100 -138 -154.5t-184 -54.5q-104 0 -177.5 54.5t-100.5 154.5q-12 47 -12 100zM350 1047q0 -33 8 -56q16 -55 70 -55q43 0 78 55q25 47 29 101q4 29 4 45q0 29 -9 51q-20 57 -67 57q-43 0 -80 -57q-20 -31 -29 -96q-4 -25 -4 -45z" />
<glyph unicode="&#xbb;" horiz-adv-x="968" d="M86 242q0 10 6 22l182 301q8 12 2 21l-108 301q-2 4 -2 14q0 14 10 22.5t27 8.5h223q33 0 43 -29l104 -301q2 -6 2 -16q0 -16 -10 -37l-178 -301q-16 -29 -49 -29h-223q-29 0 -29 23zM457 242q0 10 6 22l182 301q8 12 2 21l-108 301q-2 4 -2 14q0 14 10 22.5t27 8.5h223 q33 0 43 -29l104 -301q2 -6 2 -16q0 -16 -10 -37l-178 -301q-16 -29 -49 -29h-223q-29 0 -29 23z" />
<glyph unicode="&#xbc;" horiz-adv-x="1669" d="M86 612l74 598v4q0 12 -15 12l-22 2q-18 0 -26.5 10.5t-6.5 28.5l12 101q2 33 35 45l27 10q22 10 47 10h172q18 0 26.5 -10t6.5 -29l-94 -782q-2 -18 -14.5 -28.5t-28.5 -10.5h-160q-16 0 -25.5 10t-7.5 29zM190 23q0 14 8 24l903 1360q16 27 47 27h181q29 0 28 -23 q0 -14 -8 -25l-901 -1359q-16 -27 -47 -27h-182q-29 0 -29 23zM938 242l13 110q2 18 16 47l233 430q16 31 48 31h168q14 0 22 -7t8 -17q0 -8 -6 -21l-201 -375q-6 -18 11 -18h94q16 0 16 16l13 86q2 18 13 28.5t27 10.5h160q18 0 26.5 -10t6.5 -29l-10 -86v-4q0 -12 14 -12 h19q16 0 25 -10.5t7 -28.5l-18 -141q-2 -18 -13.5 -28.5t-27.5 -10.5h-19q-18 0 -18 -17l-18 -147q-2 -18 -13.5 -28.5t-29.5 -10.5h-158q-18 0 -26.5 10t-6.5 29l17 147v4q0 12 -13 13h-346q-18 0 -26.5 10t-6.5 29z" />
<glyph unicode="&#xbd;" horiz-adv-x="1601" d="M86 612l74 598v4q0 12 -15 12l-22 2q-18 0 -26.5 10.5t-6.5 28.5l12 101q2 33 35 45l27 10q22 10 47 10h172q18 0 26.5 -10t6.5 -29l-94 -782q-2 -18 -14.5 -28.5t-28.5 -10.5h-160q-16 0 -25.5 10t-7.5 29zM190 23q0 14 8 24l903 1360q16 27 47 27h181q29 0 28 -23 q0 -14 -8 -25l-901 -1359q-16 -27 -47 -27h-182q-29 0 -29 23zM944 39l17 137q6 33 29 47q111 92 270 230q125 109 125 157q0 25 -16.5 39.5t-45.5 14.5q-33 0 -56.5 -18.5t-25.5 -47.5v-2q-2 -18 -13 -28.5t-30 -10.5h-159q-18 0 -26.5 10.5t-6.5 28.5l4 41 q20 106 115.5 169.5t222.5 63.5q129 0 202.5 -66.5t73.5 -166.5q0 -61 -28.5 -114.5t-87.5 -114.5t-207 -181q-8 -8 -6 -14t12 -6h235q39 0 35 -39l-16 -129q-6 -39 -43 -39h-541q-16 0 -25.5 10t-7.5 29z" />
<glyph unicode="&#xbe;" horiz-adv-x="1839" d="M10 829q0 18 12.5 29.5t30.5 11.5h160q33 0 35 -37q2 -16 10 -35q16 -29 49 -28q37 0 55 28q23 31 29 74q2 8 2 25q0 29 -10 53q-14 31 -51 31q-27 0 -53 -17q-16 -8 -25 -8q-16 0 -29 16l-61 95q-8 10 -8 22q0 20 22 33l148 84q10 6 9 13t-11 7h-203q-39 0 -35 39 l16 129q6 39 43 39h498q39 0 35 -39l-19 -137q-2 -29 -28 -47l-119 -80q-18 -12 2 -22q74 -27 102 -119q13 -37 13 -76q0 -14 -4 -47q-10 -70 -41 -127q-41 -80 -122 -128t-179 -48t-167 48t-96 132q-10 33 -10 86zM367 23q0 14 8 24l903 1360q16 27 47 27h181q29 0 28 -23 q0 -14 -8 -25l-901 -1359q-16 -27 -47 -27h-182q-29 0 -29 23zM1114 242l13 110q2 18 16 47l233 430q16 31 48 31h168q14 0 22 -7t8 -17q0 -8 -6 -21l-201 -375q-6 -18 11 -18h94q16 0 16 16l13 86q2 18 13 28.5t27 10.5h160q18 0 26.5 -10t6.5 -29l-10 -86v-4q0 -12 14 -12 h19q16 0 25 -10.5t7 -28.5l-18 -141q-2 -18 -13.5 -28.5t-27.5 -10.5h-19q-18 0 -18 -17l-18 -147q-2 -18 -13.5 -28.5t-29.5 -10.5h-158q-18 0 -26.5 10t-6.5 29l17 147v4q0 12 -13 13h-346q-18 0 -26.5 10t-6.5 29z" />
<glyph unicode="&#xbf;" horiz-adv-x="1116" d="M-2 -66q0 111 39 188t92 121t139 97q78 47 117 82t45 86q2 14 13.5 23.5t27.5 9.5h297q16 0 26.5 -7.5t8.5 -21.5l-4 -29q-10 -80 -49 -139t-88.5 -96t-124.5 -82q-76 -45 -113 -77t-43 -77q-4 -43 29.5 -67.5t93.5 -24.5q70 0 114 30t48 75q4 18 15 28t28 8l297 -14 q37 -4 34 -12v-10q-16 -133 -96 -236.5t-208 -161t-283 -57.5q-211 0 -333 99.5t-122 264.5zM434 817q0 57 33 107.5t87 80t112 29.5q77 0 128.5 -49t51.5 -121q0 -59 -33 -110.5t-86 -82t-113 -30.5q-76 0 -128 51t-52 125z" />
<glyph unicode="&#xc0;" horiz-adv-x="1419" d="M12 25q0 12 4 20l580 1356q12 33 45 33h410q31 0 36 -33l248 -1356v-8q0 -37 -39 -37h-321q-35 0 -37 33l-23 147q0 6 -5 10.5t-11 4.5h-412q-12 0 -20 -15l-57 -147q-12 -33 -45 -33h-324q-29 0 -29 25zM549 1760q0 12 9 19t28 7h280q29 0 41 -28l68 -172q4 -13 4 -19 q0 -29 -37 -29h-235q-29 0 -43 25l-109 176q-6 10 -6 21zM594 504q0 -14 12 -15h246q8 0 13 5.5t3 13.5l-67 473q-2 10 -9.5 10t-11.5 -10l-186 -473v-4z" />
<glyph unicode="&#xc1;" horiz-adv-x="1419" d="M12 25q0 12 4 20l580 1356q12 33 45 33h410q31 0 36 -33l248 -1356v-8q0 -37 -39 -37h-321q-35 0 -37 33l-23 147q0 6 -5 10.5t-11 4.5h-412q-12 0 -20 -15l-57 -147q-12 -33 -45 -33h-324q-29 0 -29 25zM594 504q0 -14 12 -15h246q8 0 13 5.5t3 13.5l-67 473 q-2 10 -9.5 10t-11.5 -10l-186 -473v-4zM669 1561q0 10 8 25l111 172q16 29 47 28h283q31 0 30 -22q0 -12 -12 -25l-151 -176q-23 -25 -49 -25h-236q-31 0 -31 23z" />
<glyph unicode="&#xc2;" horiz-adv-x="1419" d="M12 25q0 12 4 20l580 1356q12 33 45 33h410q31 0 36 -33l248 -1356v-8q0 -37 -39 -37h-321q-35 0 -37 33l-23 147q0 6 -5 10.5t-11 4.5h-412q-12 0 -20 -15l-57 -147q-12 -33 -45 -33h-324q-29 0 -29 25zM483 1559q0 12 12 27l158 192q18 25 47 25h297q31 0 45 -25 l111 -192q6 -8 6 -21q0 -12 -9.5 -19.5t-25.5 -7.5h-205q-29 0 -41 27l-34 80q-4 8 -11.5 8t-11.5 -8l-53 -80q-18 -27 -47 -27h-207q-15 0 -23 6.5t-8 14.5zM594 504q0 -14 12 -15h246q8 0 13 5.5t3 13.5l-67 473q-2 10 -9.5 10t-11.5 -10l-186 -473v-4z" />
<glyph unicode="&#xc3;" horiz-adv-x="1419" d="M12 25q0 12 4 20l580 1356q12 33 45 33h410q31 0 36 -33l248 -1356v-8q0 -37 -39 -37h-321q-35 0 -37 33l-23 147q0 6 -5 10.5t-11 4.5h-412q-12 0 -20 -15l-57 -147q-12 -33 -45 -33h-324q-29 0 -29 25zM538 1661q0 12 7 25q37 76 95 117t122 41q37 0 64.5 -12.5 t64.5 -37.5q49 -31 88 -30q33 0 57 24q20 20 33 21q12 0 20 -8l90 -72q12 -8 13 -27q0 -16 -17 -43q-47 -70 -104 -104.5t-115 -34.5q-39 0 -67.5 13.5t-61.5 37.5q-41 29 -69 29q-37 0 -62 -27q-20 -20 -33 -20q-12 0 -20 8l-90 72q-14 12 -15 28zM594 504q0 -14 12 -15 h246q8 0 13 5.5t3 13.5l-67 473q-2 10 -9.5 10t-11.5 -10l-186 -473v-4z" />
<glyph unicode="&#xc4;" horiz-adv-x="1419" d="M12 25q0 12 4 20l580 1356q12 33 45 33h410q31 0 36 -33l248 -1356v-8q0 -37 -39 -37h-321q-35 0 -37 33l-23 147q0 6 -5 10.5t-11 4.5h-412q-12 0 -20 -15l-57 -147q-12 -33 -45 -33h-324q-29 0 -29 25zM457 1649q0 90 57.5 147.5t139.5 57.5q70 0 109.5 -41t39.5 -111 q0 -90 -55 -147.5t-137 -57.5q-70 0 -112 41t-42 111zM594 504q0 -14 12 -15h246q8 0 13 5.5t3 13.5l-67 473q-2 10 -9.5 10t-11.5 -10l-186 -473v-4zM871 1645q0 92 54 150.5t140 58.5q70 0 111 -41t41 -111q0 -90 -55.5 -147.5t-141.5 -57.5q-69 0 -109 40t-40 108z" />
<glyph unicode="&#xc5;" horiz-adv-x="1419" d="M12 25q0 12 4 20l580 1356q12 33 45 33h410q31 0 36 -33l248 -1356v-8q0 -37 -39 -37h-321q-35 0 -37 33l-23 147q0 6 -5 10.5t-11 4.5h-412q-12 0 -20 -15l-57 -147q-12 -33 -45 -33h-324q-29 0 -29 25zM594 504q0 -14 12 -15h246q8 0 13 5.5t3 13.5l-67 473 q-2 10 -9.5 10t-11.5 -10l-186 -473v-4zM614 1710q0 74 37 135.5t97.5 98.5t130.5 37q90 0 147 -58.5t57 -148.5q0 -74 -36.5 -135.5t-97 -98t-130.5 -36.5q-90 0 -147.5 58t-57.5 148zM778 1733q0 -27 17.5 -45.5t44.5 -18.5q32 0 57 25t25 57q0 29 -17.5 48.5t-46.5 19.5 q-33 0 -56.5 -25.5t-23.5 -60.5z" />
<glyph unicode="&#xc6;" horiz-adv-x="1957" d="M16 23q0 10 7 22l815 1360q18 29 47 29h1124q18 0 26.5 -10.5t6.5 -28.5l-31 -252q-2 -19 -13 -29t-30 -10h-586q-16 0 -16 -17l-23 -180v-4q0 -12 15 -12h358q18 0 26.5 -10.5t6.5 -28.5l-31 -250q-2 -18 -13 -28.5t-30 -10.5h-358q-14 0 -19 -16l-24 -201q0 -16 14 -16 h586q18 0 26.5 -10.5t6.5 -28.5l-31 -252q-2 -18 -13.5 -28.5t-29.5 -10.5h-938q-16 0 -25.5 10t-7.5 29l19 139q0 16 -15 17h-331q-14 0 -21 -13l-90 -153q-16 -29 -49 -29h-330q-29 0 -29 23zM699 494.5q3 -5.5 12 -5.5h192q6 0 11.5 4.5t5.5 12.5l55 438v4q0 10 -6 10 t-13 -10l-256 -440q-4 -8 -1 -13.5z" />
<glyph unicode="&#xc7;" horiz-adv-x="1210" d="M78 434q0 51 4 78l51 414q18 156 101 274.5t215.5 184t295.5 65.5q227 0 359.5 -114.5t132.5 -309.5q0 -20 -4 -70v-10q-2 -10 -37 -12l-301 -21h-10q-29 0 -29 11l2 12q2 10 2 31q0 72 -41 112.5t-112 40.5q-80 0 -134.5 -50t-64.5 -134l-53 -440q-2 -10 -2 -31 q0 -70 42 -111t111 -41q80 0 133.5 50.5t63.5 132.5q2 10 14 17t29 5l297 -16q35 -4 35 -10l-2 -11q-25 -195 -156 -325.5t-332 -161.5q-10 -2 -12 -8t2 -13q51 -66 51 -139q0 -35 -16 -78q-29 -74 -86.5 -105.5t-128.5 -31.5q-72 0 -138 27q-20 8 -20 30q0 10 2 17l29 119 q6 27 24 26q6 0 23 -4q6 -2 20 -2q39 0 54 31q4 6 4 20q0 47 -80 113q-6 6 -17 8q-154 41 -237.5 153.5t-83.5 276.5z" />
<glyph unicode="&#xc8;" horiz-adv-x="1132" d="M43 39l166 1356q6 39 43 39h932q16 0 25.5 -10.5t7.5 -28.5l-31 -252q-6 -39 -43 -39h-580q-14 0 -18 -17l-23 -180q0 -16 15 -16h354q16 0 25.5 -10.5t7.5 -28.5l-31 -250q-6 -39 -43 -39h-354q-16 0 -17 -16l-24 -201v-4q0 -12 12 -12h582q16 0 25 -10.5t7 -28.5 l-30 -252q-2 -18 -14.5 -28.5t-28.5 -10.5h-932q-18 0 -26.5 10t-6.5 29zM418 1786q0 12 9 19t28 7h280q29 0 41 -28l68 -172q4 -13 4 -19q0 -29 -37 -29h-235q-29 0 -43 25l-109 176q-6 10 -6 21z" />
<glyph unicode="&#xc9;" horiz-adv-x="1132" d="M43 39l166 1356q6 39 43 39h932q16 0 25.5 -10.5t7.5 -28.5l-31 -252q-6 -39 -43 -39h-580q-14 0 -18 -17l-23 -180q0 -16 15 -16h354q16 0 25.5 -10.5t7.5 -28.5l-31 -250q-6 -39 -43 -39h-354q-16 0 -17 -16l-24 -201v-4q0 -12 12 -12h582q16 0 25 -10.5t7 -28.5 l-30 -252q-2 -18 -14.5 -28.5t-28.5 -10.5h-932q-18 0 -26.5 10t-6.5 29zM538 1587q0 10 8 25l111 172q16 29 47 28h283q31 0 30 -22q0 -12 -12 -25l-151 -176q-23 -25 -49 -25h-236q-31 0 -31 23z" />
<glyph unicode="&#xca;" horiz-adv-x="1132" d="M43 39l166 1356q6 39 43 39h932q16 0 25.5 -10.5t7.5 -28.5l-31 -252q-6 -39 -43 -39h-580q-14 0 -18 -17l-23 -180q0 -16 15 -16h354q16 0 25.5 -10.5t7.5 -28.5l-31 -250q-6 -39 -43 -39h-354q-16 0 -17 -16l-24 -201v-4q0 -12 12 -12h582q16 0 25 -10.5t7 -28.5 l-30 -252q-2 -18 -14.5 -28.5t-28.5 -10.5h-932q-18 0 -26.5 10t-6.5 29zM352 1585q0 12 12 27l158 192q18 25 47 25h297q31 0 45 -25l111 -192q6 -8 6 -21q0 -12 -9.5 -19.5t-25.5 -7.5h-205q-29 0 -41 27l-34 80q-4 8 -11.5 8t-11.5 -8l-53 -80q-18 -27 -47 -27h-207 q-15 0 -23 6.5t-8 14.5z" />
<glyph unicode="&#xcb;" horiz-adv-x="1132" d="M43 39l166 1356q6 39 43 39h932q16 0 25.5 -10.5t7.5 -28.5l-31 -252q-6 -39 -43 -39h-580q-14 0 -18 -17l-23 -180q0 -16 15 -16h354q16 0 25.5 -10.5t7.5 -28.5l-31 -250q-6 -39 -43 -39h-354q-16 0 -17 -16l-24 -201v-4q0 -12 12 -12h582q16 0 25 -10.5t7 -28.5 l-30 -252q-2 -18 -14.5 -28.5t-28.5 -10.5h-932q-18 0 -26.5 10t-6.5 29zM326 1675q0 90 57.5 147.5t139.5 57.5q70 0 109.5 -41t39.5 -111q0 -90 -55 -147.5t-137 -57.5q-70 0 -112 41t-42 111zM740 1671q0 92 54 150.5t140 58.5q70 0 111 -41t41 -111q0 -90 -55.5 -147.5 t-141.5 -57.5q-69 0 -109 40t-40 108z" />
<glyph unicode="&#xcc;" horiz-adv-x="528" d="M43 39l166 1356q6 39 43 39h297q18 0 26.5 -10.5t6.5 -28.5l-166 -1356q-2 -18 -13.5 -28.5t-29.5 -10.5h-297q-19 0 -27 10t-6 29zM94 1786q0 12 9 19t28 7h280q29 0 41 -28l68 -172q4 -13 4 -19q0 -29 -37 -29h-235q-29 0 -43 25l-109 176q-6 10 -6 21z" />
<glyph unicode="&#xcd;" horiz-adv-x="528" d="M43 39l166 1356q6 39 43 39h297q18 0 26.5 -10.5t6.5 -28.5l-166 -1356q-2 -18 -13.5 -28.5t-29.5 -10.5h-297q-19 0 -27 10t-6 29zM215 1587q0 10 8 25l111 172q16 29 47 28h283q31 0 30 -22q0 -12 -12 -25l-151 -176q-23 -25 -49 -25h-236q-31 0 -31 23z" />
<glyph unicode="&#xce;" horiz-adv-x="528" d="M29 1585q0 12 12 27l158 192q18 25 47 25h297q31 0 45 -25l111 -192q6 -8 6 -21q0 -12 -9.5 -19.5t-25.5 -7.5h-205q-29 0 -41 27l-34 80q-4 8 -11.5 8t-11.5 -8l-53 -80q-18 -27 -47 -27h-207q-15 0 -23 6.5t-8 14.5zM43 39l166 1356q6 39 43 39h297q18 0 26.5 -10.5 t6.5 -28.5l-166 -1356q-2 -18 -13.5 -28.5t-29.5 -10.5h-297q-19 0 -27 10t-6 29z" />
<glyph unicode="&#xcf;" horiz-adv-x="528" d="M2 1675q0 90 57.5 147.5t139.5 57.5q70 0 109.5 -41t39.5 -111q0 -90 -55 -147.5t-137 -57.5q-70 0 -112 41t-42 111zM43 39l166 1356q6 39 43 39h297q18 0 26.5 -10.5t6.5 -28.5l-166 -1356q-2 -18 -13.5 -28.5t-29.5 -10.5h-297q-19 0 -27 10t-6 29zM416 1671 q0 92 54 150.5t140 58.5q70 0 111 -41t41 -111q0 -90 -55.5 -147.5t-141.5 -57.5q-69 0 -109 40t-40 108z" />
<glyph unicode="&#xd0;" horiz-adv-x="1310" d="M117 645l22 178q2 18 13.5 28.5t29.5 10.5h29q14 0 18 17l64 516q2 18 13 28.5t30 10.5h502q149 0 259.5 -49.5t171 -139.5t60.5 -211q0 -20 -4 -61l-63 -512q-16 -137 -97.5 -241.5t-211.5 -162t-291 -57.5h-502q-18 0 -26.5 10t-6.5 29l68 551q0 16 -15 16h-30 q-16 0 -25.5 10.5t-7.5 28.5zM537 346q0 -16 14 -16h166q66 0 116 54t64 142l47 381q2 12 2 37q0 74 -37 117t-100 43h-164q-6 0 -11 -4t-5 -13l-27 -208q0 -16 14 -17h91q16 0 25 -10t7 -29l-22 -178q-2 -18 -13.5 -28.5t-29.5 -10.5h-88q-14 0 -19 -16z" />
<glyph unicode="&#xd1;" horiz-adv-x="1306" d="M43 39l166 1356q6 39 43 39h285q31 0 43 -27l309 -678q2 -8 10 -8t10 14l78 660q6 39 43 39h299q16 0 25.5 -10.5t7.5 -28.5l-168 -1356q-2 -18 -13.5 -28.5t-27.5 -10.5h-287q-31 0 -43 27l-307 690q-4 10 -10 10t-10 -14l-80 -674q-2 -39 -43 -39h-297q-19 0 -27 10 t-6 29zM462 1687q0 12 7 25q37 76 95 117t122 41q37 0 64.5 -12.5t64.5 -37.5q49 -31 88 -30q33 0 57 24q20 20 33 21q12 0 20 -8l90 -72q12 -8 13 -27q0 -16 -17 -43q-47 -70 -104 -104.5t-115 -34.5q-39 0 -67.5 13.5t-61.5 37.5q-41 29 -69 29q-37 0 -62 -27 q-20 -20 -33 -20q-12 0 -20 8l-90 72q-14 12 -15 28z" />
<glyph unicode="&#xd2;" horiz-adv-x="1232" d="M78 440q0 41 6 84l47 385q20 160 104 283t218.5 190.5t300.5 67.5q152 0 264 -56.5t172.5 -160t60.5 -242.5q0 -39 -6 -82l-47 -385q-18 -164 -103 -287.5t-220.5 -192.5t-301.5 -69q-151 0 -262.5 57.5t-172 162t-60.5 245.5zM455 475q0 -78 43 -124t116 -46 q84 0 141.5 56.5t67.5 150.5l49 401q2 12 2 37q0 78 -43 124t-118 46q-82 0 -139.5 -56t-67.5 -151l-49 -401q-2 -12 -2 -37zM457 1776q0 12 9 19t28 7h280q29 0 41 -28l68 -172q4 -13 4 -19q0 -29 -37 -29h-235q-29 0 -43 25l-109 176q-6 10 -6 21z" />
<glyph unicode="&#xd3;" horiz-adv-x="1232" d="M78 440q0 41 6 84l47 385q20 160 104 283t218.5 190.5t300.5 67.5q152 0 264 -56.5t172.5 -160t60.5 -242.5q0 -39 -6 -82l-47 -385q-18 -164 -103 -287.5t-220.5 -192.5t-301.5 -69q-151 0 -262.5 57.5t-172 162t-60.5 245.5zM455 475q0 -78 43 -124t116 -46 q84 0 141.5 56.5t67.5 150.5l49 401q2 12 2 37q0 78 -43 124t-118 46q-82 0 -139.5 -56t-67.5 -151l-49 -401q-2 -12 -2 -37zM577 1577q0 10 8 25l111 172q16 29 47 28h283q31 0 30 -22q0 -12 -12 -25l-151 -176q-23 -25 -49 -25h-236q-31 0 -31 23z" />
<glyph unicode="&#xd4;" horiz-adv-x="1232" d="M78 440q0 41 6 84l47 385q20 160 104 283t218.5 190.5t300.5 67.5q152 0 264 -56.5t172.5 -160t60.5 -242.5q0 -39 -6 -82l-47 -385q-18 -164 -103 -287.5t-220.5 -192.5t-301.5 -69q-151 0 -262.5 57.5t-172 162t-60.5 245.5zM391 1575q0 12 12 27l158 192q18 25 47 25 h297q31 0 45 -25l111 -192q6 -8 6 -21q0 -12 -9.5 -19.5t-25.5 -7.5h-205q-29 0 -41 27l-34 80q-4 8 -11.5 8t-11.5 -8l-53 -80q-18 -27 -47 -27h-207q-15 0 -23 6.5t-8 14.5zM455 475q0 -78 43 -124t116 -46q84 0 141.5 56.5t67.5 150.5l49 401q2 12 2 37q0 78 -43 124 t-118 46q-82 0 -139.5 -56t-67.5 -151l-49 -401q-2 -12 -2 -37z" />
<glyph unicode="&#xd5;" horiz-adv-x="1232" d="M78 440q0 41 6 84l47 385q20 160 104 283t218.5 190.5t300.5 67.5q152 0 264 -56.5t172.5 -160t60.5 -242.5q0 -39 -6 -82l-47 -385q-18 -164 -103 -287.5t-220.5 -192.5t-301.5 -69q-151 0 -262.5 57.5t-172 162t-60.5 245.5zM446 1677q0 12 7 25q37 76 95 117t122 41 q37 0 64.5 -12.5t64.5 -37.5q49 -31 88 -30q33 0 57 24q20 20 33 21q12 0 20 -8l90 -72q12 -8 13 -27q0 -16 -17 -43q-47 -70 -104 -104.5t-115 -34.5q-39 0 -67.5 13.5t-61.5 37.5q-41 29 -69 29q-37 0 -62 -27q-20 -20 -33 -20q-12 0 -20 8l-90 72q-14 12 -15 28zM455 475 q0 -78 43 -124t116 -46q84 0 141.5 56.5t67.5 150.5l49 401q2 12 2 37q0 78 -43 124t-118 46q-82 0 -139.5 -56t-67.5 -151l-49 -401q-2 -12 -2 -37z" />
<glyph unicode="&#xd6;" horiz-adv-x="1232" d="M78 440q0 41 6 84l47 385q20 160 104 283t218.5 190.5t300.5 67.5q152 0 264 -56.5t172.5 -160t60.5 -242.5q0 -39 -6 -82l-47 -385q-18 -164 -103 -287.5t-220.5 -192.5t-301.5 -69q-151 0 -262.5 57.5t-172 162t-60.5 245.5zM364 1665q0 90 57.5 147.5t139.5 57.5 q70 0 109.5 -41t39.5 -111q0 -90 -55 -147.5t-137 -57.5q-70 0 -112 41t-42 111zM455 475q0 -78 43 -124t116 -46q84 0 141.5 56.5t67.5 150.5l49 401q2 12 2 37q0 78 -43 124t-118 46q-82 0 -139.5 -56t-67.5 -151l-49 -401q-2 -12 -2 -37zM778 1661q0 92 54 150.5 t140 58.5q70 0 111 -41t41 -111q0 -90 -55.5 -147.5t-141.5 -57.5q-69 0 -109 40t-40 108z" />
<glyph unicode="&#xd7;" horiz-adv-x="917" d="M72 436q0 14 16 31l172 158q4 4 5 12t-3 12l-133 158q-10 14 -10 22q0 18 16 31l195 178q16 12 28 13q14 0 23 -13l135 -157q4 -4 11.5 -4t11.5 4l172 157q16 12 28 13q14 0 25 -13l149 -178q11 -10 11 -22q0 -14 -17 -31l-172 -158q-4 -4 -5 -12t3 -12l133 -158 q8 -8 8 -23q0 -16 -14 -30l-194 -178q-14 -14 -29 -15q-14 0 -25 12l-133 158q-10 10 -24 0l-172 -158q-12 -12 -27 -12q-12 0 -25 15l-151 178q-8 12 -8 22z" />
<glyph unicode="&#xd8;" horiz-adv-x="1232" d="M78 440q0 41 6 84l47 385q20 160 104 283t218.5 190.5t300.5 67.5q123 0 227 -39l8 -2q8 0 15 10l28 47q18 29 47 29h99q12 0 20 -6t8 -14q0 -10 -10 -27l-68 -113q-4 -8 -3 -12t5 -10q119 -123 119 -324q0 -53 -4 -80l-47 -385q-18 -164 -103 -287.5t-220.5 -192.5 t-301.5 -69q-131 0 -239 45q-2 2 -8 3q-8 0 -15 -11l-26 -45q-16 -29 -47 -28h-99q-29 0 -28 22q0 10 8 25l71 116q4 6 4.5 11.5t-4.5 11.5q-113 125 -112 315zM465 580q0 -10 7 -11.5t11 9.5l312 505q8 14 -4 21q-37 16 -78 16q-82 0 -139.5 -56t-67.5 -151l-41 -331v-2z M517 340q1 -6 7 -10q37 -25 90 -25q84 0 141.5 56.5t67.5 150.5l45 369v4q0 10 -6 10t-12 -10l-330 -533q-4 -6 -3 -12z" />
<glyph unicode="&#xd9;" horiz-adv-x="1224" d="M86 424q0 25 4 74l111 897q6 39 43 39h297q39 0 34 -39l-110 -897q-2 -10 -2 -33q0 -70 40 -111t109 -41q76 0 129.5 50.5t63.5 134.5l108 897q2 18 14.5 28.5t28.5 10.5h299q16 0 25.5 -10.5t7.5 -28.5l-110 -897q-18 -154 -101.5 -270.5t-213.5 -180t-292 -63.5 q-223 0 -354 118.5t-131 321.5zM455 1786q0 12 9 19t28 7h280q29 0 41 -28l68 -172q4 -13 4 -19q0 -29 -37 -29h-235q-29 0 -43 25l-109 176q-6 10 -6 21z" />
<glyph unicode="&#xda;" horiz-adv-x="1224" d="M86 424q0 25 4 74l111 897q6 39 43 39h297q39 0 34 -39l-110 -897q-2 -10 -2 -33q0 -70 40 -111t109 -41q76 0 129.5 50.5t63.5 134.5l108 897q2 18 14.5 28.5t28.5 10.5h299q16 0 25.5 -10.5t7.5 -28.5l-110 -897q-18 -154 -101.5 -270.5t-213.5 -180t-292 -63.5 q-223 0 -354 118.5t-131 321.5zM575 1587q0 10 8 25l111 172q16 29 47 28h283q31 0 30 -22q0 -12 -12 -25l-151 -176q-23 -25 -49 -25h-236q-31 0 -31 23z" />
<glyph unicode="&#xdb;" horiz-adv-x="1224" d="M86 424q0 25 4 74l111 897q6 39 43 39h297q39 0 34 -39l-110 -897q-2 -10 -2 -33q0 -70 40 -111t109 -41q76 0 129.5 50.5t63.5 134.5l108 897q2 18 14.5 28.5t28.5 10.5h299q16 0 25.5 -10.5t7.5 -28.5l-110 -897q-18 -154 -101.5 -270.5t-213.5 -180t-292 -63.5 q-223 0 -354 118.5t-131 321.5zM389 1585q0 12 12 27l158 192q18 25 47 25h297q31 0 45 -25l111 -192q6 -8 6 -21q0 -12 -9.5 -19.5t-25.5 -7.5h-205q-29 0 -41 27l-34 80q-4 8 -11.5 8t-11.5 -8l-53 -80q-18 -27 -47 -27h-207q-15 0 -23 6.5t-8 14.5z" />
<glyph unicode="&#xdc;" horiz-adv-x="1224" d="M86 424q0 25 4 74l111 897q6 39 43 39h297q39 0 34 -39l-110 -897q-2 -10 -2 -33q0 -70 40 -111t109 -41q76 0 129.5 50.5t63.5 134.5l108 897q2 18 14.5 28.5t28.5 10.5h299q16 0 25.5 -10.5t7.5 -28.5l-110 -897q-18 -154 -101.5 -270.5t-213.5 -180t-292 -63.5 q-223 0 -354 118.5t-131 321.5zM362 1675q0 90 57.5 147.5t139.5 57.5q70 0 109.5 -41t39.5 -111q0 -90 -55 -147.5t-137 -57.5q-70 0 -112 41t-42 111zM776 1671q0 92 54 150.5t140 58.5q70 0 111 -41t41 -111q0 -90 -55.5 -147.5t-141.5 -57.5q-69 0 -109 40t-40 108z" />
<glyph unicode="&#xdd;" horiz-adv-x="1292" d="M184 1403q0 31 37 31h324q33 0 41 -31l125 -473q4 -8 9 -8t9 8l242 473q14 31 47 31h325q33 0 33 -23q0 -6 -8 -22l-512 -885q-6 -18 -6 -21l-53 -440q-6 -39 -43 -39h-297q-17 0 -26 10.5t-7 28.5l55 440q0 14 -2 21l-291 885q-2 4 -2 14zM608 1561q0 10 8 25l111 172 q16 29 47 28h283q31 0 30 -22q0 -12 -12 -25l-151 -176q-23 -25 -49 -25h-236q-31 0 -31 23z" />
<glyph unicode="&#xde;" horiz-adv-x="1171" d="M37 39l166 1356q6 39 43 39h297q18 0 26.5 -10.5t5.5 -28.5l-24 -205q0 -16 14 -16h203q193 0 306.5 -108t113.5 -286q0 -23 -4 -67q-16 -133 -94 -236.5t-198 -160t-255 -56.5h-184q-14 0 -19 -16l-24 -205q-2 -18 -13.5 -28.5t-29.5 -10.5h-297q-18 0 -26.5 10t-6.5 29 zM477 582q0 -12 15 -13h141q82 0 131 40t49 118q0 57 -40 87t-107 30h-142q-14 0 -18 -17l-29 -241v-4z" />
<glyph unicode="&#xdf;" horiz-adv-x="1239" d="M37 41l113 915q29 233 184 363.5t407 130.5q233 0 370.5 -96.5t137.5 -261.5q0 -195 -149 -293q-18 -12 -4 -23q49 -41 78.5 -112.5t29.5 -161.5q0 -20 -4 -66q-27 -211 -191.5 -323.5t-467.5 -112.5h-17q-37 0 -32 39l30 250q2 18 13.5 28.5t29.5 10.5h72q88 0 142.5 46 t54.5 126q0 59 -43 93t-117 34h-72q-18 0 -26.5 10t-6.5 29l27 221q2 18 13.5 28.5t29.5 10.5h80q61 0 106 34.5t45 75.5q0 33 -30.5 59.5t-108.5 26.5q-72 0 -134 -34.5t-71 -94.5l-116 -954q-2 -18 -13.5 -28.5t-29.5 -10.5l-297 2q-37 0 -33 39z" />
<glyph unicode="&#xe0;" horiz-adv-x="1120" d="M39 422q0 59 6 115q20 150 78 262q61 125 173 203.5t253 78.5q139 0 196 -86q6 -6 11 -6q8 0 8 15l4 22q2 18 13.5 28.5t29.5 10.5h297q18 0 26.5 -10.5t6.5 -28.5l-121 -987q-2 -18 -13.5 -28.5t-29.5 -10.5h-297q-18 0 -26.5 10t-6.5 29l4 43v4q0 8 -5 8t-11 -8 q-90 -102 -238 -102q-131 0 -227 87t-123 236q-8 51 -8 115zM403 1391q0 12 9 19t28 7h280q29 0 41 -28l68 -172q4 -13 4 -19q0 -29 -37 -29h-235q-29 0 -43 25l-109 176q-6 10 -6 21zM432 475q0 -51 17 -94q27 -68 96 -68q68 0 114 70q38 59 48 147q4 41 4 60q0 55 -17 98 q-27 63 -96 64q-72 0 -113 -68q-35 -57 -49 -154q-4 -37 -4 -55z" />
<glyph unicode="&#xe1;" horiz-adv-x="1120" d="M39 422q0 59 6 115q20 150 78 262q61 125 173 203.5t253 78.5q139 0 196 -86q6 -6 11 -6q8 0 8 15l4 22q2 18 13.5 28.5t29.5 10.5h297q18 0 26.5 -10.5t6.5 -28.5l-121 -987q-2 -18 -13.5 -28.5t-29.5 -10.5h-297q-18 0 -26.5 10t-6.5 29l4 43v4q0 8 -5 8t-11 -8 q-90 -102 -238 -102q-131 0 -227 87t-123 236q-8 51 -8 115zM432 475q0 -51 17 -94q27 -68 96 -68q68 0 114 70q38 59 48 147q4 41 4 60q0 55 -17 98q-27 63 -96 64q-72 0 -113 -68q-35 -57 -49 -154q-4 -37 -4 -55zM524 1192q0 10 8 25l111 172q16 29 47 28h283 q31 0 30 -22q0 -12 -12 -25l-151 -176q-23 -25 -49 -25h-236q-31 0 -31 23z" />
<glyph unicode="&#xe2;" horiz-adv-x="1120" d="M39 422q0 59 6 115q20 150 78 262q61 125 173 203.5t253 78.5q139 0 196 -86q6 -6 11 -6q8 0 8 15l4 22q2 18 13.5 28.5t29.5 10.5h297q18 0 26.5 -10.5t6.5 -28.5l-121 -987q-2 -18 -13.5 -28.5t-29.5 -10.5h-297q-18 0 -26.5 10t-6.5 29l4 43v4q0 8 -5 8t-11 -8 q-90 -102 -238 -102q-131 0 -227 87t-123 236q-8 51 -8 115zM338 1190q0 12 12 27l158 192q18 25 47 25h297q31 0 45 -25l111 -192q6 -8 6 -21q0 -12 -9.5 -19.5t-25.5 -7.5h-205q-29 0 -41 27l-34 80q-4 8 -11.5 8t-11.5 -8l-53 -80q-18 -27 -47 -27h-207q-15 0 -23 6.5 t-8 14.5zM432 475q0 -51 17 -94q27 -68 96 -68q68 0 114 70q38 59 48 147q4 41 4 60q0 55 -17 98q-27 63 -96 64q-72 0 -113 -68q-35 -57 -49 -154q-4 -37 -4 -55z" />
<glyph unicode="&#xe3;" horiz-adv-x="1120" d="M39 422q0 59 6 115q20 150 78 262q61 125 173 203.5t253 78.5q139 0 196 -86q6 -6 11 -6q8 0 8 15l4 22q2 18 13.5 28.5t29.5 10.5h297q18 0 26.5 -10.5t6.5 -28.5l-121 -987q-2 -18 -13.5 -28.5t-29.5 -10.5h-297q-18 0 -26.5 10t-6.5 29l4 43v4q0 8 -5 8t-11 -8 q-90 -102 -238 -102q-131 0 -227 87t-123 236q-8 51 -8 115zM393 1292q0 12 7 25q37 76 95 117t122 41q37 0 64.5 -12.5t64.5 -37.5q49 -31 88 -30q33 0 57 24q20 20 33 21q12 0 20 -8l90 -72q12 -8 13 -27q0 -16 -17 -43q-47 -70 -104 -104.5t-115 -34.5q-39 0 -67.5 13.5 t-61.5 37.5q-41 29 -69 29q-37 0 -62 -27q-20 -20 -33 -20q-12 0 -20 8l-90 72q-14 12 -15 28zM432 475q0 -51 17 -94q27 -68 96 -68q68 0 114 70q38 59 48 147q4 41 4 60q0 55 -17 98q-27 63 -96 64q-72 0 -113 -68q-35 -57 -49 -154q-4 -37 -4 -55z" />
<glyph unicode="&#xe4;" horiz-adv-x="1120" d="M39 422q0 59 6 115q20 150 78 262q61 125 173 203.5t253 78.5q139 0 196 -86q6 -6 11 -6q8 0 8 15l4 22q2 18 13.5 28.5t29.5 10.5h297q18 0 26.5 -10.5t6.5 -28.5l-121 -987q-2 -18 -13.5 -28.5t-29.5 -10.5h-297q-18 0 -26.5 10t-6.5 29l4 43v4q0 8 -5 8t-11 -8 q-90 -102 -238 -102q-131 0 -227 87t-123 236q-8 51 -8 115zM311 1280q0 90 57.5 147.5t139.5 57.5q70 0 109.5 -41t39.5 -111q0 -90 -55 -147.5t-137 -57.5q-70 0 -112 41t-42 111zM432 475q0 -51 17 -94q27 -68 96 -68q68 0 114 70q38 59 48 147q4 41 4 60q0 55 -17 98 q-27 63 -96 64q-72 0 -113 -68q-35 -57 -49 -154q-4 -37 -4 -55zM725 1276q0 92 54 150.5t140 58.5q70 0 111 -41t41 -111q0 -90 -55.5 -147.5t-141.5 -57.5q-69 0 -109 40t-40 108z" />
<glyph unicode="&#xe5;" horiz-adv-x="1120" d="M39 422q0 59 6 115q20 150 78 262q61 125 173 203.5t253 78.5q139 0 196 -86q6 -6 11 -6q8 0 8 15l4 22q2 18 13.5 28.5t29.5 10.5h297q18 0 26.5 -10.5t6.5 -28.5l-121 -987q-2 -18 -13.5 -28.5t-29.5 -10.5h-297q-18 0 -26.5 10t-6.5 29l4 43v4q0 8 -5 8t-11 -8 q-90 -102 -238 -102q-131 0 -227 87t-123 236q-8 51 -8 115zM432 475q0 -51 17 -94q27 -68 96 -68q68 0 114 70q38 59 48 147q4 41 4 60q0 55 -17 98q-27 63 -96 64q-72 0 -113 -68q-35 -57 -49 -154q-4 -37 -4 -55zM469 1341q0 74 37 135.5t97.5 98.5t130.5 37 q90 0 147 -58.5t57 -148.5q0 -74 -36.5 -135.5t-97 -98t-130.5 -36.5q-90 0 -147.5 58t-57.5 148zM633 1364q0 -27 17.5 -45.5t44.5 -18.5q32 0 57 25t25 57q0 29 -17.5 48.5t-46.5 19.5q-33 0 -56.5 -25.5t-23.5 -60.5z" />
<glyph unicode="&#xe6;" horiz-adv-x="1677" d="M20 262q0 164 119 263.5t334 99.5h180q8 0 12.5 5t4.5 11l2 14q6 43 -21.5 70t-79.5 27q-35 0 -62.5 -11.5t-41.5 -29.5q-14 -16 -23.5 -22.5t-23.5 -4.5l-301 41q-35 2 -29 41q25 88 98.5 159.5t178 113.5t211.5 42q109 0 196.5 -41t128.5 -104q12 -12 23 2 q49 57 135 100t184 43q92 0 179 -38.5t149.5 -111.5t85.5 -169q12 -61 12 -127q0 -49 -10 -168q-6 -41 -43 -41h-569q-18 0 -19 -14l4 -17q23 -90 174 -90q119 0 191 51q16 10 26 11q12 0 25 -15l106 -157q6 -12 7 -23q0 -18 -17 -33q-180 -156 -399 -155q-125 0 -214 48 t-120 120q-4 8 -8 10t-6 -2q-53 -76 -164 -126t-252 -50q-166 0 -264.5 73.5t-98.5 204.5zM397 322q0 -31 21.5 -53.5t64.5 -22.5q58 0 103 38t53 93l4 33q0 16 -14 16h-94q-66 0 -102 -28.5t-36 -75.5zM1057 630q4 -5 10 -5h211q18 0 18 18l-6 27q-25 82 -100 82 q-41 0 -73 -21.5t-50 -60.5q-6 -14 -10 -27q-4 -8 0 -13z" />
<glyph unicode="&#xe7;" horiz-adv-x="1091" d="M66 446q0 61 4 93q16 133 69 231q72 145 209 228t305 83q170 0 289 -87t150 -218q8 -39 8 -69q0 -37 -39 -43l-297 -48q-2 0 -5 -1t-7 1q-29 0 -29 25l-2 29q-8 35 -38 58.5t-73 23.5q-80 0 -121 -74q-31 -53 -43 -141q-4 -41 -4 -60q0 -45 11 -82q23 -82 104 -82 q84 0 125 84q4 6 5 9l1 4q2 8 17.5 21t29.5 11l289 -49q35 -6 27 -43q-8 -31 -19 -55q-53 -115 -149.5 -189.5t-218.5 -105.5q-18 -4 -9 -20q57 -70 58 -146q0 -43 -17 -78q-29 -74 -86 -105.5t-129 -31.5t-137 27q-25 10 -18 47l28 119q8 27 27 26q4 0 20 -4q8 -2 23 -2 q39 0 51 31q6 8 6 22q0 45 -73 105q-6 6 -17 8q-119 29 -199.5 108.5t-109.5 198.5q-16 59 -16 141z" />
<glyph unicode="&#xe8;" horiz-adv-x="1103" d="M68 451q0 45 6 90q12 90 43 172q66 166 213 267t323 101q205 0 315.5 -136t121.5 -372q2 -16 2 -49t-2 -49q-6 -39 -43 -39h-590q-16 0 -17 -18l6 -27q27 -82 162 -82q60 0 113 15.5t90 42.5q16 12 29 12q12 0 22 -17l113 -192q6 -12 6 -20q0 -16 -18 -33 q-78 -68 -184.5 -100.5t-223.5 -32.5q-147 0 -256 54t-168 155q-63 111 -63 258zM387 1407q0 12 9 19t28 7h280q29 0 41 -28l68 -172q4 -13 4 -19q0 -29 -37 -29h-235q-29 0 -43 25l-109 176q-6 10 -6 21zM471 647q0 -12 14 -12h215q16 0 17 12q0 6 -2 11.5t-2 11.5 q-25 82 -109 82q-80 0 -123 -82l-8 -17z" />
<glyph unicode="&#xe9;" horiz-adv-x="1103" d="M68 451q0 45 6 90q12 90 43 172q66 166 213 267t323 101q205 0 315.5 -136t121.5 -372q2 -16 2 -49t-2 -49q-6 -39 -43 -39h-590q-16 0 -17 -18l6 -27q27 -82 162 -82q60 0 113 15.5t90 42.5q16 12 29 12q12 0 22 -17l113 -192q6 -12 6 -20q0 -16 -18 -33 q-78 -68 -184.5 -100.5t-223.5 -32.5q-147 0 -256 54t-168 155q-63 111 -63 258zM471 647q0 -12 14 -12h215q16 0 17 12q0 6 -2 11.5t-2 11.5q-25 82 -109 82q-80 0 -123 -82l-8 -17zM508 1208q0 10 8 25l111 172q16 29 47 28h283q31 0 30 -22q0 -12 -12 -25l-151 -176 q-23 -25 -49 -25h-236q-31 0 -31 23z" />
<glyph unicode="&#xea;" horiz-adv-x="1103" d="M68 451q0 45 6 90q12 90 43 172q66 166 213 267t323 101q205 0 315.5 -136t121.5 -372q2 -16 2 -49t-2 -49q-6 -39 -43 -39h-590q-16 0 -17 -18l6 -27q27 -82 162 -82q60 0 113 15.5t90 42.5q16 12 29 12q12 0 22 -17l113 -192q6 -12 6 -20q0 -16 -18 -33 q-78 -68 -184.5 -100.5t-223.5 -32.5q-147 0 -256 54t-168 155q-63 111 -63 258zM321 1206q0 12 12 27l158 192q18 25 47 25h297q31 0 45 -25l111 -192q6 -8 6 -21q0 -12 -9.5 -19.5t-25.5 -7.5h-205q-29 0 -41 27l-34 80q-4 8 -11.5 8t-11.5 -8l-53 -80q-18 -27 -47 -27 h-207q-15 0 -23 6.5t-8 14.5zM471 647q0 -12 14 -12h215q16 0 17 12q0 6 -2 11.5t-2 11.5q-25 82 -109 82q-80 0 -123 -82l-8 -17z" />
<glyph unicode="&#xeb;" horiz-adv-x="1103" d="M68 451q0 45 6 90q12 90 43 172q66 166 213 267t323 101q205 0 315.5 -136t121.5 -372q2 -16 2 -49t-2 -49q-6 -39 -43 -39h-590q-16 0 -17 -18l6 -27q27 -82 162 -82q60 0 113 15.5t90 42.5q16 12 29 12q12 0 22 -17l113 -192q6 -12 6 -20q0 -16 -18 -33 q-78 -68 -184.5 -100.5t-223.5 -32.5q-147 0 -256 54t-168 155q-63 111 -63 258zM295 1296q0 90 57.5 147.5t139.5 57.5q70 0 109.5 -41t39.5 -111q0 -90 -55 -147.5t-137 -57.5q-70 0 -112 41t-42 111zM471 647q0 -12 14 -12h215q16 0 17 12q0 6 -2 11.5t-2 11.5 q-25 82 -109 82q-80 0 -123 -82l-8 -17zM709 1292q0 92 54 150.5t140 58.5q70 0 111 -41t41 -111q0 -90 -55.5 -147.5t-141.5 -57.5q-69 0 -109 40t-40 108z" />
<glyph unicode="&#xec;" horiz-adv-x="505" d="M29 39l121 987q6 39 43 39h296q39 0 35 -39l-123 -987q-2 -18 -13 -28.5t-28 -10.5h-299q-18 0 -26 10t-6 29zM72 1416q0 12 9 19t28 7h280q29 0 41 -28l68 -172q4 -13 4 -19q0 -29 -37 -29h-235q-29 0 -43 25l-109 176q-6 10 -6 21z" />
<glyph unicode="&#xed;" horiz-adv-x="505" d="M29 39l121 987q6 39 43 39h296q39 0 35 -39l-123 -987q-2 -18 -13 -28.5t-28 -10.5h-299q-18 0 -26 10t-6 29zM192 1217q0 10 8 25l111 172q16 29 47 28h283q31 0 30 -22q0 -12 -12 -25l-151 -176q-23 -25 -49 -25h-236q-31 0 -31 23z" />
<glyph unicode="&#xee;" horiz-adv-x="505" d="M6 1215q0 12 12 27l158 192q18 25 47 25h297q31 0 45 -25l111 -192q6 -8 6 -21q0 -12 -9.5 -19.5t-25.5 -7.5h-205q-29 0 -41 27l-34 80q-4 8 -11.5 8t-11.5 -8l-53 -80q-18 -27 -47 -27h-207q-15 0 -23 6.5t-8 14.5zM29 39l121 987q6 39 43 39h296q39 0 35 -39 l-123 -987q-2 -18 -13 -28.5t-28 -10.5h-299q-18 0 -26 10t-6 29z" />
<glyph unicode="&#xef;" horiz-adv-x="505" d="M-21 1305q0 90 57.5 147.5t139.5 57.5q70 0 109.5 -41t39.5 -111q0 -90 -55 -147.5t-137 -57.5q-70 0 -112 41t-42 111zM29 39l121 987q6 39 43 39h296q39 0 35 -39l-123 -987q-2 -18 -13 -28.5t-28 -10.5h-299q-18 0 -26 10t-6 29zM393 1301q0 92 54 150.5t140 58.5 q70 0 111 -41t41 -111q0 -90 -55.5 -147.5t-141.5 -57.5q-69 0 -109 40t-40 108z" />
<glyph unicode="&#xf0;" horiz-adv-x="1093" d="M33 399q0 20 4 66q16 117 65 201q66 115 179 184q47 27 127.5 45t154.5 18q47 0 74 -8h4q16 0 10 17q-25 70 -39 100q-6 12 -18 8l-199 -47q-6 -2 -14 -2q-23 0 -29 29l-14 125v6q0 31 33 39l118 28q20 6 11 23q-23 35 -111 155q-8 10 -8 21q0 12 9 19.5t26 7.5h309 q31 0 41 -25l61 -104q6 -10 21 -7l162 39q6 2 14 2q25 0 29 -28l14 -125v-8q0 -29 -33 -39l-84 -21q-8 -2 -10 -9t2 -17q86 -180 105 -328q10 -76 10 -137q0 -72 -10 -160q-14 -115 -66 -203q-72 -125 -205 -202.5t-293 -77.5t-274.5 75.5t-155.5 204.5q-20 61 -20 135z M412 420q0 -35 14 -78q12 -35 35.5 -53.5t56.5 -18.5q61 0 111 72q41 67 41 145q0 35 -15 74q-29 68 -94 68q-33 0 -61.5 -17.5t-48.5 -50.5q-20 -31 -29.5 -63.5t-9.5 -77.5z" />
<glyph unicode="&#xf1;" d="M31 39l121 987q6 39 43 39h297q18 0 26 -10.5t6 -28.5l-6 -53v-4q0 -8 5 -10.5t12 6.5q90 117 243 116q137 0 223 -85t86 -234q0 -18 -4 -64l-82 -659q-2 -18 -13 -28.5t-27 -10.5h-299q-18 0 -26.5 10t-6.5 29l69 575q2 8 2 25q0 51 -25.5 82t-70.5 31q-51 0 -86 -38 t-43 -100l-72 -575q-2 -18 -13 -28.5t-28 -10.5h-299q-18 0 -26 10t-6 29zM393 1292q0 12 7 25q37 76 95 117t122 41q37 0 64.5 -12.5t64.5 -37.5q49 -31 88 -30q33 0 57 24q20 20 33 21q12 0 20 -8l90 -72q12 -8 13 -27q0 -16 -17 -43q-47 -70 -104 -104.5t-115 -34.5 q-39 0 -67.5 13.5t-61.5 37.5q-41 29 -69 29q-37 0 -62 -27q-20 -20 -33 -20q-12 0 -20 8l-90 72q-14 12 -15 28z" />
<glyph unicode="&#xf2;" horiz-adv-x="1107" d="M63 444q0 45 7 91q12 106 47 182q68 170 208 267t324 97t299 -97t142 -263q8 -66 8 -98q0 -41 -6 -84q-14 -92 -35 -156q-63 -184 -207.5 -291.5t-337.5 -107.5q-188 0 -305 104.5t-137 282.5q-6 37 -7 73zM393 1407q0 12 9 19t28 7h280q29 0 41 -28l68 -172q4 -13 4 -19 q0 -29 -37 -29h-235q-29 0 -43 25l-109 176q-6 10 -6 21zM440 481q0 -76 28 -122t85 -46q51 0 87 36t56 95q10 31 19 93q4 41 4 57q0 74 -27.5 116t-85.5 42q-98 0 -139 -121q-14 -35 -23 -94q-4 -37 -4 -56z" />
<glyph unicode="&#xf3;" horiz-adv-x="1107" d="M63 444q0 45 7 91q12 106 47 182q68 170 208 267t324 97t299 -97t142 -263q8 -66 8 -98q0 -41 -6 -84q-14 -92 -35 -156q-63 -184 -207.5 -291.5t-337.5 -107.5q-188 0 -305 104.5t-137 282.5q-6 37 -7 73zM440 481q0 -76 28 -122t85 -46q51 0 87 36t56 95q10 31 19 93 q4 41 4 57q0 74 -27.5 116t-85.5 42q-98 0 -139 -121q-14 -35 -23 -94q-4 -37 -4 -56zM514 1208q0 10 8 25l111 172q16 29 47 28h283q31 0 30 -22q0 -12 -12 -25l-151 -176q-23 -25 -49 -25h-236q-31 0 -31 23z" />
<glyph unicode="&#xf4;" horiz-adv-x="1107" d="M63 444q0 45 7 91q12 106 47 182q68 170 208 267t324 97t299 -97t142 -263q8 -66 8 -98q0 -41 -6 -84q-14 -92 -35 -156q-63 -184 -207.5 -291.5t-337.5 -107.5q-188 0 -305 104.5t-137 282.5q-6 37 -7 73zM328 1206q0 12 12 27l158 192q18 25 47 25h297q31 0 45 -25 l111 -192q6 -8 6 -21q0 -12 -9.5 -19.5t-25.5 -7.5h-205q-29 0 -41 27l-34 80q-4 8 -11.5 8t-11.5 -8l-53 -80q-18 -27 -47 -27h-207q-15 0 -23 6.5t-8 14.5zM440 481q0 -76 28 -122t85 -46q51 0 87 36t56 95q10 31 19 93q4 41 4 57q0 74 -27.5 116t-85.5 42 q-98 0 -139 -121q-14 -35 -23 -94q-4 -37 -4 -56z" />
<glyph unicode="&#xf5;" horiz-adv-x="1107" d="M63 444q0 45 7 91q12 106 47 182q68 170 208 267t324 97t299 -97t142 -263q8 -66 8 -98q0 -41 -6 -84q-14 -92 -35 -156q-63 -184 -207.5 -291.5t-337.5 -107.5q-188 0 -305 104.5t-137 282.5q-6 37 -7 73zM383 1308q0 12 7 25q37 76 95 117t122 41q37 0 64.5 -12.5 t64.5 -37.5q49 -31 88 -30q33 0 57 24q20 20 33 21q12 0 20 -8l90 -72q12 -8 13 -27q0 -16 -17 -43q-47 -70 -104 -104.5t-115 -34.5q-39 0 -67.5 13.5t-61.5 37.5q-41 29 -69 29q-37 0 -62 -27q-20 -20 -33 -20q-12 0 -20 8l-90 72q-14 12 -15 28zM440 481q0 -76 28 -122 t85 -46q51 0 87 36t56 95q10 31 19 93q4 41 4 57q0 74 -27.5 116t-85.5 42q-98 0 -139 -121q-14 -35 -23 -94q-4 -37 -4 -56z" />
<glyph unicode="&#xf6;" horiz-adv-x="1107" d="M63 444q0 45 7 91q12 106 47 182q68 170 208 267t324 97t299 -97t142 -263q8 -66 8 -98q0 -41 -6 -84q-14 -92 -35 -156q-63 -184 -207.5 -291.5t-337.5 -107.5q-188 0 -305 104.5t-137 282.5q-6 37 -7 73zM301 1296q0 90 57.5 147.5t139.5 57.5q70 0 109.5 -41 t39.5 -111q0 -90 -55 -147.5t-137 -57.5q-70 0 -112 41t-42 111zM440 481q0 -76 28 -122t85 -46q51 0 87 36t56 95q10 31 19 93q4 41 4 57q0 74 -27.5 116t-85.5 42q-98 0 -139 -121q-14 -35 -23 -94q-4 -37 -4 -56zM715 1292q0 92 54 150.5t140 58.5q70 0 111 -41t41 -111 q0 -90 -55.5 -147.5t-141.5 -57.5q-69 0 -109 40t-40 108z" />
<glyph unicode="&#xf7;" horiz-adv-x="946" d="M66 494l30 249q2 18 13.5 28.5t27.5 10.5h783q39 0 34 -39l-30 -249q-2 -18 -14.5 -28.5t-28.5 -10.5h-783q-18 0 -26.5 10t-5.5 29zM305 240q0 74 54.5 129t125.5 55q59 0 99.5 -42t40.5 -101q0 -74 -55.5 -128.5t-125.5 -54.5q-59 0 -99 41t-40 101zM393 967 q0 74 55.5 128t124.5 54q59 0 99.5 -40t40.5 -99q0 -74 -54.5 -130.5t-123.5 -56.5q-62 0 -102 41t-40 103z" />
<glyph unicode="&#xf8;" horiz-adv-x="1107" d="M63 444q0 45 7 91q12 106 47 182q68 170 208 267t324 97q137 0 240 -57q2 -2 8 -2q8 0 14 8l72 88q16 18 29 19q10 0 24 -11l47 -39q14 -12 15 -24q0 -12 -13 -29l-73 -92q-8 -16 -2 -22q61 -84 80 -199q8 -65 8 -98q0 -41 -6 -84q-14 -92 -35 -156 q-63 -184 -207.5 -291.5t-337.5 -107.5q-121 0 -219 47q-2 2 -8 2t-15 -8l-65 -80q-14 -18 -29 -19q-12 0 -22 11l-48 38q-14 12 -14 25q0 14 12 29l64 77q10 12 0 23q-82 98 -98 242q-6 37 -7 73zM442 475q0 -10 6.5 -12t12.5 8l198 246q12 16 0 22q-25 12 -53 13 q-98 0 -139 -121q-14 -35 -23 -94q-4 -42 -2 -62zM519 323.5q1 -6.5 9 -8.5t25 -2q51 0 87 36t56 95q11 32 19 93q2 4 2 10v4q0 10 -6 10t-13 -8l-174 -215q-6 -8 -5 -14.5z" />
<glyph unicode="&#xf9;" d="M63 291q0 49 5 76l79 659q6 39 43 39h297q39 0 35 -39l-71 -575q-2 -8 -2 -25q0 -51 25.5 -82t70.5 -31q43 0 74.5 27t46.5 72q4 6 4 11t2 9l71 594q6 39 43 39h297q39 0 35 -39l-123 -987q-2 -18 -13 -28.5t-28 -10.5h-299q-37 0 -32 39l6 49v4q0 8 -5.5 9t-13.5 -7 q-92 -111 -260 -110q-135 0 -211 80.5t-76 226.5zM383 1391q0 12 9 19t28 7h280q29 0 41 -28l68 -172q4 -13 4 -19q0 -29 -37 -29h-235q-29 0 -43 25l-109 176q-6 10 -6 21z" />
<glyph unicode="&#xfa;" d="M63 291q0 49 5 76l79 659q6 39 43 39h297q39 0 35 -39l-71 -575q-2 -8 -2 -25q0 -51 25.5 -82t70.5 -31q43 0 74.5 27t46.5 72q4 6 4 11t2 9l71 594q6 39 43 39h297q39 0 35 -39l-123 -987q-2 -18 -13 -28.5t-28 -10.5h-299q-37 0 -32 39l6 49v4q0 8 -5.5 9t-13.5 -7 q-92 -111 -260 -110q-135 0 -211 80.5t-76 226.5zM504 1192q0 10 8 25l111 172q16 29 47 28h283q31 0 30 -22q0 -12 -12 -25l-151 -176q-23 -25 -49 -25h-236q-31 0 -31 23z" />
<glyph unicode="&#xfb;" d="M63 291q0 49 5 76l79 659q6 39 43 39h297q39 0 35 -39l-71 -575q-2 -8 -2 -25q0 -51 25.5 -82t70.5 -31q43 0 74.5 27t46.5 72q4 6 4 11t2 9l71 594q6 39 43 39h297q39 0 35 -39l-123 -987q-2 -18 -13 -28.5t-28 -10.5h-299q-37 0 -32 39l6 49v4q0 8 -5.5 9t-13.5 -7 q-92 -111 -260 -110q-135 0 -211 80.5t-76 226.5zM317 1190q0 12 12 27l158 192q18 25 47 25h297q31 0 45 -25l111 -192q6 -8 6 -21q0 -12 -9.5 -19.5t-25.5 -7.5h-205q-29 0 -41 27l-34 80q-4 8 -11.5 8t-11.5 -8l-53 -80q-18 -27 -47 -27h-207q-15 0 -23 6.5t-8 14.5z" />
<glyph unicode="&#xfc;" d="M63 291q0 49 5 76l79 659q6 39 43 39h297q39 0 35 -39l-71 -575q-2 -8 -2 -25q0 -51 25.5 -82t70.5 -31q43 0 74.5 27t46.5 72q4 6 4 11t2 9l71 594q6 39 43 39h297q39 0 35 -39l-123 -987q-2 -18 -13 -28.5t-28 -10.5h-299q-37 0 -32 39l6 49v4q0 8 -5.5 9t-13.5 -7 q-92 -111 -260 -110q-135 0 -211 80.5t-76 226.5zM291 1280q0 90 57.5 147.5t139.5 57.5q70 0 109.5 -41t39.5 -111q0 -90 -55 -147.5t-137 -57.5q-70 0 -112 41t-42 111zM705 1276q0 92 54 150.5t140 58.5q70 0 111 -41t41 -111q0 -90 -55.5 -147.5t-141.5 -57.5 q-69 0 -109 40t-40 108z" />
<glyph unicode="&#xfd;" horiz-adv-x="1060" d="M-12 -369l30 238q2 16 7.5 27.5t9.5 11.5h10q129 0 185.5 15.5t70.5 66.5q2 12 0 20l-184 1010v8q0 37 37 37h319q33 0 37 -35l41 -469q0 -10 8 -10q6 0 12 12l152 467q8 35 45 35h319q31 0 31 -25q0 -12 -4 -20l-446 -1024q-72 -158 -140.5 -240t-187.5 -123t-328 -41 h-14q-14 0 -10 39zM487 1219q0 10 8 25l111 172q16 29 47 28h283q31 0 30 -22q0 -12 -12 -25l-151 -176q-23 -25 -49 -25h-236q-31 0 -31 23z" />
<glyph unicode="&#xfe;" horiz-adv-x="1091" d="M-14 -371l217 1766q6 39 43 39h297q18 0 26.5 -10.5t5.5 -28.5l-43 -355q0 -20 19 -8q72 49 178 49q141 0 232.5 -78.5t123.5 -203.5q19 -76 19 -160q0 -49 -6 -102q-18 -133 -60 -230q-61 -150 -179 -236.5t-249 -86.5q-119 0 -182 63q-6 6 -11 4t-7 -12l-50 -410 q-6 -39 -43 -39h-299q-16 0 -25 10.5t-7 28.5zM453 383q-2 -8 4 -21q27 -49 86 -49q72 0 114 68q38 59 48 149q4 41 4 60q0 59 -15 94q-27 68 -98 68q-59 0 -98 -50q-8 -12 -9 -18z" />
<glyph unicode="&#xff;" horiz-adv-x="1060" d="M-12 -369l30 238q2 16 7.5 27.5t9.5 11.5h10q129 0 185.5 15.5t70.5 66.5q2 12 0 20l-184 1010v8q0 37 37 37h319q33 0 37 -35l41 -469q0 -10 8 -10q6 0 12 12l152 467q8 35 45 35h319q31 0 31 -25q0 -12 -4 -20l-446 -1024q-72 -158 -140.5 -240t-187.5 -123t-328 -41 h-14q-14 0 -10 39zM274 1307q0 90 57.5 147.5t139.5 57.5q70 0 109.5 -41t39.5 -111q0 -90 -55 -147.5t-137 -57.5q-70 0 -112 41t-42 111zM688 1303q0 92 54 150.5t140 58.5q70 0 111 -41t41 -111q0 -90 -55.5 -147.5t-141.5 -57.5q-69 0 -109 40t-40 108z" />
<glyph unicode="&#x152;" horiz-adv-x="1861" d="M78 436q0 43 6 88l47 385q20 158 98 281t190.5 191.5t235.5 68.5q139 0 256 -70q6 -6 12.5 -5t6.5 7l2 13q6 39 43 39h938q16 0 25.5 -10.5t7.5 -28.5l-31 -252q-6 -39 -43 -39h-586q-14 0 -18 -17l-23 -180q0 -16 15 -16h360q16 0 25.5 -10.5t7.5 -28.5l-31 -250 q-6 -39 -43 -39h-360q-6 0 -11.5 -4t-5.5 -12l-24 -201v-4q0 -12 12 -12h588q16 0 25 -10.5t7 -28.5l-30 -252q-2 -18 -14.5 -28.5t-28.5 -10.5h-938q-18 0 -27.5 8t-7.5 23l2 8v4q0 6 -5 8t-13 -2q-135 -74 -275 -74q-111 0 -201 57.5t-142 162t-52 241.5zM455 475 q0 -78 43 -124t116 -46q84 0 141.5 56.5t67.5 150.5l49 401q2 12 2 37q0 78 -43 124t-118 46q-82 0 -139.5 -56t-67.5 -151l-49 -401q-2 -12 -2 -37z" />
<glyph unicode="&#x153;" horiz-adv-x="1748" d="M66 449q0 57 4 86q16 129 69 235q72 145 204 228t298 83q88 0 165 -34.5t134 -98.5q12 -8 25 0q74 63 158.5 98t172.5 35q166 0 284 -89t151 -228q12 -45 12 -123q0 -82 -10 -164q-4 -41 -43 -41h-574q-14 0 -14 -14q0 -16 6 -27q14 -47 55 -68.5t119 -21.5q116 0 188 51 q16 10 27 11q12 0 25 -15l104 -157q8 -10 8 -25q0 -16 -16 -31q-178 -156 -426 -155q-203 0 -332 135q-10 10 -22 0q-160 -135 -334 -135q-162 0 -273.5 86t-148.5 235q-16 66 -16 144zM440 469q0 -55 13 -92q27 -63 92 -64q68 0 104 64q35 54 51 160q4 45 5 61q0 55 -17 92 q-20 61 -90 62q-66 0 -106 -62q-35 -53 -48 -153q-4 -49 -4 -68zM1128 643q-2 -8 1.5 -13t9.5 -5h211q18 0 18 18l-6 27q-25 82 -102 82q-74 0 -119 -82z" />
<glyph unicode="&#x178;" horiz-adv-x="1292" d="M184 1403q0 31 37 31h324q33 0 41 -31l125 -473q4 -8 9 -8t9 8l242 473q14 31 47 31h325q33 0 33 -23q0 -6 -8 -22l-512 -885q-6 -18 -6 -21l-53 -440q-6 -39 -43 -39h-297q-17 0 -26 10.5t-7 28.5l55 440q0 14 -2 21l-291 885q-2 4 -2 14zM395 1649q0 90 57.5 147.5 t139.5 57.5q70 0 109.5 -41t39.5 -111q0 -90 -55 -147.5t-137 -57.5q-70 0 -112 41t-42 111zM809 1645q0 92 54 150.5t140 58.5q70 0 111 -41t41 -111q0 -90 -55.5 -147.5t-141.5 -57.5q-69 0 -109 40t-40 108z" />
<glyph unicode="&#x2c6;" horiz-adv-x="722" d="M129 1190q0 12 12 27l158 192q18 25 47 25h297q31 0 45 -25l111 -192q6 -8 6 -21q0 -12 -9.5 -19.5t-25.5 -7.5h-205q-29 0 -41 27l-34 80q-4 8 -11.5 8t-11.5 -8l-53 -80q-18 -27 -47 -27h-207q-15 0 -23 6.5t-8 14.5z" />
<glyph unicode="&#x2dc;" horiz-adv-x="714" d="M149 1292q0 12 7 25q37 76 95 117t122 41q37 0 64.5 -12.5t64.5 -37.5q49 -31 88 -30q33 0 57 24q20 20 33 21q12 0 20 -8l90 -72q12 -8 13 -27q0 -16 -17 -43q-47 -70 -104 -104.5t-115 -34.5q-39 0 -67.5 13.5t-61.5 37.5q-41 29 -69 29q-37 0 -62 -27q-20 -20 -33 -20 q-12 0 -20 8l-90 72q-14 12 -15 28z" />
<glyph unicode="&#x2000;" horiz-adv-x="990" />
<glyph unicode="&#x2001;" horiz-adv-x="1981" />
<glyph unicode="&#x2002;" horiz-adv-x="990" />
<glyph unicode="&#x2003;" horiz-adv-x="1981" />
<glyph unicode="&#x2004;" horiz-adv-x="660" />
<glyph unicode="&#x2005;" horiz-adv-x="495" />
<glyph unicode="&#x2006;" horiz-adv-x="330" />
<glyph unicode="&#x2007;" horiz-adv-x="330" />
<glyph unicode="&#x2008;" horiz-adv-x="247" />
<glyph unicode="&#x2009;" horiz-adv-x="396" />
<glyph unicode="&#x200a;" horiz-adv-x="110" />
<glyph unicode="&#x2010;" horiz-adv-x="831" d="M59 459l31 250q2 18 14.5 28.5t28.5 10.5h670q18 0 26.5 -10.5t6.5 -28.5l-31 -250q-2 -18 -13.5 -28.5t-29.5 -10.5h-668q-39 0 -35 39z" />
<glyph unicode="&#x2011;" horiz-adv-x="831" d="M59 459l31 250q2 18 14.5 28.5t28.5 10.5h670q18 0 26.5 -10.5t6.5 -28.5l-31 -250q-2 -18 -13.5 -28.5t-29.5 -10.5h-668q-39 0 -35 39z" />
<glyph unicode="&#x2012;" horiz-adv-x="831" d="M59 459l31 250q2 18 14.5 28.5t28.5 10.5h670q18 0 26.5 -10.5t6.5 -28.5l-31 -250q-2 -18 -13.5 -28.5t-29.5 -10.5h-668q-39 0 -35 39z" />
<glyph unicode="&#x2013;" horiz-adv-x="980" d="M59 457l31 252q2 18 14.5 28.5t28.5 10.5h819q16 0 25.5 -10.5t7.5 -28.5l-31 -252q-6 -39 -43 -39h-819q-16 0 -25.5 10t-7.5 29z" />
<glyph unicode="&#x2014;" horiz-adv-x="1273" d="M59 459l31 250q2 18 14.5 28.5t28.5 10.5h1110q39 0 35 -39l-31 -250q-2 -18 -14 -28.5t-29 -10.5h-1110q-39 0 -35 39z" />
<glyph unicode="&#x2018;" horiz-adv-x="489" d="M94 965q0 10 6 22l215 416q16 31 47 31h220q18 0 26 -11.5t2 -31.5l-147 -414q-12 -35 -45 -35h-295q-29 0 -29 23z" />
<glyph unicode="&#x2019;" horiz-adv-x="489" d="M88 969l4 16l146 414q12 35 45 35h295q14 0 22 -7.5t8 -17.5q0 -8 -6 -20l-217 -416q-14 -31 -47 -31h-219q-14 0 -22.5 7t-8.5 20z" />
<glyph unicode="&#x201a;" horiz-adv-x="1191" d="M-14 -186l108 477q4 16 15.5 26.5t27.5 10.5h254q31 0 31 -25q0 -6 -4 -18l-185 -480q-12 -33 -45 -32h-172q-18 0 -26 11t-4 30z" />
<glyph unicode="&#x201c;" horiz-adv-x="849" d="M90 967q0 8 6 20l189 416q16 31 47 31h207q31 0 30 -27q0 -10 -2 -16l-121 -414q-12 -35 -45 -35h-280q-15 0 -23 7t-8 18zM500 969q0 6 4 18l186 414q12 33 45 33h209q31 0 31 -27q0 -10 -2 -16l-119 -414q-10 -35 -45 -35h-279q-30 0 -30 27z" />
<glyph unicode="&#x201d;" horiz-adv-x="849" d="M88 969q0 10 2 16l117 414q12 35 47 35h278q15 0 23 -7.5t8 -17.5q0 -8 -6 -20l-184 -414q-16 -33 -47 -33h-209q-29 0 -29 27zM494 985l122 414q12 35 46 35h278q31 0 31 -25q0 -12 -4 -20l-191 -416q-12 -31 -45 -31h-209q-18 0 -25.5 11.5t-2.5 31.5z" />
<glyph unicode="&#x201e;" horiz-adv-x="903" d="M88 -200q0 10 2 16l117 414q12 35 47 35h278q15 0 23 -7.5t8 -17.5q0 -8 -6 -20l-184 -414q-16 -33 -47 -33h-209q-29 0 -29 27zM494 -184l122 414q12 35 46 35h278q31 0 31 -25q0 -12 -4 -20l-191 -416q-12 -31 -45 -31h-209q-18 0 -25.5 11.5t-2.5 31.5z" />
<glyph unicode="&#x2022;" horiz-adv-x="638" d="M74 541q0 88 44 161.5t116.5 117.5t154.5 44q102 0 171 -69.5t69 -176.5q0 -86 -43 -160.5t-116 -119.5t-153 -45q-104 0 -173.5 71.5t-69.5 176.5z" />
<glyph unicode="&#x2026;" horiz-adv-x="1763" d="M23 172q0 63 36.5 118.5t94 88.5t116.5 33q82 0 140.5 -55.5t58.5 -135.5q0 -63 -34 -117.5t-91 -87t-125 -32.5q-88 0 -142 53t-54 135zM662 172q0 63 36.5 118.5t94 88.5t116.5 33q82 0 140.5 -55.5t58.5 -135.5q0 -63 -34 -117.5t-91 -87t-125 -32.5q-88 0 -142 53 t-54 135zM1303 172q0 63 36.5 118.5t94 88.5t116.5 33q82 0 140.5 -55.5t58.5 -135.5q0 -63 -34 -117.5t-91 -87t-125 -32.5q-88 0 -142 53t-54 135z" />
<glyph unicode="&#x202f;" horiz-adv-x="396" />
<glyph unicode="&#x2039;" horiz-adv-x="628" d="M113 569q0 12 10 33l178 301q8 14 21.5 21.5t27.5 7.5h225q29 0 29 -23q0 -10 -6 -22l-182 -301q-8 -12 -2 -21l106 -301q4 -12 4 -16q0 -12 -10 -20.5t-27 -8.5h-223q-33 0 -43 29l-104 301q-4 12 -4 20z" />
<glyph unicode="&#x203a;" horiz-adv-x="610" d="M86 242q0 10 6 22l182 301q8 12 2 21l-108 301q-2 4 -2 14q0 14 10 22.5t27 8.5h223q33 0 43 -29l104 -301q2 -6 2 -16q0 -16 -10 -37l-178 -301q-16 -29 -49 -29h-223q-29 0 -29 23z" />
<glyph unicode="&#x205f;" horiz-adv-x="495" />
<glyph unicode="&#x20ac;" horiz-adv-x="1257" d="M86 545l14 114q6 39 43 39h103q18 0 18 17l2 10q0 16 -14 16h-102q-39 0 -35 39l14 115q6 39 43 39h104q6 0 11.5 4t5.5 12l2 17q18 147 93 255.5t193.5 168t268.5 59.5q197 0 315.5 -94t126.5 -262v-4q0 -16 -10 -26.5t-27 -12.5l-305 -37h-4q-29 0 -35 30 q-10 35 -36.5 55.5t-65.5 20.5q-53 0 -92 -40t-47 -103l-2 -27v-4q0 -12 12 -12h324q31 0 30 -25q0 -6 -4 -18l-47 -117q-6 -14 -18.5 -23.5t-28.5 -9.5h-279q-14 0 -18 -16v-10v-4q0 -12 12 -13h254q31 0 31 -22q0 -12 -4 -21l-45 -116q-6 -14 -18.5 -23.5t-28.5 -9.5h-211 q-14 0 -19 -17l-4 -34l-2 -25q0 -53 29 -85t78 -32q41 0 74.5 23.5t50.5 64.5q16 39 47 33l288 -55q16 -4 23.5 -15.5t1.5 -29.5q-53 -164 -193.5 -257t-332.5 -93q-203 0 -321 110.5t-118 298.5q0 51 5 78l2 18q0 16 -15 17h-104q-16 0 -25.5 10t-7.5 29z" />
<glyph unicode="&#x2122;" horiz-adv-x="1347" d="M137 1300l13 95q2 18 13 28.5t30 10.5h503q18 0 26.5 -10.5t6.5 -28.5l-10 -95q-2 -18 -14.5 -28t-28.5 -10h-141q-14 0 -19 -17l-59 -491q-6 -39 -43 -39h-119q-18 0 -26.5 10t-6.5 29l60 491v4q0 12 -15 13h-137q-16 0 -25.5 10t-7.5 28zM721 754l78 641q6 39 43 39 h125q29 0 43 -23l82 -137q10 -14 24 0l119 137q16 23 47 23h123q18 0 26.5 -10.5t6.5 -28.5l-78 -641q-2 -18 -13.5 -28.5t-29.5 -10.5h-119q-37 0 -33 39l43 346v2q0 10 -6 11t-14 -7l-53 -64q-20 -23 -48 -22h-28q-29 0 -43 22l-37 64q-8 8 -10 8q-10 0 -11 -14l-43 -346 q-6 -39 -43 -39h-118q-18 0 -26.5 10t-6.5 29z" />
<glyph unicode="&#x25fc;" horiz-adv-x="1064" d="M0 0v1065h1065v-1065h-1065z" />
</font>
</defs>
</svg>
