<?xml version="1.0" standalone="no"?>
<!DOCTYPE svg PUBLIC "-//W3C//DTD SVG 1.1//EN" "http://www.w3.org/Graphics/SVG/1.1/DTD/svg11.dtd">
<svg xmlns="http://www.w3.org/2000/svg">
<metadata>Copyright (C) 2019 by original authors @ fontello.com</metadata>
<defs>
<font id="acro" horiz-adv-x="1000" >
<font-face font-family="acro" font-weight="400" font-stretch="normal" units-per-em="1000" ascent="850" descent="-150" />
<missing-glyph horiz-adv-x="1000" />
<glyph glyph-name="down-caret" unicode="&#x61;" d="M500 68c-18 0-35 7-49 20l-426 426c-27 27-27 71 0 98 27 27 71 27 98 0l377-377 377 377c27 27 71 27 98 0 27-27 27-71 0-98l-426-426c-14-13-31-20-49-20z" horiz-adv-x="1000" />

<glyph glyph-name="left-caret" unicode="&#x62;" d="M218 350c0 18 7 35 20 49l426 426c27 27 71 27 98 0 27-27 27-71 0-98l-377-377 377-377c27-27 27-71 0-98-27-27-71-27-98 0l-426 426c-13 14-20 31-20 49z" horiz-adv-x="1000" />

<glyph glyph-name="right-caret" unicode="&#x63;" d="M782 350c0-18-7-35-20-49l-426-426c-27-27-71-27-98 0-27 27-27 71 0 98l377 377-377 377c-27 27-27 71 0 98 27 27 71 27 98 0l426-426c13-14 20-31 20-49z" horiz-adv-x="1000" />

<glyph glyph-name="up-caret" unicode="&#x64;" d="M500 632c18 0 35-7 49-20l426-426c27-27 27-71 0-98-27-27-71-27-98 0l-377 377-377-377c-27-27-71-27-98 0-27 27-27 71 0 98l426 426c14 13 31 20 49 20z" horiz-adv-x="1000" />

<glyph glyph-name="expand" unicode="&#x65;" d="M96-116l870 869c21 21 22 54 2 76-21 21-55 22-76 1-1-1-1-1-2-2l-869-869c-21-21-21-55 0-76 21-20 54-20 75 1 0-1 0-1 0 0z m290-14l593 593c21 21 21 55 0 75-21 21-55 21-75 0l-594-592c-20-21-20-54 1-75 0 0 0 0 0 0 21-21 54-21 75-1l0 0z m303 1l290 290c17 24 12 58-13 76-19 14-45 14-64 0l-289-290c-18-21-15-52 5-69 0 0 0 0 0 0 19-22 50-25 71-7l0 0z" horiz-adv-x="1000" />

<glyph glyph-name="eye" unicode="&#x66;" d="M500 690c-225 0-418-140-495-340 77-200 270-340 495-340s418 140 495 340c-77 200-270 340-495 340z m0-567c-126 0-225 100-225 227s99 227 225 227 225-100 225-227-99-227-225-227z m0 363c-77 0-135-59-135-136 0-77 58-136 135-136s135 59 135 136c0 77-58 136-135 136z" horiz-adv-x="1000" />

<glyph glyph-name="img-placeholder" unicode="&#x67;" d="M961 193l-261 267c-6 7-17 7-24 0 0 0 0 0 0 0l-228-233c-7-7-7-18 0-24 6-7 17-7 24 0 0 0 0 0 0 0l216 220 264-270c2-2 6-4 9-5v-110h-400l-330 334c-6 7-17 7-24 0 0 0 0 0 0 0l-168-170v459h922l0-468 0 0z m-922-154v116l180 182 294-298h-474z m376 325c52-1 94 40 95 92s-40 94-92 95-94-40-95-92c0-1 0-1 0-2 0-50 41-92 92-93z m0 153c33 1 59-25 60-58 1-33-25-59-58-60-33-1-59 25-60 58 0 0 0 1 0 1 0 32 26 58 58 59l0 0z m563 178h-956c-9 0-17-8-17-17v-656c0-9 8-17 17-17h956c9 0 17 8 17 17v656c0 9-7 17-17 17l0 0z" horiz-adv-x="1000" />

<glyph glyph-name="pencil" unicode="&#x68;" d="M5 101v-187h187l620 515-177 215-630-543z m971 463c23 19 26 50 7 72l-107 130c-19 23-50 26-72 7l-102-83 177-215 97 89z" horiz-adv-x="1000" />

<glyph glyph-name="tick" unicode="&#x69;" d="M106 481l-101-100 384-380 606 599-101 100-505-499-283 280z" horiz-adv-x="1000" />

<glyph glyph-name="transfer" unicode="&#x6a;" d="M325 845l-233-233h175v-408h116v408h175l-233 233z m408-757v408h-117v-408h-174l233-233 233 233h-175z" horiz-adv-x="1000" />

<glyph glyph-name="close" unicode="&#x6b;" d="M618 350l353 353c32 32 32 85 0 118-32 32-85 32-118 0l-353-353-353 353c-32 32-85 32-118 0-32-32-32-85 0-118l353-353-353-353c-32-32-32-85 0-118s85-32 118 0l353 353 353-353c32-32 85-32 118 0 32 32 32 85 0 118l-353 353z" horiz-adv-x="1000" />

<glyph glyph-name="dnd" unicode="&#x6c;" d="M500 845c-272 0-495-223-495-495s223-495 495-495 495 223 495 495-223 495-495 495z m-396-495c0 218 178 396 396 396 89 0 173-30 243-84l-555-555c-54 70-84 154-84 243z m396-396c-89 0-173 30-243 84l554 554c54-69 84-153 84-243 1-217-177-395-395-395z" horiz-adv-x="1000" />

<glyph glyph-name="up-arrow" unicode="&#x6d;" d="M500 845l-360-360h270v-630h180v630h270l-360 360z" horiz-adv-x="1000" />

<glyph glyph-name="down-arrow" unicode="&#x6e;" d="M500-145l360 360h-270v630h-180v-630h-270l360-360z" horiz-adv-x="1000" />

<glyph glyph-name="left-arrow" unicode="&#x6f;" d="M5 350l360-360v270h630v180h-630v270l-360-360z" horiz-adv-x="1000" />

<glyph glyph-name="right-arrow" unicode="&#x70;" d="M995 350l-360 360v-270h-630v-180h630v-270l360 360z" horiz-adv-x="1000" />

<glyph glyph-name="duplicate" unicode="&#x71;" d="M887 706h-603v-603h603v603z m-61-543h-482v482h482c0 0 0-482 0-482z m-109-200h-573v573h61v-513h513l-1-60 0 0z m-162 411h-118v61h118v117h61v-117h117v-61h-117v-118h-61v118z" horiz-adv-x="1031" />

<glyph glyph-name="info" unicode="&#x72;" d="M550 100v300h-100v-300h100z m-550 251q0-206 146-353 147-146 354-146 207 0 354 146 146 147 146 353 0 206-146 353-147 146-354 146-207 0-354-146t-146-353z m101 0q0 166 117 284 117 117 282 117t282-117q117-118 117-284 0-166-117-283-117-118-282-118-165 0-282 118-117 117-117 283z m449 150v101h-100v-101h100z" horiz-adv-x="1000" />

<glyph glyph-name="variations" unicode="&#xe812;" d="M445 295v555h-445v-555h445z m0-445v333h-445v-333h445z m555 0v555h-445v-555h445z m-445 667h445v333h-445v-333z" horiz-adv-x="1000" />

<glyph glyph-name="attributes-list" unicode="&#xe813;" d="M112 295v110h-112v-110h112z m0-223v112h-112v-112h112z m0 444v112h-112v-112h112z m888-221v110h-779v-110h779z m0-223v112h-779v-112h779z m-779 444h779v112h-779v-112z" horiz-adv-x="1000" />

<glyph glyph-name="plus" unicode="&#xe814;" d="M1000 421h-428v429h-144v-429h-428v-141h428v-430h144v430h428v141z" horiz-adv-x="1000" />
</font>
</defs>
</svg>
