<?xml version="1.0" standalone="no"?>
<!DOCTYPE svg PUBLIC "-//W3C//DTD SVG 1.1//EN" "http://www.w3.org/Graphics/SVG/1.1/DTD/svg11.dtd">
<svg xmlns="http://www.w3.org/2000/svg">
<metadata>Copyright (C) 2017 by original authors @ fontello.com</metadata>
<defs>
<font id="se-icon" horiz-adv-x="1000" >
<font-face font-family="se-icon" font-weight="400" font-stretch="normal" units-per-em="1000" ascent="850" descent="-150" />
<missing-glyph horiz-adv-x="1000" />
<glyph glyph-name="calender" unicode="&#xe800;" d="M961 702h-140v56c0 22-18 40-40 40-22 0-40-18-40-40v-56h-483v56c0 22-18 40-40 40s-40-18-40-40v-56h-138c-22 0-40-18-40-40v-169h1000v169c0 22-18 40-39 40z m-961-800h1000v547h-1000v-547z m756 413c33 0 65 0 99 0 0-30 0-59 0-89-33 0-66 0-99 0 0 29 0 59 0 89z m-1-188c32 0 65 0 99 0 0-30 0-60 0-91-33 0-65 0-99 0 0 30 0 60 0 91z m-202 188c33 0 65 0 99 0 0-29 0-59 0-89-32 0-65 0-99 0 0 30 0 60 0 89z m0-187c33 0 65 0 99 0 0-31 0-61 0-91-33 0-65 0-99 0 0 30 0 61 0 91z m-202 187c32 0 65 0 99 0 0-29 0-59 0-89-33 0-66 0-99 0 0 30 0 59 0 89z m-1-187c33 0 66 0 99 0 0-31 0-61 0-91-33 0-65 0-99 0 0 30 0 60 0 91z m-204 187c33 0 65 0 99 0 0-29 0-59 0-89-32 0-65 0-99 0 0 30 0 60 0 89z m-1-188c32 0 65 0 99 0 0-29 0-60 0-91-33 0-66 0-99 0 0 30 0 60 0 91z" horiz-adv-x="1000" />

<glyph glyph-name="cancel" unicode="&#xe802;" d="M600 350l395-395-100-100-395 395-395-395-100 100 395 395-395 395 100 100 395-395 395 395 100-100-395-395z" horiz-adv-x="1000" />

<glyph glyph-name="checkmark" unicode="&#xe803;" d="M500 845c-274 0-495-221-495-495 0-274 221-495 495-495s495 221 495 495c0 274-222 495-495 495z m-77-724l-228 229 88 88 140-141 297 297 88-88-385-385z" horiz-adv-x="1000" />

<glyph glyph-name="down-arrow" unicode="&#xe804;" d="M995 539l-495-495-495 495 117 117 378-378 379 378 116-117z" horiz-adv-x="1000" />

<glyph glyph-name="facebook" unicode="&#xe806;" d="M534-145h-475c-30 0-54 25-54 54v882c0 30 25 54 54 54h881c30 0 54-25 54-54v-881c0-30-25-54-54-54h-252v382h129l19 149h-148v95c0 44 12 72 74 72h79v136c-14 2-60 6-115 6-114 0-192-69-192-197v-110h-128v-149h129l-1-385 0 0z" horiz-adv-x="1000" />

<glyph glyph-name="fax" unicode="&#xe80a;" d="M797 796h-594v-198h594v198z m50-446c-27 0-50 23-50 50s23 50 50 50c28 0 49-23 49-50s-22-50-49-50z m-149-347h-396v248h396v-248z m149 545h-693c-83 0-149-66-149-148v-297h198v-198h594v197h198v298c0 82-66 148-148 148z" horiz-adv-x="1000" />

<glyph glyph-name="instagram" unicode="&#xe80b;" d="M824 614c0-33-27-59-59-59s-59 27-59 59 27 59 59 59 59-26 59-59z m-324-429c-91 0-165 74-165 165s74 165 165 165 165-74 165-165-74-165-165-165z m0 419c-141 0-254-114-254-254s113-254 254-254 254 113 254 254-113 254-254 254z m0 152c133 0 148-1 200-3 49-2 74-10 92-17 23-9 40-20 56-37s28-34 37-56c7-18 15-44 17-92 3-53 4-68 4-201s-1-148-3-200c-2-49-10-74-17-92-9-23-20-40-37-56-17-17-34-28-56-37-18-7-44-15-92-17-53-3-68-4-201-4s-148 1-200 3c-49 2-74 10-92 17-23 9-40 20-56 37-17 17-28 34-37 56-7 18-15 44-17 92-3 53-4 68-4 201s1 148 3 200c2 49 10 74 17 92 9 23 20 40 37 56s34 28 56 37c18 7 44 15 92 17 53 3 68 4 201 4z m0 89c-135 0-151-1-204-3s-89-11-120-23c-33-13-60-30-88-57s-45-55-57-88c-12-32-21-67-23-120-2-53-3-69-3-204s1-151 3-204c2-52 11-89 23-120 13-33 30-60 57-88s55-45 88-57c32-12 67-21 120-23 52-2 69-3 204-3s151 1 204 3c52 2 89 11 120 23 33 13 60 30 88 57s45 55 57 88c12 32 21 67 23 120 2 52 3 69 3 204s-1 151-3 204c-2 52-11 89-23 120-13 33-30 60-57 88s-55 45-88 57c-32 12-67 21-120 23-53 2-69 3-204 3z" horiz-adv-x="1000" />

<glyph glyph-name="left-arrow" unicode="&#xe80d;" d="M810 734l-384-384 384-384-118-118-502 502 502 502 118-118z" horiz-adv-x="1000" />

<glyph glyph-name="linkedin" unicode="&#xe80f;" d="M30 511h193v-611h-193v611z m92 77h-2c-70 0-115 47-115 106 0 60 47 106 118 106s115-46 116-106c0-59-45-106-117-106z m873-688h-219v316c0 83-34 139-109 139-58 0-90-38-104-75-6-13-5-32-5-50v-330h-217c0 0 3 560 0 611h217v-96c12 42 82 102 192 102 137 0 245-88 245-277v-340z" horiz-adv-x="1000" />

<glyph glyph-name="mail" unicode="&#xe811;" d="M499 401l-396 247h791l-395-247z m395-347h-790v495l395-247 395 247v-495z m0 692h-790c-55 0-98-45-98-99v-594c0-55 45-99 99-99h791c55 0 99 45 99 99v595c-2 55-47 98-101 98z" horiz-adv-x="1000" />

<glyph glyph-name="pdf" unicode="&#xe812;" d="M600 375h50v150h-50v-150z m-500 275h-100v-700c0-55 45-100 100-100h700v100h-700v700z m250-175h50v50h-50v-50z m575 50h-75v-50h75v-75h-75v-100h-75v300h150v-75z m-200-150c0-42-33-75-75-75h-125v300h125c42 0 75-34 75-75v-150z m-250 100c0-42-33-75-75-75h-50v-100h-75v300h125c42 0 75-34 75-75v-50z m425 375h-600c-55 0-100-45-100-100v-600c0-55 45-100 100-100h600c55 0 100 45 100 100v600c0 55-45 100-100 100z" horiz-adv-x="1000" />

<glyph glyph-name="fb" unicode="&#xe813;" d="M559 840c56 0 113 0 169 0 0-54 0-109 0-163 0-7-2-9-9-9-34 0-69 0-103 0-23 0-43-21-43-44 0-33 0-67 0-100 0-3 0-5 0-9 51 0 102 0 154 0-2-20-3-39-5-58-4-33-8-65-12-98-1-6-3-9-10-9-39 0-79 0-118 0-3 0-6 0-10 0 0-4 0-8 0-11 0-156 0-313 0-469 0-3 0-7 0-10-68 0-135 0-203 0 0 3 1 5 1 8 0 158 0 316 0 474 0 3 0 6 0 9-33 0-66 0-98 0 0 55 0 109 0 164 33 0 65 0 98 0 0 4 1 7 1 10 0 40-1 81 0 121 0 20 2 40 6 59 6 35 23 65 50 89 29 24 62 37 99 42 11 2 22 3 33 4z" horiz-adv-x="1000" />

<glyph glyph-name="phone" unicode="&#xe814;" d="M204 417c79-155 207-282 362-362l121 121c15 15 37 20 56 13 61-21 128-32 196-32 31 0 55-25 55-55v-192c0-31-25-55-55-55-515 1-934 420-934 936 0 30 25 55 55 55h192c31 0 55-25 55-55 0-68 11-135 32-196 6-19 2-41-14-56l-121-122z" horiz-adv-x="1000" />

<glyph glyph-name="refresh" unicode="&#xe815;" d="M230 350c0 149 122 270 270 270 46 0 89-11 126-32l65 65c-55 35-121 55-192 55-199 0-360-161-360-360h-134l180-180 180 181h-135z m585 180l-180-180h135c0-148-122-270-270-270-46 0-89 11-126 32l-65-65c55-35 121-55 192-55 199 0 360 161 360 360h134l-180 178z" horiz-adv-x="1000" />

<glyph glyph-name="right-arrow" unicode="&#xe816;" d="M193-30l380 380-380 380 117 117 497-497-497-497-117 117z" horiz-adv-x="1000" />

<glyph glyph-name="travel" unicode="&#xe817;" d="M2 207c22 23 42 48 67 67 11 9 33 10 48 7 34-7 67-19 101-27 8-2 21 0 26 6 56 54 111 109 169 167-30 17-57 34-85 49-85 46-170 92-256 138-33 18-36 36-9 63 24 24 47 49 72 71 10 8 28 14 41 12 146-34 292-70 438-105 11-2 27 3 35 11 46 42 89 87 135 128 36 32 82 49 129 56 60 10 98-40 82-106-13-54-40-102-79-141-35-35-70-69-104-105-6-7-10-20-8-29 34-151 69-301 104-452 6-25 4-46-23-60-24-13-45-33-67-49-25-17-37-14-51 13-63 111-126 225-187 336-59-59-118-118-180-180 10-34 23-75 32-116 3-13-2-32-10-44-16-21-36-38-56-57-16-16-37-13-51 5-40 53-77 109-119 159-23 27-55 47-83 68-36 28-74 54-111 81 0 12 0 23 0 34z" horiz-adv-x="1000" />

<glyph glyph-name="twitter" unicode="&#xe819;" d="M995 664c-37-17-75-28-117-33 42 26 74 66 89 115-40-24-83-42-129-50-37 41-90 65-148 65-112 0-203-93-203-208 0-16 2-33 5-48-169 9-319 91-419 218-18-31-28-66-28-105 0-72 36-136 90-173-32 1-63 11-91 27v-3c0-101 70-185 163-204-17-5-35-7-53-7-13 0-26 1-39 4 26-83 101-143 190-145-69-55-157-89-252-89-17 0-33 1-49 3 90-59 197-93 311-93 373 0 578 318 578 593 0 9 0 18-1 27 42 28 76 65 103 106" horiz-adv-x="1000" />

<glyph glyph-name="user-details" unicode="&#xe81a;" d="M732 618c0-128-104-232-232-232s-232 104-232 232 104 232 232 232 232-104 232-232l0 0z m0 0m-232-348c-232 0-420-188-420-420h840c0 232-188 420-420 420l0 0z m0 0" horiz-adv-x="1000" />

<glyph glyph-name="verification" unicode="&#xe81b;" d="M503 802c-250 0-453-203-453-453 0-251 203-454 453-454 251 0 454 203 454 454 0 250-204 453-454 453l0 0z m0-736c-31 0-56 26-56 57 0 31 25 56 56 56 31 0 57-25 57-56 0-32-26-57-57-57l0 0z m57 226c0-31-25-57-57-57-31 0-56 25-56 57v283c0 31 25 57 56 57 31 0 57-26 57-57v-283z m0 0" horiz-adv-x="1000" />

<glyph glyph-name="zoom" unicode="&#xe81d;" d="M373 222c-141 0-254 114-254 254s114 254 254 254 254-114 254-254-113-254-254-254z m340 0h-45l-16 15c55 64 89 149 89 240 0 204-165 368-368 368s-368-164-368-368 164-368 368-368c91 0 175 34 240 89l15-16v-45l283-282 84 84-282 283z" horiz-adv-x="1000" />
</font>
</defs>
</svg>
